<?xml version="1.0" standalone="no"?>
<!DOCTYPE svg PUBLIC "-//W3C//DTD SVG 1.1//EN" "http://www.w3.org/Graphics/SVG/1.1/DTD/svg11.dtd" >
<svg xmlns="http://www.w3.org/2000/svg" xmlns:xlink="http://www.w3.org/1999/xlink" version="1.1">
<metadata>
Created by FontForge 20141024 at Thu Apr  2 11:40:17 2015
 By System Administrator
Copyright (c) 2011 Natanael Gama (exo@ndiscovered.com), with Reserved Font Name "Exo"
</metadata>
<defs>
<font id="Exo-Bold" horiz-adv-x="550" >
  <font-face 
    font-family="Exo"
    font-weight="700"
    font-stretch="normal"
    units-per-em="1000"
    panose-1="2 0 8 3 0 0 0 0 0 0"
    ascent="800"
    descent="-200"
    x-height="531"
    cap-height="732"
    bbox="-78.5 -286.404 1347.8 1002"
    underline-thickness="50"
    underline-position="-50"
    stemh="21"
    stemv="140"
    unicode-range="U+000D-FB06"
  />
<missing-glyph horiz-adv-x="709" 
d="M619.8 506l-252 -240l252 -241v481zM102.8 13h507l-253 243zM89.7998 22l256 244l-256 241v-485zM610.8 518h-511l257 -242zM75.7998 0v531h558v-531h-558z" />
    <glyph glyph-name="fi" unicode="fi" horiz-adv-x="627" 
d="M15.0498 424v90l83.7002 17v39.7998c0 119.65 83.0498 213 217.35 215.2c49 0.549805 189.5 -10.75 233 -28.5v-83.0996c-1 0 -183.55 5.5 -183.55 5.5c-56.2998 1.7998 -126.8 -15.4004 -126.8 -114.601v-34.2998l347.25 -10v-521h-140.45v424h-206.8v-424h-140v424
h-83.7002z" />
    <glyph glyph-name="fl" unicode="fl" horiz-adv-x="721" 
d="M15.0498 424v90.002l84.1504 17v45.2998c0 150.35 76.5498 209.699 196.55 209.699l298.15 -1.65039v-573.35c0 -77.0996 14.5498 -92 46 -104c0 0 60 -21 67 -21v-86h-115.5c-94.5498 0 -137.5 48 -137.5 189v490.35c-24.75 0 -130.7 0.549805 -130.7 0.549805
c-56.2998 0 -84 -20.9004 -84 -103.601v-45.2998h119.6v-107h-120.5v-424h-140v424h-83.25z" />
    <glyph glyph-name=".notdef" horiz-adv-x="709" 
d="M619.8 506l-252 -240l252 -241v481zM102.8 13h507l-253 243zM89.7998 22l256 244l-256 241v-485zM610.8 518h-511l257 -242zM75.7998 0v531h558v-531h-558z" />
    <glyph glyph-name=".notdef" horiz-adv-x="709" 
d="M619.8 506l-252 -240l252 -241v481zM102.8 13h507l-253 243zM89.7998 22l256 244l-256 241v-485zM610.8 518h-511l257 -242zM75.7998 0v531h558v-531h-558z" />
    <glyph glyph-name="uni000D" unicode="&#xd;" horiz-adv-x="759" 
 />
    <glyph glyph-name="space" unicode=" " horiz-adv-x="250" 
 />
    <glyph glyph-name="exclam" unicode="!" horiz-adv-x="273" 
d="M66.5996 23v90c0 15 8 25 24 25h88c15 0 23 -11 23 -25v-90c0 -15 -9 -23 -23 -23h-88c-14 0 -24 9 -24 23zM64.8994 731h141.25l-14.7002 -535h-114.05z" />
    <glyph glyph-name="quotedbl" unicode="&#x22;" horiz-adv-x="444" 
d="M64.6504 665v67h134.95v-67l-10 -134h-113.4zM245.301 665v67h134.95v-67l-10 -134h-114.5z" />
    <glyph glyph-name="numbersign" unicode="#" horiz-adv-x="721" 
d="M15.0498 210l14.6016 96h152.4l20.5 121h-153.5l15.5996 96h155.8l37 209h96l-37 -209h123.1l36 209h96l-36 -209h171.5l-14.5 -96h-172.05l-20.5 -122h172.05l-13.5 -96h-178.65l-37 -209h-96l37 209l-123.65 1l-37 -210h-96l37 210h-149.2zM278.052 306l125.95 -1
l20.5 122h-125.95z" />
    <glyph glyph-name="dollar" unicode="$" horiz-adv-x="570" 
d="M41.7998 485.75l-0.00195312 63.252c0.900391 142.65 86.9502 185.9 196.15 189v86h85.5v-87.3496c68.5 -3.90039 131.2 -15.3506 178.351 -27.6006v-109.15c-57.7002 3.84961 -187.2 9.5498 -223.5 9.5498c-61.2002 1.34961 -96.5 -5.60059 -96.5 -71.4502v-35.75
c0 -53.0498 27.5996 -70.5 79.7998 -70.5h93.7002c145.7 0 173.5 -113.1 173.5 -194v-48.75c0 -161.65 -103.85 -198.601 -205.35 -197.001v-82h-85.5v84.25c-76.75 3.7002 -118.55 12.0498 -173.149 27.7002v107.8c40 -2.2002 140.5 -8.75 233.5 -8.75
c42.0996 0 90.5 9.2002 90.5 63.0498v39.4004c0 41.5996 -13.0498 68.2998 -66.5 68.2998h-91.5c-170.65 0 -189 132.6 -189 194z" />
    <glyph glyph-name="percent" unicode="%" horiz-adv-x="962" 
d="M32.0996 479.5v122c0 85 33.5 130.5 134.5 130.5h101c98 0 132.5 -45.5 132.5 -130.5v-122c0 -85 -33.5 -130.5 -134.5 -130.5h-101c-98 0 -132.5 45.5 -132.5 130.5zM130.1 496c0 -34.1504 8.9502 -49 48.25 -49h73.5c44.7998 0 50.25 16.6504 50.25 49v89
c0 40.2002 -13.3496 49 -48.25 49h-73.5c-38.2002 0 -50.25 -10.0498 -50.25 -49v-89zM207.75 0l446.8 732h100.15l-442.95 -732h-104zM562.6 133.05v122c0 85 32.9502 130.5 133.95 130.5h101.55c98 0 132.5 -45.5 132.5 -130.5v-122c0 -85 -33.5 -130.5 -134.5 -130.5
h-101.55c-98 0 -131.95 45.5 -131.95 130.5zM660.6 149.55c0 -34.1504 8.95117 -49 48.251 -49h72.9502c44.7998 0 50.7998 16.6504 50.7998 49v89c0 40.2002 -13.9004 49 -48.8008 49h-72.9502c-38.2002 0 -50.25 -10.0498 -50.25 -49v-89z" />
    <glyph glyph-name="ampersand" unicode="&#x26;" horiz-adv-x="679" 
d="M65.3496 82c-71.1504 99.4004 -41.6494 212.2 44.251 287.3l69.5 60.3496l-51.4502 74c-79 107 0 214.95 79.3496 226.351c119.3 17.0498 205 -3 277 -20v-101.7h-164.5c-76.0996 0 -85.0498 -29.5498 -35.2998 -97.7998l168.45 -231.1l121.7 114.05l48.8496 -59.2002
l-59.7998 -107.55l-37.7002 -43.9004l136.8 -182.8h-165l-70.4502 96.1504l-65.4004 -58.2002c-68.3496 -60.7002 -222 -65.75 -296.3 44.0498zM180.051 161.6c26.7998 -33.4004 76.7998 -56 119.25 -14.3496l50.2998 48.5996l-101 133.75l-51.5996 -45.2002
c-53.5996 -46.2002 -44.25 -88 -16.9502 -122.8z" />
    <glyph glyph-name="quotesingle" unicode="'" horiz-adv-x="224" 
d="M41.7998 665v67h141v-67l-10 -134h-120z" />
    <glyph glyph-name="parenleft" unicode="(" horiz-adv-x="377" 
d="M56.8496 326c0 324.6 175.5 534 175.5 534h130.5s-166 -252.1 -166 -534c0 -308.8 166 -536 166 -536h-130.5s-175.5 175.45 -175.5 536z" />
    <glyph glyph-name="parenright" unicode=")" horiz-adv-x="377" 
d="M15.0498 -210c0 0 166 227.2 166 536c0 281.9 -166 534 -166 534h130.5s175.5 -209.4 175.5 -534c0 -360.55 -175.5 -536 -175.5 -536h-130.5z" />
    <glyph glyph-name="asterisk" unicode="*" horiz-adv-x="427" 
d="M37.9004 566v56.5l139 23.5l5 -85zM94.9004 416.2l24.5498 136.649l82.4502 -20.8496l-53.5 -132.75zM165.55 719.75l54.4004 19.3008l67.2998 -122.4l-79 -32.6504zM190.4 466.65l46.5 71.3506l112.2 -89.9004l-32.5498 -45.2002zM239.45 571.001l119.45 78.75
l31.0996 -47.0996l-96.5 -97z" />
    <glyph glyph-name="plus" unicode="+" horiz-adv-x="483" 
d="M33.5 297v118h148v149h118v-149h150v-118h-150v-149h-118v149h-148z" />
    <glyph glyph-name="comma" unicode="," horiz-adv-x="261" 
d="M64.6504 25v87c0 18 9 27 25 27h84c18 0 24 -12 24 -27v-123c0 -110.95 -128 -77 -128 -77v48.5c30 -1 31 15.0498 31 25.5v14h-11c-14 0 -25 8 -25 25z" />
    <glyph glyph-name="hyphen" unicode="-" horiz-adv-x="354" 
d="M20 231v118h314v-118h-314z" />
    <glyph glyph-name="period" unicode="." horiz-adv-x="263" 
d="M64.6504 23v90c0 15 8 25 24 25h86c18 0 25 -9 25 -25v-90c0 -18 -11 -23 -25 -23h-86c-14 0 -24 9 -24 23z" />
    <glyph glyph-name="slash" unicode="/" horiz-adv-x="456" 
d="M15.0498 -72l281 842h145l-281 -842h-145z" />
    <glyph glyph-name="zero" unicode="0" horiz-adv-x="630" 
d="M52.9502 178.5v369.5c0 120.1 72.5996 184 184.1 184h164c134.65 0 176.9 -82.5996 176.9 -178.5v-375c0 -119 -66.9004 -178.5 -177.45 -178.5h-164c-112.45 0 -183.55 58.5 -183.55 178.5zM192.95 201.05c0 -60.9502 41.749 -72.0498 75.4492 -72.0498h96.9004
c46.9502 0 72.6504 17.5 72.6504 71.5v331c0 46 -20.0996 71.5 -68.25 71.5h-105.15c-60.0996 0 -71.5996 -42.75 -71.5996 -71.5v-330.45z" />
    <glyph glyph-name="one" unicode="1" horiz-adv-x="371" 
d="M30.0996 557.7v91.5l141.6 82.7998h138.9v-732h-140v593z" />
    <glyph glyph-name="two" unicode="2" horiz-adv-x="588" 
d="M30.0996 612v104.499c91 15.75 174.85 25.5 304 25.5c151.05 0 216.75 -103.6 216.75 -226.5c0 -164.1 -209.65 -333.649 -276.15 -386.499h276.15v-129h-513.2v123c93.5996 63 372.75 275.8 372.75 391.75c0 66.4004 -34.7998 97.25 -120.75 97.25h-259.55z" />
    <glyph glyph-name="three" unicode="3" horiz-adv-x="583" 
d="M22.8496 605v101c88 31 206.5 30 323.5 28c110 -2 180.9 -69.1504 180.9 -176v-52.5c0 -73 -24.3496 -122.2 -75.8994 -141.5c53.0996 -22.7002 75.8994 -73.5 75.8994 -149.5v-42.5c0 -115.6 -65.9004 -179 -187.9 -179c-114 0 -222.5 -3 -310.5 28l1 102h254
c66.75 0 102.5 4.59961 102.5 68.25v31.5c0 60.4004 -37 73.2002 -96.5 75.75l-199 7v113l199 10c69 3 98.5 18.75 98.5 71.5v36c0 57.2998 -46.5 69 -98.5 69h-267z" />
    <glyph glyph-name="four" unicode="4" horiz-adv-x="620" 
d="M15.0498 224l260.5 508h154l-218.65 -439.5h181.15v166.85l31.5 76.6504h108.5v-243.5h73.5v-108.5l-73.5 -24.5v-157.5h-140v157.5h-343z" />
    <glyph glyph-name="five" unicode="5" horiz-adv-x="596" 
d="M57.8496 20l0.00195312 110h282c65.1504 0 72.9502 40.2002 72.9502 71v66.5498c0 33 -5.9502 71.4502 -66.9004 71.4502h-93.5c-35.1504 0 -61.1006 -17.1504 -61.1006 -58.5h-132l22 451.5h444.55v-129h-310l-7.59961 -165c20.5996 16.4502 47.5 22.1504 69.0498 24.5
c38.5996 4.25 88.1992 0.549805 109.299 0c116.9 -5.5 166.2 -80.5498 166.2 -182.5v-103c0 -137 -103.65 -181 -185.45 -181c-124 0 -175.5 1 -309.5 24z" />
    <glyph glyph-name="six" unicode="6" horiz-adv-x="608" 
d="M49.5996 384c0 265 85.7002 343.55 172 351.25c100.45 8.7998 224.601 -3.25 318.501 -20.0996v-106.15h-250.5c-91 0 -99.0996 -107.55 -100 -185.5c58.5996 14.9502 123 21 202.5 21c141.5 0 172 -75.9502 172 -171v-109c0 -121.9 -71.4004 -165.5 -177.5 -165.5
h-142.95c-116.15 0.450195 -194.051 70 -194.051 385zM189.6 321c0 -100.6 10.0498 -193 95.2998 -193h76.4004c41.0996 0 63.25 9.4502 63.25 61.75v67.25c0 51.0996 -19.4502 64 -60.5 64h-174.45z" />
    <glyph glyph-name="seven" unicode="7" horiz-adv-x="554" 
d="M22.8496 603l0.000976562 129h471.1l38 -64.5l-245.2 -667.5h-152.9l225 603h-336z" />
    <glyph glyph-name="eight" unicode="8" horiz-adv-x="624" 
d="M56.8496 167.75v73.252c0 60.7998 30.1504 101.7 78.9502 112.5c-69.5 30.25 -78.9502 88.0996 -78.9502 145.5v65c0 137.3 84 173 187 173h151.5c113.05 0 173 -47.7998 173 -173.55v-53.4502c0.450195 -24.75 -6.84961 -104.3 -75 -116
c62.25 -11.6504 75.4502 -94.0508 75 -137.051v-85.9004c0 -148.15 -91.8496 -171.051 -174 -171.051h-150.5c-181.9 -0 -187 114.1 -187 167.75zM196.85 183.452c0 -41.2998 19.6514 -59.9502 71.751 -59.9502h93.8496c43.5498 0 65.8994 20.7002 65.8994 59.9502v69.25
c0 39.9502 -22.2002 62.2998 -63.4502 62.2998h-101.25c-43.7998 0 -66.7998 -19.5498 -66.7998 -62.2998v-69.25zM196.851 494.002c0 -51.5996 32.7998 -62.001 66.7998 -62.001h100.15c57.0498 0 64.5498 29.2998 64.5498 62v47.0996
c0 59.7002 -25.7002 72.4004 -65.4502 72.4004h-94.2998c-45.2998 0 -71.75 -6.59961 -71.75 -72.3994v-47.0996z" />
    <glyph glyph-name="nine" unicode="9" horiz-adv-x="608" 
d="M45.7002 460.75l-0.000976562 109c0 121.9 71.4004 165.5 177.5 165.5h142.95c116.15 -0.450195 194.051 -70 194.051 -385c0 -265 -85.7002 -343.55 -172 -351.25c-100.45 -8.7998 -228.2 1 -318.5 20.0996v106.15h250.5c91 0 99.0996 107.55 100 185.5
c-58.5996 -14.9502 -123 -21 -202.5 -21c-141.5 0 -172 75.9502 -172 171zM185.249 477.25c0 -51.0996 19.4502 -64 60.5 -64h174.45c0 100.6 -10.0498 193 -95.2998 193h-76.4004c-41.0996 0 -63.25 -9.4502 -63.25 -61.75v-67.25z" />
    <glyph glyph-name="colon" unicode=":" horiz-adv-x="263" 
d="M64.6504 23v90c0 15 8 25 24 25h86c18 0 25 -9 25 -25v-90c0 -18 -11 -23 -25 -23h-86c-14 0 -24 9 -24 23zM64.6504 416.45v90c0 15 8 25 24 25h86c18 0 25 -9 25 -25v-90c0 -18 -11 -23 -25 -23h-86c-14 0 -24 9 -24 23z" />
    <glyph glyph-name="semicolon" unicode=";" horiz-adv-x="264" 
d="M64.6504 25v87c0 16.2002 9.4502 27 25 27h84c16.6504 0 24 -12 24 -27v-123c0 -110.95 -128 -77 -128 -77v48.5c30 -1 31 15.0498 31 25.5v14h-11c-14 0 -25 10.25 -25 25zM65.5508 416.9v90c0 15 8 25 24 25h86c18 0 25 -9 25 -25v-90c0 -18 -11 -23 -25 -23h-86
c-14 0 -24 9 -24 23z" />
    <glyph glyph-name="less" unicode="&#x3c;" horiz-adv-x="450" 
d="M37.9004 287.6v129.5l375 144.4v-129.5l-225.95 -78.5498l225.95 -88.5498v-130.4z" />
    <glyph glyph-name="equal" unicode="=" horiz-adv-x="467" 
d="M20 184.5v118h427v-118h-427zM20 399v118h427v-118h-427z" />
    <glyph glyph-name="greater" unicode="&#x3e;" horiz-adv-x="450" 
d="M37.9004 134.5v130.4l225.95 88.5498l-225.95 78.5498v129.5l375 -144.4v-129.5z" />
    <glyph glyph-name="question" unicode="?" horiz-adv-x="542" 
d="M15.0498 609v104.5c93.2002 18.5 167 30.5 282 25.5c152 0 215.5 -98 215.5 -196v-73.5c0 -135 -74.4502 -197.25 -226.5 -184.5v-90h-113.5v195h114.5c49 2 86.5 22.4004 86.5 81.7002v53.7002c0 59.2998 -34.5 83.5996 -109.5 83.5996h-249zM161.75 23l-0.000976562 90
c0 15 8 25 24 25h86.9004c16.6504 0 24.1006 -9.90039 24.1006 -25v-90c0 -16.6504 -10.0996 -23 -24.0996 -23h-86.9004c-14 0 -24 9 -24 23z" />
    <glyph glyph-name="at" unicode="@" horiz-adv-x="868" 
d="M49.5996 11l-0.000976562 304.001c0 85.5 35 197 206.5 197h191.9c84.75 0 175 -20.0996 175 -156.5v-355.5h-90.0996l-19.5 58.5c-2 0 -63.9004 -67.5 -154.9 -67.5c-85 -0.900391 -128.45 65.5 -128 133.5v42c0 89.9004 53.1504 138.5 145.5 138.5
c50.9502 0 135.4 -1 135.4 0c0 0 1 42.4502 0 43c0 43.3496 -20.6504 51.5 -62 51.5h-193.3c-48 0 -94 -10 -94 -90v-287.5c0 -90 54 -108.5 94 -108.5h332.5c82 0 103 40.5 103 108.5v457c0 77 -42 116.75 -103 116.75h-404v85.5c48 10 178.5 28 304.5 27h99.5
c110.95 -0.900391 215.5 -60.8008 215.5 -229.251v-457c0 -147.5 -67.0498 -222 -210 -222h-338c-113 0 -206.5 59.25 -206.5 211zM348.499 142.051c0 -21 17 -39 46.7002 -38.5498c42.5 -0.450195 86.5498 15.7002 116.2 43v79l-119.4 -10.5
c-29.5498 -2.90039 -43.9502 -17.1504 -43.5 -46.1006c-0.549805 -1 -0.549805 -25.8496 0 -26.8496z" />
    <glyph glyph-name="A" unicode="A" horiz-adv-x="692" 
d="M34 0l247 732h159.25l237.75 -732h-149.05l-52 162.2h-239.75l-52.7998 -162.2h-150.4zM273.55 286.25h170.25l-82.25 261.25z" />
    <glyph glyph-name="B" unicode="B" horiz-adv-x="604" 
d="M60.75 0v732h301.8c151.5 0 206.5 -90.4004 206.5 -195.5c0 -67.4004 -28.7002 -143.301 -100.25 -156.501c61.0498 -11.0996 111.95 -71.8994 111.95 -164.999c0 -136.1 -61.4502 -215 -215.45 -215h-304.55zM201.2 123.5l158.6 -0.000976562
c42.5 0 80.9502 20.1504 80.9502 97.9004c0 53.6504 -21.7002 102.601 -80.9502 102.601h-158.6v-200.5zM201.2 441.999h153.1c50.25 0 76.9502 30.6504 76.9502 82.9502c0 67.8496 -41.4502 83.5498 -76.9502 83.5498h-153.1v-166.5z" />
    <glyph glyph-name="C" unicode="C" horiz-adv-x="571" 
d="M41.7998 368c0 234 49.9502 372 248.95 372c102.6 0 176.199 -9.7998 254.999 -33.25v-109.6c-1 0 -123.95 13.8496 -222 13.8496c-102.45 0 -141.95 -23.4502 -141.95 -245c0 -164 27.0996 -243 142.5 -243c105 0 221.45 8.09961 221.45 8.09961v-109.6
c-65.5996 -20.1504 -150.199 -29.1504 -254.999 -27.5c-185 1.65039 -248.95 141.95 -248.95 374z" />
    <glyph glyph-name="D" unicode="D" horiz-adv-x="662" 
d="M60.75 0v732h311.05c210.7 0 253.95 -187.65 253.95 -369c0 -215.5 -75.25 -363 -253.95 -363h-311.05zM200.75 124.85l160.05 0.000976562c90.75 0 124.95 92.2998 124.95 239.149c0 195.85 -46.9004 244.5 -124.95 244.5h-160.05v-483.65z" />
    <glyph glyph-name="E" unicode="E" horiz-adv-x="567" 
d="M58 143.9l0.000976562 436.1c0 127.025 89.9648 153.351 159 152.001c0 0 257.7 -7.2002 322.05 -16v-115.75h-289.05c-52 0 -52 -29 -52 -56v-114.2l295.55 -10.5498v-115.1l-295.55 -9.4502v-114.2c0.450195 -53 33 -52 62 -52h279.05v-114.75
c-56.6504 -7.7002 -312.051 -17 -312.051 -17c-65.2852 -2.90039 -169 11.8994 -169 146.899z" />
    <glyph glyph-name="F" unicode="F" horiz-adv-x="567" 
d="M58 0v577.8c0 119.45 82.2646 156.101 159 154.2c0 0 257.7 -7.2002 322.05 -16v-115.75h-289.05c-52 0 -52 -29 -52 -56v-114.2l295.55 -10.5498v-115.1l-295.55 -9.4502v-294.95h-140z" />
    <glyph glyph-name="G" unicode="G" horiz-adv-x="614" 
d="M41.7998 370c0 212.65 39.9502 370 238.95 370c110.85 0 175.75 -6.2998 281.5 -32.5v-108.5c-6 0 -134.1 17.5 -248.5 17.5c-110.55 0 -131.95 -67.9502 -131.95 -248.5c0 -190.1 21.75 -241.35 125.5 -242.25c68.2998 -0.450195 126 46 126 46v131.25h-102.55v88.5
c42.75 18.1504 101.8 25 174.55 25c21 0 44 -1 68 -3v-413.5h-100.55l-37.4502 49c-32.5 -29.7998 -71 -51.25 -155.5 -54c-207 -8.0498 -238 166.3 -238 375z" />
    <glyph glyph-name="H" unicode="H" horiz-adv-x="636" 
d="M60.75 0v732h140v-313.5h251v313.5h140v-732h-140v289.5h-251v-289.5h-140z" />
    <glyph glyph-name="I" unicode="I" horiz-adv-x="245" 
d="M60.75 0v732h140v-732h-140z" />
    <glyph glyph-name="J" unicode="J" horiz-adv-x="356" 
d="M26.75 23.2002l1.7998 108.999c91.0498 -8.09961 142.649 -11.0498 143.1 93.8506v505.95h140v-567c0 -47 -3.09961 -115 -53.0996 -147c-53 -34 -179.8 -28.7998 -231.8 5.2002z" />
    <glyph glyph-name="K" unicode="K" horiz-adv-x="628" 
d="M60.75 0v732h134.5v-306h58.9004l185.45 306h163.15l-223.95 -366.65l223.95 -365.35h-163.15l-185.45 302.5h-57.9004v-302.5h-135.5z" />
    <glyph glyph-name="L" unicode="L" horiz-adv-x="539" 
d="M60.75 142.5v589.5h140v-551c0 -53 33 -52 62 -52h251v-129h-300.5c-79.75 0 -152.5 29.5 -152.5 142.5z" />
    <glyph glyph-name="M" unicode="M" horiz-adv-x="847" 
d="M41.7998 0l64.499 732h194.4l121.85 -500.1l121.35 500.1h193.95l68.6504 -732h-138.35l-47.75 488.55l-118.15 -488.55h-156.3l-122.5 488.55l-43.2998 -488.55h-138.35z" />
    <glyph glyph-name="N" unicode="N" horiz-adv-x="678" 
d="M60.75 0v732h142l290.45 -473v473h140v-732h-140l-291.45 467.5v-467.5h-141z" />
    <glyph glyph-name="O" unicode="O" horiz-adv-x="671" 
d="M49.5996 361c0 343 126.45 376 294.45 376c173 0 293.55 -33 293.55 -376c0 -323 -113.55 -365 -293.55 -365s-294.45 32 -294.45 365zM189.6 361c0 -199.8 29.4502 -236 154.45 -236c117.5 0 153.55 38.7002 153.55 236c0 228.05 -42.2998 247 -153.55 247
c-108.25 0 -154.45 -14 -154.45 -247z" />
    <glyph glyph-name="P" unicode="P" horiz-adv-x="602" 
d="M51.2002 0v732h314.75c91.6504 0 203.051 -28.5996 203.051 -225.75c0 -223.3 -119.15 -239.6 -203.051 -235.75c-40 1.65039 -169.75 17 -174.75 20v-290.5h-140zM191.2 394l163.751 -0.000976562c44.2998 0 73.0498 22.7002 73.0498 110.601
c-0.900391 86.4502 -38.0508 102.9 -73.0508 102.9h-163.75v-213.5z" />
    <glyph glyph-name="Q" unicode="Q" horiz-adv-x="671" 
d="M49.5996 361c0 343 123.75 376 293.55 376c173 0 294.45 -33 294.45 -376c0 -323 -114.45 -363.9 -294.45 -365c-180 0 -293.55 32 -293.55 365zM189.6 361c0 -199.8 28.5498 -236 153.55 -236c117.5 0 154.45 38.7002 154.45 236c0 228.05 -43.2002 247 -154.45 247
c-108.25 0 -153.55 -14 -153.55 -247zM299.949 -33h79.5c31.2002 -53.3496 103.4 -44.2998 162.5 -28.25v-113c-100.6 -22.0498 -234.25 13.2002 -242 141.25z" />
    <glyph glyph-name="R" unicode="R" horiz-adv-x="607" 
d="M51.2002 0l0.000976562 732h320.25c114.25 0 199.25 -53.4502 199.25 -228.25c0 -181.2 -75.9004 -202.7 -116.551 -215.5l138.6 -288.25h-157.55l-121 277l-123 14v-291h-140zM191.751 401h165.95c48.75 0 72 14.2998 72 102.75c0 83.1504 -28 103.75 -72 103.75
h-165.95v-206.5z" />
    <glyph glyph-name="S" unicode="S" horiz-adv-x="590" 
d="M49.5996 485.75v63.249c0 145 86 187.35 198 189c105.25 2.2002 225.2 -11.8496 283 -28.9492v-110.05c-64 5.65039 -208.2 10 -244.5 10c-61.2002 1.34961 -96.5 -2.90039 -96.5 -71v-35.75c0 -58 22.2002 -70.5 78.9004 -70.5h115.6
c143.45 0 173.05 -113.1 173.05 -194v-48.75c0 -166.2 -103.55 -197 -202.55 -197c-124.9 0 -206.75 7.65039 -282.45 29.9502v110.05c40 -4 161.95 -11 254.95 -11c42.0996 0 90.0498 6.9502 90.0498 63.0498v39.4004c0 41.5996 -12.5996 68.2998 -66.0498 68.2998h-112.5
c-176.5 0 -189 130.35 -189 194z" />
    <glyph glyph-name="T" unicode="T" horiz-adv-x="593" 
d="M31.25 603v129h541v-129h-203.5v-603h-140v603h-197.5z" />
    <glyph glyph-name="U" unicode="U" horiz-adv-x="664" 
d="M60.75 320v412h140v-412c0 -167.35 37.0996 -196 142 -196c93.5 0 136 34.4502 136 196v412h141v-412c0 -323 -156 -325 -277 -325c-136 0 -282 -8 -282 325z" />
    <glyph glyph-name="V" unicode="V" horiz-adv-x="685" 
d="M34 732h148.65l162.85 -548l172.85 548h148.65l-241.5 -732h-162z" />
    <glyph glyph-name="W" unicode="W" horiz-adv-x="992" 
d="M34 732h148.649l162.4 -543.05l131.5 543.05h150l-50.9502 -188.9l115.95 -356.85l134.2 545.75h148.65l-201.5 -732h-162l-98.5 299.75l-86.9004 -299.75h-162z" />
    <glyph glyph-name="X" unicode="X" horiz-adv-x="641" 
d="M34 732h154.7l138.75 -249.8l140.55 249.8h154.7l-219.85 -365.4l214.85 -366.6h-154.7l-135.55 246.4l-135.75 -246.4h-154.7l214.5 366.6z" />
    <glyph glyph-name="Y" unicode="Y" horiz-adv-x="656" 
d="M34 732h152.5l142.8 -351l156.2 351h152.5l-240.9 -505v-227h-140v227z" />
    <glyph glyph-name="Z" unicode="Z" horiz-adv-x="556" 
d="M26.75 0v129l335.5 474h-335.5v129h504v-129l-319 -474h319v-129h-504z" />
    <glyph glyph-name="bracketleft" unicode="[" horiz-adv-x="333" 
d="M64.6504 -10.5v664c0 99.5996 38.0996 188.5 169 188.5h85.5v-118h-52.5c-38 0 -62 -27 -62 -87v-642c0 -60 24 -87 62 -87h52.5v-118h-85.5c-147.4 0 -169 118.6 -169 199.5z" />
    <glyph glyph-name="backslash" unicode="\" horiz-adv-x="456" 
d="M15.0498 770h145l281 -842h-145z" />
    <glyph glyph-name="bracketright" unicode="]" horiz-adv-x="333" 
d="M15.0498 -92h52.5c38 0 62 27 62 87v642c0 60 -24 87 -62 87h-52.5v118h85.5c130.9 0 169 -88.9004 169 -188.5v-664c0 -80.9004 -21.5996 -199.5 -169 -199.5h-85.5v118z" />
    <glyph glyph-name="asciicircum" unicode="^" horiz-adv-x="384" 
d="M37.9004 531l107.65 135.5h104l96.8496 -135.5h-93l-58.4502 60l-63.0498 -60h-94zM249.551 666.5z" />
    <glyph glyph-name="underscore" unicode="_" horiz-adv-x="674" 
d="M20 -1v118h634v-118h-634z" />
    <glyph glyph-name="grave" unicode="`" horiz-adv-x="243" 
d="M15.0498 669.5h122.5l90.5 -138.5h-91z" />
    <glyph glyph-name="a" unicode="a" horiz-adv-x="519" 
d="M30.0996 135.35l0.000976562 49.998c0 77.25 41.75 145.65 155.55 145.65c0 0 156 -1 156 0c0 0 1 33 0 34c0 56.5996 -26.5 65.5 -71 65.5c-46.1504 0 -179.351 -8.2998 -223.001 -11.4502v86.4502c69.9004 27.1504 142.95 35.0508 241.95 35.501
c114.35 0.450195 192.05 -39.0498 192.05 -170.5v-370.5h-110.55l-29.4502 58.5c-5.84961 -11.5498 -80.3994 -66.1494 -161.499 -64.499c-102.15 2.75 -150.051 72.2998 -150.051 141.35zM170.101 155.197c0 -44.1504 23.9004 -48.6992 49.6504 -48.6992
c58.5498 0 121.899 41.0996 121.899 41.0996v97.3496l-128.5 -9.9502c-36.9502 -3.4502 -43.0498 -30.7998 -43.0498 -54v-25.7998z" />
    <glyph glyph-name="b" unicode="b" horiz-adv-x="556" 
d="M45.7002 0l0.000976562 785h139.1v-280.5c48.5996 22.1504 116.25 34.5 161.25 34.5c147.15 0 173.351 -110.85 173.351 -276c0 -161.05 -42.6504 -269 -173.351 -269c-63.0498 0 -127.1 32.7998 -160.25 59.5l-24.9502 -53.5h-115.15zM185.801 146.45
c29.7998 -19.25 71.3506 -32.8008 123.95 -32.8008c45.2002 0 69.6504 36.4004 69.6504 154.851c0 135.5 -25.4502 160.75 -69.6504 160.75c-48.4004 0 -87.4004 -5.7998 -123.95 -19.9502v-262.85z" />
    <glyph glyph-name="c" unicode="c" horiz-adv-x="494" 
d="M37.9004 266c0 218.8 73 270.001 175 270.001c52 0 156.9 -3.09961 244.5 -31.5v-87s-95.5498 6 -184.55 6c-64.4004 0 -94.9502 -3.84961 -94.9502 -160.399c0 -135.95 22.9502 -155.601 94.9502 -155.601c92 0 191.55 9.34961 191.55 9.34961v-87.9004
c-77.7002 -39.5 -168.5 -32.9502 -251.5 -33.9502c-99 0 -175 51.75 -175 271z" />
    <glyph glyph-name="d" unicode="d" horiz-adv-x="556" 
d="M37.9004 263c0 169.55 26.2012 276 173.352 276c45 0 112.2 -12.3496 160.8 -34.5v280.5h139.55v-785h-115.15l-24.9502 53.5c-33.1504 -26.7002 -97.2002 -59.5 -160.25 -59.5c-130.7 0 -173.351 103.55 -173.351 269zM177.901 268.5
c0 -118.45 24.4512 -154.85 69.6514 -154.85c52.5996 0 94.1494 13.5498 123.949 32.7998v262.85c-36.5498 14.1504 -75.5498 19.9502 -123.95 19.9502c-44.2002 0 -69.6504 -25.25 -69.6504 -160.75z" />
    <glyph glyph-name="e" unicode="e" horiz-adv-x="525" 
d="M37.9004 268c0 228.2 63.5996 267 232 267c153.6 0 225 -17.5 225 -193.5c0 -94.5996 -52 -133 -148 -133h-169c0 -95.8496 36.2002 -101.55 112 -101.55c81 0 120 -0.450195 195 10.5498v-94.5c-74.9502 -27.9502 -189 -28 -272 -28c-135 0 -175 78.2002 -175 273z
M177.9 309l132.699 0.000976562c29.1504 0 44.3008 14.3496 44.3008 39.6494c0 67.0498 -9.5498 79.3496 -76.8496 79.3496c-73.9502 0 -101.25 -4.2998 -100.15 -119z" />
    <glyph glyph-name="f" unicode="f" horiz-adv-x="403" 
d="M15.0498 424v90l83.25 17v99c0 90.8496 36.5498 156 156.55 156c49 0 90.4502 -6.25 133.95 -24v-83.0996c-1 0 -95.5 1 -95.5 1c-56.2998 1 -55 -27.2002 -55 -82.9004v-66h120.5v-107h-120.5v-424h-140v424h-83.25z" />
    <glyph glyph-name="g" unicode="g" horiz-adv-x="560" 
d="M35.3496 102.35c0 41.7998 18.5508 81.0498 61.751 94.5498c-44 28 -58.5498 94.0996 -58.5498 147.1c0 127 64.3496 189 184 189h323v-83.5l-59 -18c9.34961 -22.0996 20 -40.3496 20 -104c0 -76.5 -31.7998 -178.5 -181.5 -178.5h-123
c-16 0 -40.4502 -0.150391 -40.4502 -23.4004s18.3076 -26.8496 40.4492 -26.8496h162.95c96.0195 0 157.05 -50.0498 157.05 -157.25v-57.5c0 -76.5 -35.5 -154 -166.5 -154h-150c-94 0 -165.5 48.9004 -165.5 154v67.4004l46.5996 48.5
c-28 15.5996 -51.2998 51.7998 -51.2998 102.45zM180.601 -98.9502c0 -52.6504 27.8994 -58.5498 62.8994 -58.5498h82.9004c50.2002 0 56.2002 24.75 56.2002 55.7998v38.75c0 29.9502 -12.3428 48.2324 -52.0498 48.6504h-107.7c-19.4766 0 -42.25 3.59961 -42.25 3.59961
v-88.25zM178.55 344.001c0 -49 15 -82.5 64.5 -82.5h56.2002c53.0498 0 68.2002 34.4004 67.2998 82.5c-1.34961 55.1758 -19 76.5 -68.2998 76.5h-53.7002c-56.7002 0 -66 -36.9004 -66 -76.5z" />
    <glyph glyph-name="h" unicode="h" 
d="M45.7002 0v782.9h139.45v-308.4c43.9502 31.7002 88.0498 65.5 169.05 65.5c123.6 0 158.5 -85.2998 158.5 -186.5v-353.5h-140v355.7c0 52.7998 -23.1504 71.7998 -58.6504 71.7998c-56.3496 0 -87.0996 -14.5 -128.35 -46v-381.5h-140z" />
    <glyph glyph-name="i" unicode="i" horiz-adv-x="227" 
d="M37.9004 609.85v88.6504c0 15 8 25 24 25h105c15 0 22.4502 -11 22.4502 -25v-88.6504c0 -15 -8.4502 -23 -22.4502 -23h-105c-14 0 -24 9 -24 23zM42.9502 0v531h140v-531h-140z" />
    <glyph glyph-name="j" unicode="j" horiz-adv-x="242" 
d="M45.7002 609.85v88.6504c0 15 8 25 24 25h105c15 0 23 -11 23 -25v-88.6504c0 -15 -9 -23 -23 -23h-105c-14 0 -24 9 -24 23zM51.75 -270v801h140v-535c1 -86 -1 -187.1 -37 -266h-103z" />
    <glyph glyph-name="k" unicode="k" horiz-adv-x="557" 
d="M45.7002 0v782h140v-429h29l150.75 178h177.25l-199.15 -231.5l199.15 -299.5h-166.25l-161.75 246h-29v-246h-140z" />
    <glyph glyph-name="l" unicode="l" horiz-adv-x="313" 
d="M45.7002 189v594h140v-572c0 -77.0996 18.5996 -93.7998 46 -104c0 0 60 -21 67 -21v-86h-115.5c-86.9004 0 -137.5 48 -137.5 189z" />
    <glyph glyph-name="m" unicode="m" horiz-adv-x="875" 
d="M45.7002 0l0.000976562 530.999h112.5l27.5 -57.4004c47.25 33.9004 85.25 65.0508 165.35 65.0508c67.75 0 115.75 -25.7002 137.65 -68.6504c47.5996 34.75 108.5 68.6504 190.9 68.6504c117.3 0 158.5 -79.4502 158.5 -186.95v-351.7h-140v353.9
c0 49.6504 -23.1504 72.25 -58.6504 72.25c-53.7002 0 -92.6006 -10.25 -130.001 -41.7002c0 -4.40039 0.549805 -26.9004 0.549805 -31.8506v-352.6h-140v353.9c0 49.6504 -23.5996 72.25 -59.0996 72.25c-55 0 -83.9502 -14.0498 -125.2 -45.5498v-380.6h-140z" />
    <glyph glyph-name="n" unicode="n" 
d="M45.7002 0l-0.000976562 531h112.5l27.5 -56.5c45.5996 32.7998 87.5 65.5 168.5 65.5c123.6 0 158.5 -85.2998 158.5 -186.5v-353.5h-140v355.7c0 52.7998 -23.5996 71.7998 -58.6494 71.7998c-56.3496 0 -87.0996 -14.5 -128.35 -46v-381.5h-140z" />
    <glyph glyph-name="o" unicode="o" horiz-adv-x="560" 
d="M37.9004 258c0 217 62.75 278 242.25 278c182.85 0 242.25 -67 242.25 -278c0 -197 -56.6504 -263 -242.25 -263c-183.4 0 -242.25 73 -242.25 263zM177.9 258c0 -137.4 27.8496 -150.5 102.25 -150.5c78.8496 0 102.25 10.7002 102.25 150.5
c0 148.75 -18.7998 165.5 -102.25 165.5c-82.8496 0 -102.25 -16.8496 -102.25 -165.5z" />
    <glyph glyph-name="p" unicode="p" horiz-adv-x="556" 
d="M45.7002 -270l-0.000976562 801h115.15l24.5 -53.5c33.1504 26.7002 97.6504 59.5 160.7 59.5c130.7 0 173.351 -109.6 173.351 -269c0 -153.6 -26.2002 -276 -173.351 -276c-45 0 -112.65 12.3496 -161.25 34.5v-296.5h-139.1zM185.35 121.7
c36.5498 -14.1504 75.999 -19.9512 124.399 -19.9512c44.2002 0 69.6504 25.25 69.6504 160.75c0 118.45 -24.4502 154.851 -69.6504 154.851c-52.5996 0 -94.5996 -13.5498 -124.399 -32.7998v-262.85z" />
    <glyph glyph-name="q" unicode="q" horiz-adv-x="555" 
d="M37.9004 268c0 185.6 69.4502 269 194.45 269c106 0 226.65 -16.25 277.5 -30.1504v-776.85h-140v299c-40.9004 -27.6504 -92.5 -39 -137.5 -39c-153 0 -194.45 101.3 -194.45 278zM177.9 271.85c0 -100.75 0.950195 -171.551 80.8506 -171.551
c44.2998 0 67.1494 4 111.1 21.7002v308h-110c-80.0498 0 -81.9502 -96.7998 -81.9502 -158.149z" />
    <glyph glyph-name="r" unicode="r" horiz-adv-x="417" 
d="M45.7002 0v531.002h118l22 -67c36.7998 35.5498 86.2998 72.4502 152.35 72.4502c22.9502 0 44.9502 -0.900391 59.1504 -6.35059v-135.15c-14.2002 1.34961 -46.6504 2.69922 -76.75 2.69922c-58 0 -100.1 -9.4502 -134.75 -59.1006v-338.55h-140z" />
    <glyph glyph-name="s" unicode="s" horiz-adv-x="508" 
d="M30.0996 347l0.00195312 46.001c0 82 35 143 138 143c102.05 0 242.55 -3.2998 283.55 -27v-88.3496h-240.65c-35.9502 0 -40.9004 -11.25 -40.9004 -36.4502v-24c0 -33.5498 17.6504 -34.4502 40.9004 -34.4502h126.1c101.3 0 141 -60.0498 141 -137.25v-54.5
c0 -109 -66 -139 -130 -139c-100.7 0 -259.101 4.5498 -296.001 28.8994v87.4502h250.9c9.34961 0 35.0996 1.15039 35.0996 33.6504v24.7998c0 22.3496 -6.5 34.6494 -35.0996 34.6494h-123.9c-94 0 -149 39.5498 -149 142.55z" />
    <glyph glyph-name="t" unicode="t" horiz-adv-x="381" 
d="M15.0498 425v78.001l85.7998 29l23.5 148h116.5v-148h118.7v-107h-118.7v-213c0 -78.2002 18.0498 -94.9004 45.4502 -105.101c0 0 60 -21 67 -21v-86h-122.1c-78.6504 0 -130.351 49.0996 -130.351 190.1v235h-85.7998z" />
    <glyph glyph-name="u" unicode="u" 
d="M37.9004 177.5l0.000976562 353.5h140v-355.7c0 -52.7998 23.5996 -71.7998 58.6494 -71.7998c56.3496 0 87.0996 14.5 128.35 46v381.5h140v-531h-112.5l-27.5 56.5c-52.75 -31.7002 -87.5 -65.5 -168.5 -65.5c-123.6 0 -158.5 85.2998 -158.5 186.5z" />
    <glyph glyph-name="v" unicode="v" horiz-adv-x="564" 
d="M15.0498 531h149.75l115.95 -367l119.6 367h149.2l-192.65 -531h-156.5z" />
    <glyph glyph-name="w" unicode="w" horiz-adv-x="826" 
d="M15.0498 531h149.75l106.4 -367l95.0996 367h139.4l-36.9502 -143.05l87.9502 -223.95l104.8 367h150.3l-171.65 -531h-156.5l-79.5 192.35l-60.0498 -192.35h-159.2z" />
    <glyph glyph-name="x" unicode="x" horiz-adv-x="572" 
d="M18.5 0l183.2 266l-183.2 265h169l97.25 -158.9l100.15 158.9h169l-185.75 -268l177.75 -263h-161l-98.7002 157.45l-98.7002 -157.45h-169z" />
    <glyph glyph-name="y" unicode="y" horiz-adv-x="578" 
d="M16.0498 531h147.001l91.5996 -371.55c11.4004 -42.7002 45 -38.4502 53.3496 -39l106.35 410.55h145.7l-183.95 -699l-72.7998 -102h-99.9004l74.75 270c-73.7998 0 -132.1 37.2002 -157.949 135.3z" />
    <glyph glyph-name="z" unicode="z" horiz-adv-x="474" 
d="M22.8496 413v118h429v-118l-227.35 -294h227.35c1 -1 0 -118 0 -118h-414v116.9l238.4 295.1h-253.4z" />
    <glyph glyph-name="braceleft" unicode="{" horiz-adv-x="321" 
d="M15.0498 280.75v105.5c33 3 73.5 9.15039 73.5 53v216.75c0 109.2 67.4502 186 217.5 186v-118c-51.4502 0 -77.5 -21 -77.5 -112v-181c0 -62.2998 -38.6504 -90.2002 -96 -97c57.3496 -10.2998 95 -43.75 95 -94v-239.5c0 -65 21.7002 -99.7998 78.5 -98v-112.5
c-163.85 0 -218.5 68.7002 -218.5 172v265.75c0 37.5996 -32.5 56 -72.5 53z" />
    <glyph glyph-name="bar" unicode="|" horiz-adv-x="247" 
d="M65.0996 -72v842h118v-842h-118z" />
    <glyph glyph-name="braceright" unicode="}" horiz-adv-x="321" 
d="M15.0498 -97.5c56.7998 -1.7998 78.5 33 78.5 98v239.5c0 50.25 37.6504 83.7002 95 94c-57.3496 6.7998 -96 34.7002 -96 97v181c0 91 -26.0498 112 -77.5 112v118c150.05 0 217.5 -76.7998 217.5 -186v-216.75c0 -43.8496 40.5 -50 73.5 -53v-105.5
c-40 3 -72.5 -15.4004 -72.5 -53v-265.75c0 -103.3 -54.6504 -172 -218.5 -172v112.5z" />
    <glyph glyph-name="asciitilde" unicode="~" horiz-adv-x="419" 
d="M37.9004 586.3c31.75 34.6504 65.6504 71.2998 120.301 71.2998c44 0 66 -35 106 -35c39.5498 -1.09961 69.2002 20.1504 93 40l24.2002 -59.5996c-24.25 -29.4004 -61.4502 -72 -113.351 -72c-43.9004 0 -73.8506 35 -112.851 35s-59.75 -15.5 -93 -35z" />
    <glyph glyph-name="exclamdown" unicode="&#xa1;" horiz-adv-x="276" 
d="M69.7998 350.9v87.1006c0 14 10 22 24 23h84.75c12 -1 24 -12 24 -26v-83.6504c-0.450195 -12.5498 -5 -27 -22.4502 -27h-86.2998c-14.3496 0 -24 9.34961 -24 26.5498zM65.4502 -269.999l13.7002 533.2h114.6l14.0498 -533.2h-142.35z" />
    <glyph glyph-name="cent" unicode="&#xa2;" horiz-adv-x="487" 
d="M30.0996 266c0 221.95 74.4502 273.15 182.75 270.9v97.0996h86.4004v-100.45c47.7998 -4.90039 102.5 -13.9004 150.9 -29.0508v-87s-96.0996 6.90039 -185.1 6.90039c-64.4004 0 -94.9502 -4.75 -94.9502 -161.3c0 -135.95 22.9502 -156.5 94.9502 -156.5
c92 0 191.55 9.34961 191.55 9.34961v-87.9004c-50.0498 -24.7998 -104.35 -31.7998 -159.55 -33.1494v-90.3496h-86.4004v89.5498c-104.65 0.200195 -180.551 50.25 -180.551 271.9z" />
    <glyph glyph-name="sterling" unicode="&#xa3;" horiz-adv-x="582" 
d="M37.9004 0v108.5l66.5 20.5v184.5h-66.5v72.5l66.5 22.5v74.5c0 221.15 98.6504 249 255.5 249c57 0 185 -16 185 -16v-112h-188.5c-86.7998 0 -112 -5.2002 -112 -108.9v-86.5996l221.5 -17v-78h-221.5v-184.5h299.5v-129h-506z" />
    <glyph glyph-name="currency" unicode="&#xa4;" horiz-adv-x="446" 
d="M38.9004 438l48.249 48.6514l45.4004 -44.75c25.4502 17.9004 56.9004 28.3506 89.8008 28.3506c33.5996 0 64.2998 -10.7998 89.6494 -28.5l46.3496 47.5498l49.2998 -47.1504l-48.6504 -49.75c13.9004 -23.4502 21.8008 -51.3506 21.8008 -80.7002
c0 -35 -10.5498 -67.4502 -29.0996 -93.9004l48.5996 -47.5l-47.5 -50.2002l-52.8496 51.2002c-22.7002 -13.9502 -49.2002 -22.1006 -77.6006 -22.1006c-31.3496 0 -60.7998 9.90039 -85.25 26.25l-46.4502 -48.0996l-49.0996 49.7002l47.75 47.8496
c-15.5996 25.25 -24.9492 54.75 -24.9492 86.7998c0 29.5996 7.7998 56.8496 21.9502 80.0996zM141.8 310.802c0 -45.3496 35.2002 -83.25 80.5498 -83.25s81 37.9004 81 83.25c0 44.9004 -36.0996 81.1006 -81 81.1006c-44.4502 0 -80.5498 -36.6504 -80.5498 -81.1006z
" />
    <glyph glyph-name="yen" unicode="&#xa5;" horiz-adv-x="634" 
d="M15.0498 732h152.501l142.8 -330.3l154.85 330.3h153.85l-204.7 -394.5h110.6v-81h-146.8v-36.25h146.8v-81h-146.8v-139.25h-140v139.25h-140.2v81h140.2v36.25h-140.2v81h106.2z" />
    <glyph glyph-name="brokenbar" unicode="&#xa6;" horiz-adv-x="248" 
d="M65.0996 -72v328h118v-328h-118zM65.0996 429v341h118v-341h-118z" />
    <glyph glyph-name="section" unicode="&#xa7;" horiz-adv-x="541" 
d="M42.7998 336.5l-0.00292969 34.499c0 40.0996 0.200195 96.2998 60.5 115c-55.4502 23.75 -61.5 71.2002 -61.5 104v48c0 98 55 146 141 146c75.9502 0 226.101 -7.84961 279.501 -19v-99h-241c-26.8496 0 -39.0498 -10 -39.5 -35.7002v-34.7998
c0 -22.0498 14.5996 -34.8994 40.5996 -34.8994h122.9c113 0 155.45 -42.5498 155 -125.899v-34.5c0 -34.0498 -4.2002 -92.8994 -58.5 -107.699c51.2002 -8.2002 57.5 -65.5 57.5 -98.5v-56.5c0 -121.1 -74 -145.5 -138 -145.5c-83.0996 0 -232.949 7.2998 -282.499 19v99
h237.4c27.4004 0 43.2002 4.5498 43.6504 31.3496v39.4502c0 26.5996 -11.9502 32.6992 -41.5 32.6992h-124.55c-91 0 -151 24.2998 -151 123zM181.797 366.199c0 -36.2002 16.25 -40.2002 45 -40.2002h86.0498c43.5996 0 47 13.2002 47 41.2002c1 1 0 37.7998 0 37.7998
c0 26.75 -2 43 -47 43h-86.0498c-39.1504 0 -45 -11.9502 -45 -45v-36.7998z" />
    <glyph glyph-name="dieresis" unicode="&#xa8;" horiz-adv-x="448" 
d="M37.9004 582c0 32.4004 26.8496 58.25 59.25 58.25s58.25 -25.8496 58.25 -58.25s-25.8496 -59.25 -58.25 -59.25s-59.25 26.8496 -59.25 59.25zM292.9 582c0 32.4004 26.8496 58.25 59.25 58.25s58.25 -25.8496 58.25 -58.25s-25.8496 -59.25 -58.25 -59.25
s-59.25 26.8496 -59.25 59.25z" />
    <glyph glyph-name="copyright" unicode="&#xa9;" horiz-adv-x="800" 
d="M41.7998 368c0 180.6 42.1504 364 254.5 364h231.5c199.85 0 231.5 -189.95 231.5 -364c0 -229.3 -80.5 -368 -231.5 -368h-231.5c-188.95 0 -254.5 186.15 -254.5 368zM133.3 368c0 -151.8 49 -281.55 163 -282h226c84.5996 0.450195 145.5 78 145.5 282
c0 120 -9 278 -140 278h-231.5c-89 0 -163 -50.8496 -163 -278zM223.3 365c0 161 58.0518 218 144.002 218c41 0 126.4 -7.40039 183.5 -24v-74c-63 9 -128.5 12 -161.5 12c-54 0 -74.5 -35.5 -74.5 -135c0 -84 19.0498 -129 78.3496 -129
c64.2998 0 125.899 9.34961 163.649 16v-74c-57.4004 -23.5 -117.551 -28 -184.551 -28c-79 0 -148.95 41 -148.95 218z" />
    <glyph glyph-name="ordfeminine" unicode="&#xaa;" horiz-adv-x="366" 
d="M22.8496 262.5v69h321.05v-69h-321.05zM22.8496 466.3l-0.000976562 35c0 50.7002 30.2998 94.9502 111 94.9502c0 0 100.95 -1 100.95 0c0 0 1 15.5996 0 16.5996c0 35.3496 -18.5996 40.6494 -51.0996 40.6494c-68.8496 0 -116 -6.75 -148.85 -8.09961v66.2002
c51.0498 17.3496 93.9502 26.3994 164.55 26.8496c85.6504 0.450195 143.601 -26.1494 143.601 -113.449v-247h-81.7998l-25.9502 44.5996c-4.2002 -8.7998 -51.75 -49.7002 -105.25 -48.6006c-71.25 1.65039 -107.15 46.4004 -107.15 92.3008zM124.448 484.8
c0 -26.7002 16.3496 -30.1006 35.1992 -30.1006c43.5 0 75.1504 25.4004 75.1504 25.4004v58.5l-80.0996 -6.15039c-26.5 -2.4502 -30.25 -18.7998 -30.25 -33.2998v-14.3496z" />
    <glyph glyph-name="guillemotleft" unicode="&#xab;" horiz-adv-x="580" 
d="M37.9004 354l206 203l76.75 -75.6504l-130.25 -127.35l133.05 -130.7l-74.5498 -77.2998zM257.45 354l206 203l76.75 -75.6504l-130.25 -127.35l133.05 -130.7l-74.5498 -77.2998z" />
    <glyph glyph-name="logicalnot" unicode="&#xac;" horiz-adv-x="494" 
d="M33.5 239.5v112.5h427v-193h-112.5v80.5h-314.5z" />
    <glyph glyph-name="uni00AD" unicode="&#xad;" horiz-adv-x="354" 
d="M20 231v118h314v-118h-314z" />
    <glyph glyph-name="registered" unicode="&#xae;" horiz-adv-x="800" 
d="M41.7998 368c0 180.6 42.1504 364 254.5 364h231.5c199.85 0 231.5 -189.95 231.5 -364c0 -229.3 -80.5 -368 -231.5 -368h-231.5c-188.95 0 -254.5 186.15 -254.5 368zM133.3 368c0 -151.8 49 -281.55 163 -282h226c84.5996 0.450195 145.5 78 145.5 282
c0 120 -9 278 -140 278h-231.5c-89 0 -163 -50.8496 -163 -278zM247.8 153l-0.000976562 427h182.5c66 0 134 -24.75 134 -133.5c0 -94.5498 -38.3496 -119.05 -78.3994 -131l87.1504 -162.5h-98.9502l-83.2998 159l-51.5 12v-171h-91.5zM339.299 390h75
c52 0 58.5 8.0498 58.5 55.5c0 45.9502 -22.0498 48.5 -58.5 48.5h-75v-104z" />
    <glyph glyph-name="macron" unicode="&#xaf;" horiz-adv-x="367" 
d="M37.9004 531v79.5h292v-79.5h-292z" />
    <glyph glyph-name="degree" unicode="&#xb0;" horiz-adv-x="278" 
d="M37.9004 632c0 57 46 103 102 103s101 -46 101 -103s-45 -102 -101 -102s-102 45 -102 102zM95.3506 632c0 -24.5 20.0498 -43.5498 44.5498 -43.5498s43.5498 19.0498 43.5498 43.5498s-19.0498 44.5498 -43.5498 44.5498s-44.5498 -20.0498 -44.5498 -44.5498z" />
    <glyph glyph-name="plusminus" unicode="&#xb1;" horiz-adv-x="500" 
d="M42.7998 70.5v118h416v-118h-416zM42.7998 381.5v118h148v149h118v-149h150v-118h-150v-149h-118v149h-148z" />
    <glyph glyph-name="twosuperior" unicode="&#xb2;" horiz-adv-x="400" 
d="M23.75 766.6c-0.900391 0 -0.450195 81.5488 0 81.0986c61.0498 10.75 111.55 18.8496 198.95 18.8496c104.05 0 145.95 -61.2998 145.95 -145.35c0 -104.65 -128.05 -207.75 -172.25 -243.3h171.8v-99.9502h-340.9v95.4004c59.8496 41.9004 231.8 161.551 231.8 236.601
c0 43.6504 -20.75 56.6504 -76.5498 56.6504h-158.8z" />
    <glyph glyph-name="threesuperior" unicode="&#xb3;" horiz-adv-x="408" 
d="M22.8496 762.05v79.2969c59.2002 21.6504 134.4 21.3008 213.7 20.2012c81.5 -0.549805 127.05 -50.3994 127.05 -120.85v-30.0498c0 -48.0996 -19.7002 -80.1992 -56.7002 -92.9492c38 -14.7998 56.7002 -48.8496 56.7002 -98.9492v-23.0498
c0 -76.5 -40.75 -122.3 -132.05 -122.3c-77.2998 0 -145.5 -2 -204.7 19.6504l1 79.8496c14.4004 0 159.4 0.450195 159.4 0.450195c52.9004 0 68.1504 7.65039 68.1504 39.5508v12.5498c0 34.5 -24.75 43.25 -64.1504 44.25l-123.3 5v86.5996l123.3 7
c45.5498 1.4502 65.7002 11.3506 65.7002 41.4502v12.0996c0 32.0996 -26.2002 40.1992 -65.7002 40.1992h-168.4z" />
    <glyph glyph-name="acute" unicode="&#xb4;" horiz-adv-x="243" 
d="M15.0498 531l90.5 138.5h122.5l-122 -138.5h-91z" />
    <glyph glyph-name="uni00B5" unicode="&#xb5;" horiz-adv-x="588" 
d="M68.5498 177.5l0.000976562 353.5h140v-355.7c0 -52.7998 23.5996 -71.7998 58.6494 -71.7998c56.3496 0 87.0996 14.5 128.35 46v381.5h140v-531h-112.5l-27.5 56.5c-41.75 -25.0996 -76.5 -50.6494 -126.7 -57.249c-21.7002 -2.75 -41.7998 -0.900391 -60.2998 4.64941
v-273.9h-140v447.5z" />
    <glyph glyph-name="paragraph" unicode="&#xb6;" horiz-adv-x="577" 
d="M30.0996 499v93c0 95 69.6504 140 156 140h376.55v-103.5h-53.0498v-628.5h-101.5v630.5h-66.5v-900.5h-101.5v642c-6 -2 -21.1504 -17.4502 -54 -17c-109.05 0 -156 66 -156 144zM131.6 510.9c0 -49.3496 32 -54.3994 60 -54.3994h48.5v174h-48.5
c-51.25 0 -60 -22.4004 -60 -58.1006v-61.5z" />
    <glyph glyph-name="periodcentered" unicode="&#xb7;" horiz-adv-x="263" 
d="M64.6504 339.7v90c0 15 8 25 24 25h86c18 0 25 -9 25 -25v-90c0 -18 -11 -23 -25 -23h-86c-14 0 -24 9 -24 23z" />
    <glyph glyph-name="cedilla" unicode="&#xb8;" horiz-adv-x="244" 
d="M37.9004 -118.4l44.2002 15c28 12 29.7998 28.4004 29.7998 66.4004h94.5c0 -102 -25.4004 -141.5 -112 -141.5h-56.5v60.0996z" />
    <glyph glyph-name="onesuperior" unicode="&#xb9;" horiz-adv-x="270" 
d="M12.1504 738.95v66.0498l102.15 55h107.1v-482.05h-108.2v383.9z" />
    <glyph glyph-name="ordmasculine" unicode="&#xba;" horiz-adv-x="394" 
d="M22.8496 550c0 143.1 43.3994 185.9 174.8 185.9c131.95 0 174.45 -45 174.45 -185.9c0 -129.65 -40.2998 -175.9 -174.45 -175.9c-132.5 0 -174.8 49 -174.8 175.9zM36.0488 263.851v69h322.4v-69h-322.4zM131.049 550.551
c0 -83.4004 20.6494 -89.1504 66.5996 -89.1504c48.8496 0 65.3496 3.2002 66.25 89.1504c0.900391 91.0996 -15.75 98.0498 -66.25 98.0498c-51.2998 0 -66.5996 -7.7002 -66.5996 -98.0498z" />
    <glyph glyph-name="guillemotright" unicode="&#xbb;" horiz-adv-x="580" 
d="M37.9004 223.3l133.05 130.7l-130.25 127.35l76.75 75.6504l206 -203l-211 -208zM257.45 223.3l133.05 130.7l-130.25 127.35l76.75 75.6504l206 -203l-211 -208z" />
    <glyph glyph-name="onequarter" unicode="&#xbc;" horiz-adv-x="931" 
d="M12.1504 616.45v66.0498l102.15 55h107.1v-482.05h-108.2v383.9zM175.45 0l412.9 752.9h101.3l-412.9 -752.9h-101.3zM504.801 144.65l171.6 336.501h113.9l-139.2 -280.65h107.7v102.3l24.1504 49.6504h84.0498v-151.95h48.5498v-85l-48.5498 -17.9502v-96.9004h-108.2
v96.9004h-231.45z" />
    <glyph glyph-name="onehalf" unicode="&#xbd;" horiz-adv-x="991" 
d="M12.1504 616.45v66.0498l102.15 55h107.1v-482.05h-108.2v383.9zM167.7 0l412.9 752.9h101.3l-412.9 -752.9h-101.3zM612.301 388.65c-0.900391 0 -0.450195 81.5498 0 81.0996c61.5996 10.75 112.1 18.8496 200.6 18.8496c105.15 0 147.601 -61.2998 147.601 -145.35
c0 -104.65 -130.25 -207.75 -175 -243.3h174.55v-99.9502h-344.2v95.9502c60.4004 43 235.101 165.95 235.101 242.65c0 37.5996 -20.75 50.0498 -77.6504 50.0498h-161z" />
    <glyph glyph-name="threequarters" unicode="&#xbe;" horiz-adv-x="1044" 
d="M22.8496 640.1l-0.000976562 79.2969c59.75 21.6504 136.05 20.75 215.899 19.6504c82.0498 -0.549805 128.149 -50.3994 128.149 -120.85v-30.0498c0 -48.0996 -19.7002 -80.1992 -56.7002 -92.9492c38 -14.7998 56.7002 -48.8496 56.7002 -98.9492v-23.0498
c0 -75.9502 -40.75 -122.3 -133.15 -122.3c-77.8496 0 -146.6 -2 -206.899 19.6504l1 79.8496c14.4004 0 161.601 0.450195 161.601 0.450195c53.4502 0 69.25 7.65039 69.25 39.5508v12.5498c0 34.5 -25.2998 43.25 -65.25 44.25l-125.5 5v86.0498l125.5 7.5498
c46.6504 1.4502 66.8008 11.3506 66.8008 41.4502v12.6504c0 32.0996 -26.75 40.1992 -66.7998 40.1992h-170.6zM277.749 -0.00390625l412.9 752.9h101.3l-412.9 -752.9h-101.3zM595.3 145.097l171.151 336.051h112.1l-139.2 -282h111.75v104.1l22.3496 49.6504h84.0498
v-153.75h48.5498v-83.2002l-48.5498 -17.9502v-96.9004h-106.4v96.9004h-233.25z" />
    <glyph glyph-name="questiondown" unicode="&#xbf;" horiz-adv-x="543" 
d="M30.0996 3.84961c-0.900391 126.9 73.5488 195.45 225.599 182.7c0 1.34961 0.900391 87.2998 0 90h114.4l0.450195 -195c-26.0996 0.450195 -88.8496 0.900391 -114.949 0c-49 -2 -78.4004 -30.5 -80.2002 -83.0498c0 0 -0.450195 -44.25 -0.450195 -53.25
c0 -47.1504 30.9004 -84.5 103.65 -83.1504c22.5 0 249.9 0.450195 249.9 0.450195c-1.34961 0 0 -104.95 -0.900391 -104.5c-93.2002 -18.5 -167 -30.5 -282 -25.5c-159.65 -0.450195 -215.5 105.649 -215.5 197.35v73.9502zM246.349 359.899v87.2998
c0 16.2002 11.4502 23.9004 24.5498 24.3506h84.2002c14 -0.450195 24 -9 24 -23v-88.6504c-0.450195 -14.5498 -8 -24.5498 -22.6504 -25h-87.3496c-15.75 1.7998 -22.2998 10.7998 -22.75 25z" />
    <glyph glyph-name="Agrave" unicode="&#xc0;" horiz-adv-x="692" 
d="M193.125 935.5h122.5l90.5 -138.5h-91zM34 0l247 732h159.25l237.75 -732h-149.05l-52 162.2h-239.75l-52.7998 -162.2h-150.4zM273.55 286.25h170.25l-82.25 261.25z" />
    <glyph glyph-name="Aacute" unicode="&#xc1;" horiz-adv-x="692" 
d="M315.125 797l90.5 138.5h122.5l-122 -138.5h-91zM34 0l247 732h159.25l237.75 -732h-149.05l-52 162.2h-239.75l-52.7998 -162.2h-150.4zM273.55 286.25h170.25l-82.25 261.25z" />
    <glyph glyph-name="Acircumflex" unicode="&#xc2;" horiz-adv-x="692" 
d="M206.375 797l107.65 135.5h104l96.8496 -135.5h-93l-58.9004 60l-62.5996 -60h-94zM34 0l247 732h159.25l237.75 -732h-149.05l-52 162.2h-239.75l-52.7998 -162.2h-150.4zM273.55 286.25h170.25l-82.25 261.25z" />
    <glyph glyph-name="Atilde" unicode="&#xc3;" horiz-adv-x="692" 
d="M188.875 852.3c31.75 34.6504 71.5 69.5 120.75 69.5c46.7002 -1.34961 71.8496 -34.5498 106.45 -35c32.7998 -1.5498 65.5996 17.9004 92.0996 38.2002l24.2002 -59.5996c-26.9502 -29.4004 -66.4004 -68.8506 -113.35 -67.9502
c-48.8506 1.34961 -74.3008 35 -111.95 34.5498c-41.25 -0.450195 -60.2002 -15.5 -93.9004 -35zM34 0l247 732h159.25l237.75 -732h-149.05l-52 162.2h-239.75l-52.7998 -162.2h-150.4zM273.55 286.25h170.25l-82.25 261.25z" />
    <glyph glyph-name="Adieresis" unicode="&#xc4;" horiz-adv-x="692" 
d="M174.375 856.25c0 32.4004 26.8496 58.25 59.25 58.25s58.25 -25.8496 58.25 -58.25s-25.8496 -59.25 -58.25 -59.25s-59.25 26.8496 -59.25 59.25zM429.375 856.25c0 32.4004 26.8496 58.25 59.25 58.25s58.25 -25.8496 58.25 -58.25s-25.8496 -59.25 -58.25 -59.25
s-59.25 26.8496 -59.25 59.25zM34 0l247 732h159.25l237.75 -732h-149.05l-52 162.2h-239.75l-52.7998 -162.2h-150.4zM273.55 286.25h170.25l-82.25 261.25z" />
    <glyph glyph-name="Aring" unicode="&#xc5;" horiz-adv-x="692" 
d="M259.125 832.167c0 57 46 103 102 103s101 -46 101 -103s-45 -102 -101 -102s-102 45 -102 102zM317.675 832.167c0 -23.9502 19.5 -42.4502 43.4502 -42.4502s42.4502 18.5 42.4502 42.4502s-18.5 43.4502 -42.4502 43.4502s-43.4502 -19.5 -43.4502 -43.4502zM34 0
l247 732h159.25l237.75 -732h-149.05l-52 162.2h-239.75l-52.7998 -162.2h-150.4zM273.55 286.25h170.25l-82.25 261.25z" />
    <glyph glyph-name="AE" unicode="&#xc6;" horiz-adv-x="954" 
d="M22.8496 0l283.15 575.398c76.9502 155.55 187.351 160.45 301.15 156.601c0 0 248.5 -7.2002 312.85 -16v-116.2h-279.85c-50.2002 0 -50.2002 -27.6504 -51.1006 -54.6504v-117.35l285.45 -10.5498v-115.1l-285.45 -9.4502v-112.85c0 -53 33 -49.75 62 -49.75
l268.5 -0.450195v-116.55c-56.6504 -7.7002 -301.5 -17 -301.5 -17c-68.2002 -4 -169 11.9004 -169 124.9v73h-175.35l-96.1504 -194h-154.7zM333.25 317.498h115.8v241z" />
    <glyph glyph-name="Ccedilla" unicode="&#xc7;" horiz-adv-x="571" 
d="M113.5 -117.95l44.2002 15c28 12 29.7998 28.4004 29.7998 66.4004h94.5c0 -102 -25.4004 -141.5 -112 -141.5h-56.5v60.0996zM41.7998 368c0 234 49.9502 372 248.95 372c102.6 0 176.2 -9.7998 255 -33.25v-109.6c-1 0 -123.95 13.8496 -222 13.8496
c-102.45 0 -141.95 -23.4502 -141.95 -245c0 -164 27.1006 -243 142.5 -243c105 0 221.45 8.09961 221.45 8.09961v-109.6c-65.5996 -20.1504 -150.2 -29.1504 -255 -27.5c-185 1.65039 -248.95 141.95 -248.95 374z" />
    <glyph glyph-name="Egrave" unicode="&#xc8;" horiz-adv-x="567" 
d="M164.45 933.8h122.5l90.5 -138.5h-91zM58 143.9v436.1c0 127.025 89.9648 153.35 159 152c0 0 257.7 -7.2002 322.05 -16v-115.75h-289.05c-52 0 -52 -29 -52 -56v-114.2l295.55 -10.5498v-115.1l-295.55 -9.4502v-114.2c0.450195 -53 33 -52 62 -52h279.05v-114.75
c-56.6494 -7.7002 -312.05 -17 -312.05 -17c-65.2852 -2.90039 -169 11.9004 -169 146.9z" />
    <glyph glyph-name="Eacute" unicode="&#xc9;" horiz-adv-x="567" 
d="M275.45 794.75l90.5 138.5h122.5l-122 -138.5h-91zM58 143.9v436.1c0 127.025 89.9648 153.35 159 152c0 0 257.7 -7.2002 322.05 -16v-115.75h-289.05c-52 0 -52 -29 -52 -56v-114.2l295.55 -10.5498v-115.1l-295.55 -9.4502v-114.2c0.450195 -53 33 -52 62 -52h279.05
v-114.75c-56.6494 -7.7002 -312.05 -17 -312.05 -17c-65.2852 -2.90039 -169 11.9004 -169 146.9z" />
    <glyph glyph-name="Ecircumflex" unicode="&#xca;" horiz-adv-x="567" 
d="M163.4 797l107.649 135.5h104l96.8506 -135.5h-93l-58.9004 60l-62.5996 -60h-94zM58 143.9v436.1c0 127.025 89.9648 153.35 159 152c0 0 257.7 -7.2002 322.05 -16v-115.75h-289.05c-52 0 -52 -29 -52 -56v-114.2l295.55 -10.5498v-115.1l-295.55 -9.4502v-114.2
c0.450195 -53 33 -52 62 -52h279.05v-114.75c-56.6494 -7.7002 -312.05 -17 -312.05 -17c-65.2852 -2.90039 -169 11.9004 -169 146.9z" />
    <glyph glyph-name="Edieresis" unicode="&#xcb;" horiz-adv-x="567" 
d="M126.35 854c0 32.4004 26.8506 58.25 59.25 58.25c32.4004 0 58.25 -25.8496 58.25 -58.25s-25.8496 -59.25 -58.25 -59.25c-32.3994 0 -59.25 26.8496 -59.25 59.25zM381.35 854c0 32.4004 26.8506 58.25 59.25 58.25c32.4004 0 58.25 -25.8496 58.25 -58.25
s-25.8496 -59.25 -58.25 -59.25c-32.3994 0 -59.25 26.8496 -59.25 59.25zM58 143.9v436.1c0 127.025 89.9648 153.35 159 152c0 0 257.7 -7.2002 322.05 -16v-115.75h-289.05c-52 0 -52 -29 -52 -56v-114.2l295.55 -10.5498v-115.1l-295.55 -9.4502v-114.2
c0.450195 -53 33 -52 62 -52h279.05v-114.75c-56.6494 -7.7002 -312.05 -17 -312.05 -17c-65.2852 -2.90039 -169 11.9004 -169 146.9z" />
    <glyph glyph-name="Igrave" unicode="&#xcc;" horiz-adv-x="245" 
d="M-36.75 935.5h122.5l90.5 -138.5h-91zM60.75 0v732h140v-732h-140z" />
    <glyph glyph-name="Iacute" unicode="&#xcd;" horiz-adv-x="245" 
d="M85.25 797l90.5 138.5h122.5l-122 -138.5h-91zM60.75 0v732h140v-732h-140z" />
    <glyph glyph-name="Icircumflex" unicode="&#xce;" horiz-adv-x="245" 
d="M-23.5 797l107.65 135.5h104l96.8496 -135.5h-93l-58.9004 60l-62.5996 -60h-94zM60.75 0v732h140v-732h-140z" />
    <glyph glyph-name="Idieresis" unicode="&#xcf;" horiz-adv-x="245" 
d="M-55.5 856.25c0 32.4004 26.8496 58.25 59.25 58.25s58.25 -25.8496 58.25 -58.25s-25.8496 -59.25 -58.25 -59.25s-59.25 26.8496 -59.25 59.25zM199.5 856.25c0 32.4004 26.8496 58.25 59.25 58.25s58.25 -25.8496 58.25 -58.25s-25.8496 -59.25 -58.25 -59.25
s-59.25 26.8496 -59.25 59.25zM60.75 0v732h140v-732h-140z" />
    <glyph glyph-name="Eth" unicode="&#xd0;" horiz-adv-x="662" 
d="M-4.25 340.5v65h65v326.05c0 0.450195 284.5 0.450195 311.5 0.450195c210.7 0 253.5 -187.65 253.5 -369c0 -215.5 -74.7998 -363 -253.5 -363h-311.5v340.5h-65zM200.75 124.85l160.5 0.000976562c90.75 0 123.15 92.2998 123.15 239.149
c0 194.05 -48.7002 242.25 -123.15 242.25l-160.5 -0.450195v-200.3h111.5v-65h-111.5v-215.65z" />
    <glyph glyph-name="Ntilde" unicode="&#xd1;" horiz-adv-x="678" 
d="M175.225 852.3c31.75 34.6504 71.5 69.5 120.75 69.5c46.7002 -1.34961 71.8506 -34.5498 106.45 -35c32.7998 -1.5498 65.6006 17.9004 92.1006 38.2002l24.1992 -59.5996c-26.9492 -29.4004 -66.3994 -68.8506 -113.35 -67.9502
c-48.8496 1.34961 -74.2998 35 -111.95 34.5498c-41.25 -0.450195 -60.2002 -15.5 -93.8994 -35zM60.75 0v732h142l290.45 -473v473h140v-732h-140l-291.45 467.5v-467.5h-141z" />
    <glyph glyph-name="Ograve" unicode="&#xd2;" horiz-adv-x="671" 
d="M176.55 935.5h122.5l90.5 -138.5h-91zM49.5996 361c0 343 126.45 376 294.45 376c173 0 293.55 -33 293.55 -376c0 -323 -113.55 -365 -293.55 -365s-294.45 32 -294.45 365zM189.6 361c0 -199.8 29.4502 -236 154.45 -236c117.5 0 153.55 38.7002 153.55 236
c0 228.05 -42.2998 247 -153.55 247c-108.25 0 -154.45 -14 -154.45 -247z" />
    <glyph glyph-name="Oacute" unicode="&#xd3;" horiz-adv-x="671" 
d="M298.55 797l90.5 138.5h122.5l-122 -138.5h-91zM49.5996 361c0 343 126.45 376 294.45 376c173 0 293.55 -33 293.55 -376c0 -323 -113.55 -365 -293.55 -365s-294.45 32 -294.45 365zM189.6 361c0 -199.8 29.4502 -236 154.45 -236c117.5 0 153.55 38.7002 153.55 236
c0 228.05 -42.2998 247 -153.55 247c-108.25 0 -154.45 -14 -154.45 -247z" />
    <glyph glyph-name="Ocircumflex" unicode="&#xd4;" horiz-adv-x="671" 
d="M189.8 797l107.65 135.5h104l96.8496 -135.5h-93l-58.8994 60l-62.6006 -60h-94zM49.5996 361c0 343 126.45 376 294.45 376c173 0 293.55 -33 293.55 -376c0 -323 -113.55 -365 -293.55 -365s-294.45 32 -294.45 365zM189.6 361c0 -199.8 29.4502 -236 154.45 -236
c117.5 0 153.55 38.7002 153.55 236c0 228.05 -42.2998 247 -153.55 247c-108.25 0 -154.45 -14 -154.45 -247z" />
    <glyph glyph-name="Otilde" unicode="&#xd5;" horiz-adv-x="671" 
d="M172.3 852.3c31.75 34.6504 71.5 69.5 120.75 69.5c46.7002 -1.34961 71.8506 -34.5498 106.45 -35c32.7998 -1.5498 65.5996 17.9004 92.0996 38.2002l24.2002 -59.5996c-26.9502 -29.4004 -66.3994 -68.8506 -113.35 -67.9502
c-48.8506 1.34961 -74.2998 35 -111.95 34.5498c-41.25 -0.450195 -60.2002 -15.5 -93.9004 -35zM49.5996 361c0 343 126.45 376 294.45 376c173 0 293.55 -33 293.55 -376c0 -323 -113.55 -365 -293.55 -365s-294.45 32 -294.45 365zM189.6 361
c0 -199.8 29.4502 -236 154.45 -236c117.5 0 153.55 38.7002 153.55 236c0 228.05 -42.2998 247 -153.55 247c-108.25 0 -154.45 -14 -154.45 -247z" />
    <glyph glyph-name="Odieresis" unicode="&#xd6;" horiz-adv-x="671" 
d="M157.8 856.25c0 32.4004 26.8506 58.25 59.25 58.25c32.4004 0 58.25 -25.8496 58.25 -58.25s-25.8496 -59.25 -58.25 -59.25c-32.3994 0 -59.25 26.8496 -59.25 59.25zM412.8 856.25c0 32.4004 26.8506 58.25 59.25 58.25c32.4004 0 58.25 -25.8496 58.25 -58.25
s-25.8496 -59.25 -58.25 -59.25c-32.3994 0 -59.25 26.8496 -59.25 59.25zM49.5996 361c0 343 126.45 376 294.45 376c173 0 293.55 -33 293.55 -376c0 -323 -113.55 -365 -293.55 -365s-294.45 32 -294.45 365zM189.6 361c0 -199.8 29.4502 -236 154.45 -236
c117.5 0 153.55 38.7002 153.55 236c0 228.05 -42.2998 247 -153.55 247c-108.25 0 -154.45 -14 -154.45 -247z" />
    <glyph glyph-name="multiply" unicode="&#xd7;" horiz-adv-x="461" 
d="M42.7998 250.4l105.05 104.599l-105.05 105.6l82.7998 83.7998l105.6 -105.6l106.05 106.15l83.3496 -83.3496l-106.05 -106.6l105.6 -104.6l-83.3496 -83.7998l-105.6 105.05l-104.6 -104.6z" />
    <glyph glyph-name="Oslash" unicode="&#xd8;" horiz-adv-x="679" 
d="M54.5498 361c0 343 124.2 376.001 294 376.001c71.4502 0 134.101 -5.5498 182.751 -36.4502l21.5498 31.4502h74.75l-50.5996 -73.5c41.4502 -54.5498 65.5498 -145.45 65.5498 -297.5c0 -323 -114 -365 -294 -365c-79.2002 0 -145.601 6 -195.351 41.2998
l-25.8496 -37.2998h-74.75l57.0996 83.0996c-35.7002 53.5498 -55.1504 139.35 -55.1504 277.899zM194.55 361.001c0 -62.9004 4.04883 -105.601 14.499 -135.95l242.65 361.8c-24.0996 18.9502 -58.4492 21.1504 -103.149 21.1504c-108.25 0 -154 -14 -154 -247z
M235.898 156.101c23.6504 -24 58.6494 -31.1006 112.649 -31.1006c117.5 0 154 38.7002 154 236c0 78.2998 -5.5 129.95 -18.0498 165.15z" />
    <glyph glyph-name="Ugrave" unicode="&#xd9;" horiz-adv-x="664" 
d="M172.75 935.5h122.5l90.5 -138.5h-91zM60.75 320v412h140v-412c0 -167.35 37.0996 -196 142 -196c93.5 0 136 34.4502 136 196v412h141v-412c0 -323 -156 -325 -277 -325c-136 0 -282 -8 -282 325z" />
    <glyph glyph-name="Uacute" unicode="&#xda;" horiz-adv-x="664" 
d="M294.75 797l90.5 138.5h122.5l-122 -138.5h-91zM60.75 320v412h140v-412c0 -167.35 37.0996 -196 142 -196c93.5 0 136 34.4502 136 196v412h141v-412c0 -323 -156 -325 -277 -325c-136 0 -282 -8 -282 325z" />
    <glyph glyph-name="Ucircumflex" unicode="&#xdb;" horiz-adv-x="664" 
d="M186 797l107.65 135.5h104l96.8496 -135.5h-93l-58.9004 60l-62.5996 -60h-94zM60.75 320v412h140v-412c0 -167.35 37.0996 -196 142 -196c93.5 0 136 34.4502 136 196v412h141v-412c0 -323 -156 -325 -277 -325c-136 0 -282 -8 -282 325z" />
    <glyph glyph-name="Udieresis" unicode="&#xdc;" horiz-adv-x="664" 
d="M154 856.25c0 32.4004 26.8496 58.25 59.25 58.25s58.25 -25.8496 58.25 -58.25s-25.8496 -59.25 -58.25 -59.25s-59.25 26.8496 -59.25 59.25zM409 856.25c0 32.4004 26.8496 58.25 59.25 58.25s58.25 -25.8496 58.25 -58.25s-25.8496 -59.25 -58.25 -59.25
s-59.25 26.8496 -59.25 59.25zM60.75 320v412h140v-412c0 -167.35 37.0996 -196 142 -196c93.5 0 136 34.4502 136 196v412h141v-412c0 -323 -156 -325 -277 -325c-136 0 -282 -8 -282 325z" />
    <glyph glyph-name="Yacute" unicode="&#xdd;" horiz-adv-x="656" 
d="M290.5 797l90.5 138.5h122.5l-122 -138.5h-91zM34 732h152.5l142.8 -351l156.2 351h152.5l-240.9 -505v-227h-140v227z" />
    <glyph glyph-name="Thorn" unicode="&#xde;" horiz-adv-x="546" 
d="M45.7002 0v729h140v-141h147.5c79 -0.450195 176 -34 176 -213c0 -204 -102 -224.35 -176 -226c-49.1504 -1.09961 -66.25 -3.34961 -147.5 19v-168h-140zM185.7 272.5l103.5 0.000976562c52 -0.450195 79 11.6494 79 101.749c-0.900391 87 -41.25 89.7998 -79 89.7998
h-103.5v-191.55z" />
    <glyph glyph-name="germandbls" unicode="&#xdf;" horiz-adv-x="572" 
d="M45.7002 0l-0.00195312 566.001c0 116 79.9004 214.85 239.5 214.85c287.3 0 287.05 -226.75 185.2 -338.5c-39.9502 -42.0498 -72.2002 -58.75 -72.2002 -94.3496c0 -53.7998 159.5 -46.5 159.5 -174.5v-30.5c0.450195 -120.55 -88.3994 -151 -168.999 -151
c-68 0 -113 11.1504 -148.25 19v99.0498c35.5996 -2.2002 75.5498 -5.5498 113.75 -5.5498c30.6504 0 62.6006 16.0996 63.501 56.0996v24.4502c0 67.0996 -154 44.0996 -154 164.6c0 64 24.8496 90.5498 88.5498 142.55c29.7998 26.2002 41.2002 52.1504 41.2002 83.5
c0 65 -50.3496 77.7998 -102.75 77.7998c-69.6504 0 -105 -36 -105 -137v-516.5h-140z" />
    <glyph glyph-name="agrave" unicode="&#xe0;" horiz-adv-x="519" 
d="M99.8252 739.5h122.5l90.5 -138.5h-91zM30.0996 135.35v50c0 77.25 41.75 145.65 155.551 145.65c0 0 156 -1 156 0c0 0 1 33 0 34c0 56.5996 -26.5 65.5 -71 65.5c-46.1504 0 -179.351 -8.2998 -223 -11.4502v86.4502c69.8994 27.1504 142.949 35.0498 241.949 35.5
c114.351 0.450195 192.051 -39.0498 192.051 -170.5v-370.5h-110.551l-29.4492 58.5c-5.85059 -11.5498 -80.4004 -66.1504 -161.5 -64.5c-102.15 2.75 -150.051 72.2998 -150.051 141.35zM170.1 155.2c0 -44.1504 23.9004 -48.7002 49.6504 -48.7002
c58.5498 0 121.9 41.0996 121.9 41.0996v97.3506l-128.5 -9.9502c-36.9502 -3.4502 -43.0508 -30.7998 -43.0508 -54v-25.7998z" />
    <glyph glyph-name="aacute" unicode="&#xe1;" horiz-adv-x="519" 
d="M219.575 601l90.5 138.5h122.5l-122 -138.5h-91zM30.0996 135.35v50c0 77.25 41.75 145.65 155.551 145.65c0 0 156 -1 156 0c0 0 1 33 0 34c0 56.5996 -26.5 65.5 -71 65.5c-46.1504 0 -179.351 -8.2998 -223 -11.4502v86.4502
c69.8994 27.1504 142.949 35.0498 241.949 35.5c114.351 0.450195 192.051 -39.0498 192.051 -170.5v-370.5h-110.551l-29.4492 58.5c-5.85059 -11.5498 -80.4004 -66.1504 -161.5 -64.5c-102.15 2.75 -150.051 72.2998 -150.051 141.35zM170.1 155.2
c0 -44.1504 23.9004 -48.7002 49.6504 -48.7002c58.5498 0 121.9 41.0996 121.9 41.0996v97.3506l-128.5 -9.9502c-36.9502 -3.4502 -43.0508 -30.7998 -43.0508 -54v-25.7998z" />
    <glyph glyph-name="acircumflex" unicode="&#xe2;" horiz-adv-x="519" 
d="M111.5 601l107.65 135.5h104l96.8496 -135.5h-93l-58.9004 60l-62.5996 -60h-94zM30.0996 135.35v50c0 77.25 41.75 145.65 155.551 145.65c0 0 156 -1 156 0c0 0 1 33 0 34c0 56.5996 -26.5 65.5 -71 65.5c-46.1504 0 -179.351 -8.2998 -223 -11.4502v86.4502
c69.8994 27.1504 142.949 35.0498 241.949 35.5c114.351 0.450195 192.051 -39.0498 192.051 -170.5v-370.5h-110.551l-29.4492 58.5c-5.85059 -11.5498 -80.4004 -66.1504 -161.5 -64.5c-102.15 2.75 -150.051 72.2998 -150.051 141.35zM170.1 155.2
c0 -44.1504 23.9004 -48.7002 49.6504 -48.7002c58.5498 0 121.9 41.0996 121.9 41.0996v97.3506l-128.5 -9.9502c-36.9502 -3.4502 -43.0508 -30.7998 -43.0508 -54v-25.7998z" />
    <glyph glyph-name="atilde" unicode="&#xe3;" horiz-adv-x="519" 
d="M91.75 656.3c31.75 34.6504 71.5 69.5 120.75 69.5c46.7002 -1.34961 71.8496 -34.5498 106.45 -35c32.7998 -1.5498 65.5996 17.9004 92.0996 38.2002l24.2002 -59.5996c-26.9502 -29.4004 -66.4004 -68.8506 -113.35 -67.9502
c-48.8506 1.34961 -74.3008 35 -111.95 34.5498c-41.25 -0.450195 -60.2002 -15.5 -93.9004 -35zM30.0996 135.35v50c0 77.25 41.75 145.65 155.551 145.65c0 0 156 -1 156 0c0 0 1 33 0 34c0 56.5996 -26.5 65.5 -71 65.5c-46.1504 0 -179.351 -8.2998 -223 -11.4502
v86.4502c69.8994 27.1504 142.949 35.0498 241.949 35.5c114.351 0.450195 192.051 -39.0498 192.051 -170.5v-370.5h-110.551l-29.4492 58.5c-5.85059 -11.5498 -80.4004 -66.1504 -161.5 -64.5c-102.15 2.75 -150.051 72.2998 -150.051 141.35zM170.1 155.2
c0 -44.1504 23.9004 -48.7002 49.6504 -48.7002c58.5498 0 121.9 41.0996 121.9 41.0996v97.3506l-128.5 -9.9502c-36.9502 -3.4502 -43.0508 -30.7998 -43.0508 -54v-25.7998z" />
    <glyph glyph-name="adieresis" unicode="&#xe4;" horiz-adv-x="519" 
d="M78.7568 660.257c0 32.4004 26.8496 58.25 59.25 58.25c32.3994 0 58.25 -25.8496 58.25 -58.25c0 -32.3994 -25.8506 -59.25 -58.25 -59.25c-32.4004 0 -59.25 26.8506 -59.25 59.25zM333.757 660.257c0 32.4004 26.8496 58.25 59.25 58.25
c32.3994 0 58.25 -25.8496 58.25 -58.25c0 -32.3994 -25.8506 -59.25 -58.25 -59.25c-32.4004 0 -59.25 26.8506 -59.25 59.25zM30.0996 135.35v50c0 77.25 41.75 145.65 155.551 145.65c0 0 156 -1 156 0c0 0 1 33 0 34c0 56.5996 -26.5 65.5 -71 65.5
c-46.1504 0 -179.351 -8.2998 -223 -11.4502v86.4502c69.8994 27.1504 142.949 35.0498 241.949 35.5c114.351 0.450195 192.051 -39.0498 192.051 -170.5v-370.5h-110.551l-29.4492 58.5c-5.85059 -11.5498 -80.4004 -66.1504 -161.5 -64.5
c-102.15 2.75 -150.051 72.2998 -150.051 141.35zM170.1 155.2c0 -44.1504 23.9004 -48.7002 49.6504 -48.7002c58.5498 0 121.9 41.0996 121.9 41.0996v97.3506l-128.5 -9.9502c-36.9502 -3.4502 -43.0508 -30.7998 -43.0508 -54v-25.7998z" />
    <glyph glyph-name="aring" unicode="&#xe5;" horiz-adv-x="519" 
d="M165.125 689.5c0 57 46 103 102 103s101 -46 101 -103s-45 -102 -101 -102s-102 45 -102 102zM223.675 689.5c0 -23.9502 19.5 -42.4502 43.4502 -42.4502s42.4502 18.5 42.4502 42.4502s-18.5 43.4502 -42.4502 43.4502s-43.4502 -19.5 -43.4502 -43.4502z
M30.0996 135.35v50c0 77.25 41.75 145.65 155.551 145.65c0 0 156 -1 156 0c0 0 1 33 0 34c0 56.5996 -26.5 65.5 -71 65.5c-46.1504 0 -179.351 -8.2998 -223 -11.4502v86.4502c69.8994 27.1504 142.949 35.0498 241.949 35.5
c114.351 0.450195 192.051 -39.0498 192.051 -170.5v-370.5h-110.551l-29.4492 58.5c-5.85059 -11.5498 -80.4004 -66.1504 -161.5 -64.5c-102.15 2.75 -150.051 72.2998 -150.051 141.35zM170.1 155.2c0 -44.1504 23.9004 -48.7002 49.6504 -48.7002
c58.5498 0 121.9 41.0996 121.9 41.0996v97.3506l-128.5 -9.9502c-36.9502 -3.4502 -43.0508 -30.7998 -43.0508 -54v-25.7998z" />
    <glyph glyph-name="ae" unicode="&#xe6;" horiz-adv-x="842" 
d="M30.0996 138.05v35.0498c0 77.25 41.75 145.65 155.55 145.65c0 0 156 -1 156 0c0 0 1 47.9502 0 48.9502c0 56.5996 -26.5 65.5 -71 65.5c-54.4004 0 -178 -8.84961 -223 -12v87c67.6504 28.0498 142.95 35.0498 241.95 35.5
c54.6504 -0.650391 110 -13.1504 139.65 -42.6006c40.8496 30.7998 90.2998 36.5996 158.05 36.5996c153.6 0 225.55 -20.7998 225.55 -186.899c0 -94.5996 -52.5498 -127.5 -148.55 -127.5h-168.45c0 -95.8496 36.2002 -113.649 112 -113.649
c81 0 120 -0.450195 195 10.5498v-94.5c-74.9502 -27.9502 -189 -28 -272 -28c-76.5498 0 -114.149 25.25 -145.199 68.9004c-10.7998 -22.5498 -129.35 -71 -205.5 -69.9004c-102.15 2.75 -150.051 72.2998 -150.051 141.35zM170.1 155.149
c0 -44.1504 23.9004 -45.9492 49.6504 -45.9492c58.5498 0 121.899 41.0996 121.899 41.0996v85.0996l-128.5 -9.9502c-36.9502 -3.4502 -43.0498 -30.7998 -43.0498 -54v-16.2998zM495.85 318.301l132.149 0.000976562c29.1504 0 44.8506 14.3496 44.8506 39.6494
c0 67.0498 -10.0996 72.75 -77.3994 72.75c-73.9502 0 -100.7 2.2998 -99.6006 -112.4z" />
    <glyph glyph-name="ccedilla" unicode="&#xe7;" horiz-adv-x="494" 
d="M37.9004 266c0 218.8 73 270.9 175 270.9c52 0 156.9 -4 244.5 -32.4004v-87s-95.5498 6.90039 -184.55 6.90039c-64.4004 0 -94.9502 -4.75 -94.9502 -161.3c0 -135.95 22.9502 -156.5 94.9502 -156.5c92 0 191.55 9.34961 191.55 9.34961v-87.9004
c-77.7002 -39.5 -168.5 -32.9502 -251.5 -33.9502c-99 0 -175 52.6504 -175 271.9zM157.95 -118.949l44.2002 15c28 12 29.7998 28.4004 29.7998 66.4004h94.5c0 -102 -25.4004 -141.5 -112 -141.5h-56.5v60.0996z" />
    <glyph glyph-name="egrave" unicode="&#xe8;" horiz-adv-x="525" 
d="M106.25 734.5h122.5l90.5 -138.5h-91zM37.9004 268c0 228.2 63.5996 267 232 267c153.6 0 225 -17.5 225 -193.5c0 -94.5996 -52 -133 -148 -133h-169c0 -95.8496 36.1992 -101.55 112 -101.55c81 0 120 -0.450195 195 10.5498v-94.5
c-74.9502 -27.9502 -189 -28 -272 -28c-135 0 -175 78.2002 -175 273zM177.9 309h132.699c29.1504 0 44.3008 14.3496 44.3008 39.6504c0 67.0498 -9.55078 79.3496 -76.8506 79.3496c-73.9502 0 -101.25 -4.2998 -100.149 -119z" />
    <glyph glyph-name="eacute" unicode="&#xe9;" horiz-adv-x="525" 
d="M223.75 596l90.5 138.5h122.5l-122 -138.5h-91zM37.9004 268c0 228.2 63.5996 267 232 267c153.6 0 225 -17.5 225 -193.5c0 -94.5996 -52 -133 -148 -133h-169c0 -95.8496 36.1992 -101.55 112 -101.55c81 0 120 -0.450195 195 10.5498v-94.5
c-74.9502 -27.9502 -189 -28 -272 -28c-135 0 -175 78.2002 -175 273zM177.9 309h132.699c29.1504 0 44.3008 14.3496 44.3008 39.6504c0 67.0498 -9.55078 79.3496 -76.8506 79.3496c-73.9502 0 -101.25 -4.2998 -100.149 -119z" />
    <glyph glyph-name="ecircumflex" unicode="&#xea;" horiz-adv-x="525" 
d="M112.05 596l107.65 135.5h104l96.8496 -135.5h-93l-58.8994 60l-62.6006 -60h-94zM37.9004 268c0 228.2 63.5996 267 232 267c153.6 0 225 -17.5 225 -193.5c0 -94.5996 -52 -133 -148 -133h-169c0 -95.8496 36.1992 -101.55 112 -101.55c81 0 120 -0.450195 195 10.5498
v-94.5c-74.9502 -27.9502 -189 -28 -272 -28c-135 0 -175 78.2002 -175 273zM177.9 309h132.699c29.1504 0 44.3008 14.3496 44.3008 39.6504c0 67.0498 -9.55078 79.3496 -76.8506 79.3496c-73.9502 0 -101.25 -4.2998 -100.149 -119z" />
    <glyph glyph-name="edieresis" unicode="&#xeb;" horiz-adv-x="525" 
d="M78.7002 655.25c0 32.4004 26.8496 58.25 59.25 58.25c32.3994 0 58.25 -25.8496 58.25 -58.25s-25.8506 -59.25 -58.25 -59.25c-32.4004 0 -59.25 26.8496 -59.25 59.25zM333.7 655.25c0 32.4004 26.8496 58.25 59.25 58.25c32.3994 0 58.25 -25.8496 58.25 -58.25
s-25.8506 -59.25 -58.25 -59.25c-32.4004 0 -59.25 26.8496 -59.25 59.25zM37.9004 268c0 228.2 63.5996 267 232 267c153.6 0 225 -17.5 225 -193.5c0 -94.5996 -52 -133 -148 -133h-169c0 -95.8496 36.1992 -101.55 112 -101.55c81 0 120 -0.450195 195 10.5498v-94.5
c-74.9502 -27.9502 -189 -28 -272 -28c-135 0 -175 78.2002 -175 273zM177.9 309h132.699c29.1504 0 44.3008 14.3496 44.3008 39.6504c0 67.0498 -9.55078 79.3496 -76.8506 79.3496c-73.9502 0 -101.25 -4.2998 -100.149 -119z" />
    <glyph glyph-name="igrave" unicode="&#xec;" horiz-adv-x="230" 
d="M-51.7998 734.5h122.5l90.5 -138.5h-91zM45.7002 0v531h140v-531h-140z" />
    <glyph glyph-name="iacute" unicode="&#xed;" horiz-adv-x="230" 
d="M70.2002 596l90.5 138.5h122.5l-122 -138.5h-91zM45.7002 0v531h140v-531h-140z" />
    <glyph glyph-name="icircumflex" unicode="&#xee;" horiz-adv-x="230" 
d="M-38.5498 596l107.649 135.5h104l96.8506 -135.5h-93l-58.9004 60l-62.5996 -60h-94zM45.7002 0v531h140v-531h-140z" />
    <glyph glyph-name="idieresis" unicode="&#xef;" horiz-adv-x="230" 
d="M-70.5498 655.25c0 32.4004 26.8496 58.25 59.25 58.25c32.3994 0 58.25 -25.8496 58.25 -58.25s-25.8506 -59.25 -58.25 -59.25c-32.4004 0 -59.25 26.8496 -59.25 59.25zM184.45 655.25c0 32.4004 26.8496 58.25 59.25 58.25c32.3994 0 58.25 -25.8496 58.25 -58.25
s-25.8506 -59.25 -58.25 -59.25c-32.4004 0 -59.25 26.8496 -59.25 59.25zM45.7002 0v531h140v-531h-140z" />
    <glyph glyph-name="eth" unicode="&#xf0;" horiz-adv-x="540" 
d="M30.0996 264c0 170 51.7998 266.999 186.8 266.999h56c6 0 58.2002 0 75.5 -9.5c-11.25 37.75 -29.8496 71.3496 -57.5 96.7998l-113.65 -53.5996l-28.4004 57.7998l72.1504 33c-37.5 13.0996 -82.5498 14.4492 -125.6 12.999v114.5
c115.1 0 195.5 -20.0996 255.75 -60.0996l92.7002 43.1504l28.8496 -57.7998l-67.3496 -31.0498c90.0996 -102.1 104.75 -264.949 104.75 -413.199c0 -199 -80.7002 -264 -187.7 -264h-105.5c-137 0 -186.8 85 -186.8 264zM170.1 263.999
c0 -120.15 20.7002 -133 69.9004 -133h60.4004c60.25 0 69.7002 35.9004 69.7002 133c0 115.9 -9.90039 138 -69.7002 138h-60.4004c-48.4004 0 -69.9004 -21.2998 -69.9004 -138z" />
    <glyph glyph-name="ntilde" unicode="&#xf1;" 
d="M107.45 655.3c31.75 34.6504 71.5 69.5 120.75 69.5c46.7002 -1.34961 71.8496 -34.5498 106.45 -35c32.7998 -1.5498 65.5996 17.9004 92.0996 38.2002l24.2002 -59.5996c-26.9502 -29.4004 -66.4004 -68.8506 -113.351 -67.9502
c-48.8496 1.34961 -74.2998 35 -111.949 34.5498c-41.25 -0.450195 -60.2002 -15.5 -93.9004 -35zM45.7002 0v531h112.5l27.5 -56.5c45.5996 32.7998 87.5 65.5 168.5 65.5c123.6 0 158.5 -85.2998 158.5 -186.5v-353.5h-140v355.7
c0 52.7998 -23.6006 71.7998 -58.6504 71.7998c-56.3496 0 -87.0996 -14.5 -128.35 -46v-381.5h-140z" />
    <glyph glyph-name="ograve" unicode="&#xf2;" horiz-adv-x="560" 
d="M117.15 734.5h122.5l90.5 -138.5h-91zM37.9004 258c0 217 62.75 278 242.25 278c182.85 0 242.25 -67 242.25 -278c0 -197 -56.6504 -263 -242.25 -263c-183.4 0 -242.25 73 -242.25 263zM177.9 258c0 -137.4 27.8496 -150.5 102.25 -150.5
c78.8496 0 102.25 10.7002 102.25 150.5c0 148.75 -18.8008 165.5 -102.25 165.5c-82.8506 0 -102.25 -16.8496 -102.25 -165.5z" />
    <glyph glyph-name="oacute" unicode="&#xf3;" horiz-adv-x="560" 
d="M234.65 596l90.5 138.5h122.5l-122 -138.5h-91zM37.9004 258c0 217 62.75 278 242.25 278c182.85 0 242.25 -67 242.25 -278c0 -197 -56.6504 -263 -242.25 -263c-183.4 0 -242.25 73 -242.25 263zM177.9 258c0 -137.4 27.8496 -150.5 102.25 -150.5
c78.8496 0 102.25 10.7002 102.25 150.5c0 148.75 -18.8008 165.5 -102.25 165.5c-82.8506 0 -102.25 -16.8496 -102.25 -165.5z" />
    <glyph glyph-name="ocircumflex" unicode="&#xf4;" horiz-adv-x="560" 
d="M128.15 596l107.649 135.5h104l96.8506 -135.5h-93l-58.9004 60l-62.5996 -60h-94zM37.9004 258c0 217 62.75 278 242.25 278c182.85 0 242.25 -67 242.25 -278c0 -197 -56.6504 -263 -242.25 -263c-183.4 0 -242.25 73 -242.25 263zM177.9 258
c0 -137.4 27.8496 -150.5 102.25 -150.5c78.8496 0 102.25 10.7002 102.25 150.5c0 148.75 -18.8008 165.5 -102.25 165.5c-82.8506 0 -102.25 -16.8496 -102.25 -165.5z" />
    <glyph glyph-name="otilde" unicode="&#xf5;" horiz-adv-x="560" 
d="M112.45 651.3c31.75 34.6504 71.5 69.5 120.75 69.5c46.7002 -1.34961 71.8496 -34.5498 106.45 -35c32.7998 -1.5498 65.5996 17.9004 92.0996 38.2002l24.2002 -59.5996c-26.9502 -29.4004 -66.4004 -68.8506 -113.351 -67.9502
c-48.8496 1.34961 -74.2998 35 -111.949 34.5498c-41.25 -0.450195 -60.2002 -15.5 -93.9004 -35zM37.9004 258c0 217 62.75 278 242.25 278c182.85 0 242.25 -67 242.25 -278c0 -197 -56.6504 -263 -242.25 -263c-183.4 0 -242.25 73 -242.25 263zM177.9 258
c0 -137.4 27.8496 -150.5 102.25 -150.5c78.8496 0 102.25 10.7002 102.25 150.5c0 148.75 -18.8008 165.5 -102.25 165.5c-82.8506 0 -102.25 -16.8496 -102.25 -165.5z" />
    <glyph glyph-name="odieresis" unicode="&#xf6;" horiz-adv-x="560" 
d="M94.3496 655.25c0 32.4004 26.8506 58.25 59.25 58.25c32.4004 0 58.25 -25.8496 58.25 -58.25s-25.8496 -59.25 -58.25 -59.25c-32.3994 0 -59.25 26.8496 -59.25 59.25zM349.35 655.25c0 32.4004 26.8506 58.25 59.25 58.25c32.4004 0 58.25 -25.8496 58.25 -58.25
s-25.8496 -59.25 -58.25 -59.25c-32.3994 0 -59.25 26.8496 -59.25 59.25zM37.9004 258c0 217 62.75 278 242.25 278c182.85 0 242.25 -67 242.25 -278c0 -197 -56.6504 -263 -242.25 -263c-183.4 0 -242.25 73 -242.25 263zM177.9 258
c0 -137.4 27.8496 -150.5 102.25 -150.5c78.8496 0 102.25 10.7002 102.25 150.5c0 148.75 -18.8008 165.5 -102.25 165.5c-82.8506 0 -102.25 -16.8496 -102.25 -165.5z" />
    <glyph glyph-name="divide" unicode="&#xf7;" horiz-adv-x="497" 
d="M37.9004 294v118h422.05v-118h-422.05zM186.15 154.85l-0.000976562 66.6504c0 15 8 25 24 25h73.6504c16.6504 0 24.1006 -9.90039 24.1006 -25v-66.6504c0 -16.6504 -10.0996 -23 -24.0996 -23h-73.6504c-14 0 -24 9 -24 23zM186.149 478.05l-0.000976562 66.6504
c0 15 8 25 24 25h73.6504c16.6504 0 24.1006 -9.90039 24.1006 -25v-66.6504c0 -16.6504 -10.0996 -23 -24.0996 -23h-73.6504c-14 0 -24 9 -24 23z" />
    <glyph glyph-name="oslash" unicode="&#xf8;" horiz-adv-x="581" 
d="M48.9004 258c0 217 62.749 278.001 242.249 278.001c64.9502 0 114.25 -8.09961 150.9 -28.2998l18.8496 23.2998h77l-50.5498 -62.9004c33.1504 -43.5498 46.0508 -110.8 46.0508 -210.1c0 -197 -56.6504 -263 -242.25 -263c-68.0996 0 -119.3 10 -156.399 32
l-21.6504 -27h-74.75l53.3496 67.0498c-30.7998 42 -42.7998 104.35 -42.7998 190.949zM188.899 258.001c0 -28.5498 3.15039 -48.5488 9 -62.249l162.75 211.35c-14.6504 13.2998 -36.75 16.3994 -69.5 16.3994c-82.8496 0 -102.25 -16.8496 -102.25 -165.5z
M217.149 127.602c15.5498 -17.5498 39.9014 -20.0996 74.001 -20.0996c78.8496 0 102.25 10.7002 102.25 150.5c0 39.9502 -3.15039 65.9502 -10.8008 83.2998z" />
    <glyph glyph-name="ugrave" unicode="&#xf9;" 
d="M108.4 734.5h122.5l90.5 -138.5h-91zM37.9004 177.5v353.5h140v-355.7c0 -52.7998 23.5996 -71.7998 58.6494 -71.7998c56.3506 0 87.1006 14.5 128.351 46v381.5h140v-531h-112.5l-27.5 56.5c-52.75 -31.7002 -87.5 -65.5 -168.5 -65.5
c-123.601 0 -158.5 85.2998 -158.5 186.5z" />
    <glyph glyph-name="uacute" unicode="&#xfa;" 
d="M225.9 596l90.5 138.5h122.5l-122 -138.5h-91zM37.9004 177.5v353.5h140v-355.7c0 -52.7998 23.5996 -71.7998 58.6494 -71.7998c56.3506 0 87.1006 14.5 128.351 46v381.5h140v-531h-112.5l-27.5 56.5c-52.75 -31.7002 -87.5 -65.5 -168.5 -65.5
c-123.601 0 -158.5 85.2998 -158.5 186.5z" />
    <glyph glyph-name="ucircumflex" unicode="&#xfb;" 
d="M117.15 596l107.649 135.5h104l96.8506 -135.5h-93l-58.9004 60l-62.5996 -60h-94zM37.9004 177.5v353.5h140v-355.7c0 -52.7998 23.5996 -71.7998 58.6494 -71.7998c56.3506 0 87.1006 14.5 128.351 46v381.5h140v-531h-112.5l-27.5 56.5
c-52.75 -31.7002 -87.5 -65.5 -168.5 -65.5c-123.601 0 -158.5 85.2998 -158.5 186.5z" />
    <glyph glyph-name="udieresis" unicode="&#xfc;" 
d="M85.1504 655.25c0 32.4004 26.8496 58.25 59.25 58.25c32.3994 0 58.25 -25.8496 58.25 -58.25s-25.8506 -59.25 -58.25 -59.25c-32.4004 0 -59.25 26.8496 -59.25 59.25zM340.15 655.25c0 32.4004 26.8496 58.25 59.25 58.25c32.3994 0 58.25 -25.8496 58.25 -58.25
s-25.8506 -59.25 -58.25 -59.25c-32.4004 0 -59.25 26.8496 -59.25 59.25zM37.9004 177.5v353.5h140v-355.7c0 -52.7998 23.5996 -71.7998 58.6494 -71.7998c56.3506 0 87.1006 14.5 128.351 46v381.5h140v-531h-112.5l-27.5 56.5c-52.75 -31.7002 -87.5 -65.5 -168.5 -65.5
c-123.601 0 -158.5 85.2998 -158.5 186.5z" />
    <glyph glyph-name="yacute" unicode="&#xfd;" horiz-adv-x="578" 
d="M242.55 596l90.5 138.5h122.5l-122 -138.5h-91zM16.0498 531h147l91.6006 -371.55c11.3994 -42.7002 45 -38.4502 53.3496 -39l106.35 410.55h145.7l-183.95 -699l-72.7998 -102h-99.8994l74.75 270c-73.8008 0 -132.101 37.2002 -157.95 135.3z" />
    <glyph glyph-name="thorn" unicode="&#xfe;" horiz-adv-x="556" 
d="M52.9502 -270l-0.000976562 1052h140v-308.8c33.1504 26.7002 96.75 61.2998 159.8 61.2998c126.65 0 173.351 -105.1 173.351 -270.8c0 -152.7 -24.8496 -276.45 -173.35 -276.45c-45 0 -111.75 11.9004 -159.8 36.25v-293.5h-140zM192.949 116.5
c42.4004 -16.4004 85.9004 -18.1504 123.5 -19.5c42.8496 0 69.6494 25.7002 69.6494 162.101c0 116.2 -25.7998 155.75 -69.6494 155.75c-46.2998 -1.7998 -90.0996 -14.4502 -123.5 -34.6006v-263.75z" />
    <glyph glyph-name="ydieresis" unicode="&#xff;" horiz-adv-x="578" 
d="M101.8 655.25c0 32.4004 26.8506 58.25 59.25 58.25c32.4004 0 58.25 -25.8496 58.25 -58.25s-25.8496 -59.25 -58.25 -59.25c-32.3994 0 -59.25 26.8496 -59.25 59.25zM356.8 655.25c0 32.4004 26.8506 58.25 59.25 58.25c32.4004 0 58.25 -25.8496 58.25 -58.25
s-25.8496 -59.25 -58.25 -59.25c-32.3994 0 -59.25 26.8496 -59.25 59.25zM16.0498 531h147l91.6006 -371.55c11.3994 -42.7002 45 -38.4502 53.3496 -39l106.35 410.55h145.7l-183.95 -699l-72.7998 -102h-99.8994l74.75 270c-73.8008 0 -132.101 37.2002 -157.95 135.3z
" />
    <glyph glyph-name="bullet" unicode="&#x2022;" horiz-adv-x="309" 
d="M64.6504 321.75v118.5c0 21 11 35 33 35h112.5c25 0 35 -13 35 -35v-118.5c0 -24 -15 -32 -35 -32h-112.5c-20 0 -33 12 -33 32z" />
    <glyph glyph-name="quoteleft" unicode="&#x2018;" horiz-adv-x="259" 
d="M60.75 516.3v132.55c0 119.4 132.05 91.1504 132.05 91.1504v-55.3496c-31.3496 0.450195 -32.3496 -21.4502 -32.3496 -32.3506v-20.8496h11.4502c14.4502 0 26.3506 -8 26.3506 -25.9004v-89.25c0 -18.9004 -9.4502 -28.3506 -26.3506 -28.3506h-86.25
c-18.9004 0 -24.9004 12.9004 -24.9004 28.3506z" />
    <glyph glyph-name="quoteright" unicode="&#x2019;" horiz-adv-x="259" 
d="M60.75 625.5v89.25c0 18.9004 9.4502 28.3506 26.3506 28.3506h86.25c18.9004 0 24.9004 -12.9004 24.9004 -28.3506v-132.55c0 -119.4 -132.05 -91.6006 -132.05 -91.6006v55.3496c31.3496 -0.450195 32.3496 21.8994 32.3496 32.7998v20.4004h-11.4502
c-14.4502 0 -26.3506 8.4502 -26.3506 26.3506z" />
    <glyph glyph-name="quotesinglbase" unicode="&#x201a;" horiz-adv-x="259" 
d="M60.75 25.9004v89.249c0 18.9004 9.4502 28.3506 26.3506 28.3506h86.25c18.9004 0 24.9004 -12.9004 24.9004 -28.3506v-132.55c0 -119.85 -132.05 -91.5996 -132.05 -91.5996v55.3496c31.3496 -0.450195 32.3496 21.8994 32.3496 32.7998v20.4004h-11.4502
c-14.4502 0 -26.3506 8.4502 -26.3506 26.3506z" />
    <glyph glyph-name="quotedblleft" unicode="&#x201c;" horiz-adv-x="425" 
d="M233.35 515.2v132.551c0 119.4 132.5 91.1504 132.5 91.1504v-55.3496c-31.3496 0.450195 -32.7998 -21.4502 -32.7998 -32.3506v-20.4004h11.9004c14.4502 0 25.9004 -8.4502 25.9004 -26.3506v-89.25c0 -18.9004 -9 -28.3506 -25.9004 -28.3506h-86.25
c-18.9004 0 -25.3506 12.9004 -25.3506 28.3506zM55.3994 515.201v132.551c0 119.4 132.05 91.1504 132.05 91.1504v-55.3496c-31.3496 0.450195 -32.3496 -21.4502 -32.3496 -32.3506v-20.4004h11.4502c14.4502 0 26.3506 -8.4502 26.3506 -26.3506v-89.25
c0 -18.9004 -9.4502 -28.3506 -26.3506 -28.3506h-86.25c-18.9004 0 -24.9004 12.9004 -24.9004 28.3506z" />
    <glyph glyph-name="quotedblright" unicode="&#x201d;" horiz-adv-x="425" 
d="M55.4004 624.4v89.25c0 18.9004 9 28.3506 25.9004 28.3506h86.25c18.9004 0 25.3506 -12.9004 25.3506 -28.3506v-132.55c0 -119.4 -132.5 -91.6006 -132.5 -91.6006v55.3496c31.3496 -0.450195 32.3496 21.8994 32.3496 32.7998v20.4004h-11.4502
c-14.4502 0 -25.9004 8.4502 -25.9004 26.3506zM233.351 624.4v89.25c0 18.9004 9.4502 28.3506 26.3506 28.3506h86.25c18.9004 0 24.9004 -12.9004 24.9004 -28.3506v-132.55c0 -119.4 -132.05 -91.6006 -132.05 -91.6006v55.3496
c31.3496 -0.450195 32.3496 21.8994 32.3496 32.7998v20.4004h-11.4502c-14.4502 0 -26.3506 8.4502 -26.3506 26.3506z" />
    <glyph glyph-name="quotedblbase" unicode="&#x201e;" horiz-adv-x="425" 
d="M55.4004 25.9004v89.249c0 18.9004 9 28.3506 25.9004 28.3506h86.25c18.9004 0 25.3506 -12.9004 25.3506 -28.3506v-132.55c0 -119.85 -132.5 -91.5996 -132.5 -91.5996v55.3496c31.3496 -0.450195 32.3496 21.8994 32.3496 32.7998v20.4004h-11.4502
c-14.4502 0 -25.9004 8.4502 -25.9004 26.3506zM233.351 25.8994v89.249c0 18.9004 9.4502 28.3506 26.3506 28.3506h86.25c18.9004 0 24.9004 -12.9004 24.9004 -28.3506v-132.55c0 -119.85 -132.05 -91.5996 -132.05 -91.5996v55.3496
c31.3496 -0.450195 32.3496 21.8994 32.3496 32.7998v20.4004h-11.4502c-14.4502 0 -26.3506 8.4502 -26.3506 26.3506z" />
    <glyph glyph-name="exclamdown.alt" horiz-adv-x="273" 
d="M69.9004 618v90c0 15 9 23 23 23h88c14 0 24 -9 24 -23v-90c0 -15 -8 -25 -24 -25h-88c-15 0 -23 11 -23 25zM65.3506 0l14.7002 535h114.05l12.5 -535h-141.25z" />
    <glyph glyph-name="zerosuperior" unicode="&#x2070;" horiz-adv-x="464" 
d="M45.7002 497.4l0.000976562 238.5c0 85.0996 48.2002 123.199 130.2 123.199h118.1c95.0996 0 125.1 -51.7998 125.1 -119.899v-241.8c0 -86.6504 -48.4502 -119.9 -125.101 -119.9h-118.65c-78.7998 0 -129.649 30.9004 -129.649 119.9zM154.352 520.101
c0 -36.1504 17.25 -42.6494 47 -42.6494h64.4502c35.0498 0 45.5498 8.75 45.5498 42.0996v197.5c0 30.5996 -11.2998 42.0996 -42.7998 42.0996h-69.9502c-44.4004 0 -44.25 -23.75 -44.25 -42.0996v-196.95z" />
    <glyph glyph-name="foursuperior" unicode="&#x2074;" horiz-adv-x="430" 
d="M12.1504 522.5l171.151 336.6h110.6l-141.4 -280.2h110.35v102.3l24.1504 49.6504h84.0498v-151.95h48.5498v-85l-48.5498 -8.0498v-106.8h-108.2v96.9004h-228.15z" />
    <glyph glyph-name="fivesuperior" unicode="&#x2075;" horiz-adv-x="416" 
d="M41.7998 390.25l0.000976562 85.8506h191.75c41.0498 0 44.3994 19.25 44.3994 39.5996v33.4502c0 19.25 -2.40039 42.75 -40.5508 42.75h-67.7002c-22.7998 0 -35.75 -10.1504 -35.75 -34.7002h-91.5996l15 301.9h309.85v-99.9502h-215l-4.7002 -88.5
c30 23.5 88.8496 19 123.05 16.7998c80.8496 -3.84961 115.6 -55.5996 115.6 -127.149v-64c0 -88.0498 -60.8496 -122.25 -126.6 -122.25c-84.2998 0 -126.899 0.0996094 -217.749 16.1992z" />
    <glyph glyph-name="sixsuperior" unicode="&#x2076;" horiz-adv-x="438" 
d="M41.25 631.25c0.900391 186 60 224.9 124.1 231.65c70.2998 8.84961 162.3 -2.35059 225.35 -13.1006v-83.5498h-176.7c-62.2998 0 -64.0996 -60.0498 -64.5498 -105.7c38.5 10.4004 83.9004 15.1006 136.301 15.1006c100.1 0 122.05 -52.75 122.05 -116.4v-66.9502
c0 -81.3496 -49.5 -114.35 -123.7 -114.35h-103.7c-81.3496 0 -140.05 41.9502 -139.149 253.3zM149.45 580.1c0 -43.4502 6.39941 -102.2 59.2998 -102.2h53.75c26.9502 0 37.1006 8.9502 37.1006 35.0498v32.9502c0 27.75 -7.65039 34.2002 -34.9004 34.2002h-115.25z" />
    <glyph glyph-name="sevensuperior" unicode="&#x2077;" horiz-adv-x="397" 
d="M11.1504 760.05v99.9512h347.05l27.4502 -46.4004l-183.1 -435.65h-118.4l161.1 382.1h-234.1z" />
    <glyph glyph-name="eightsuperior" unicode="&#x2078;" horiz-adv-x="463" 
d="M50.0498 489.3l-0.000976562 45.3516c0 39.75 20.75 67.8496 55.5498 74.75c-49.7002 20.0498 -55.5498 58.2002 -55.5498 96.0498v41.6504c0 93.0996 59.4502 116.449 130.851 116.449h111.65c78.7998 0 121.75 -30.4502 121.75 -115.351v-33.9502
c0.450195 -16.2002 -4.2998 -67.75 -52.3994 -75.5498c44.3496 -7.65039 52.3994 -63.4004 52.3994 -91.9502v-54.1504c0 -98.2998 -57.1504 -115.55 -120.4 -115.55h-116.15c-117.85 0 -127.699 64.8496 -127.699 112.25zM158.249 506.501
c0 -24.2998 8.89941 -33.4492 39.999 -33.4492h69.6504c28.5498 0 38.2002 10.4502 38.2002 33.4502v34.0498c0 24.3496 -9.84961 36.5996 -37.1992 36.5996h-71.5498c-28.9004 0 -39.1006 -10.9004 -39.1006 -36.6006v-34.0498zM158.248 705.602
c0 -30.25 16.5518 -36.8496 39.1016 -36.8496h69.2002c37.0996 0 39.5498 18.25 39.5498 36.8496v22.6504c0 34.7998 -15.9004 39.75 -41.8008 39.75h-62.9004c-31.25 0 -43.1504 -6.40039 -43.1504 -39.75v-22.6504z" />
    <glyph glyph-name="ninesuperior" unicode="&#x2079;" horiz-adv-x="438" 
d="M34 682.7v67.501c0 82.4502 50.0498 116 124.25 116h103.15c81.3496 0 140.05 -43.0498 139.149 -257.7c-0.900391 -188.75 -58.2002 -227.2 -123.65 -234.95c-69.8496 -8.84961 -157.35 -0.349609 -225.8 13.1006v84.0996h176.25c62.2998 0 64.5498 61.1504 65 109
c-38.5 -10.4004 -83.3496 -15.1006 -135.75 -15.1006c-100.1 0 -122.6 53.2998 -122.6 118.05zM142.2 696.602c0 -28.8496 8.2002 -35.8496 35.4502 -35.8496h114.7c0 46.2002 -5.0498 105.5 -57.9502 105.5h-55.0996c-26.9502 0 -37.1006 -9.5 -37.1006 -36.7002v-32.9502z
" />
    <glyph glyph-name="zeroinferior" unicode="&#x2080;" horiz-adv-x="464" 
d="M45.7002 -80.0996l0.000976562 238.5c0 85.0996 48.2002 123.199 130.2 123.199h118.1c95.0996 0 125.1 -51.7998 125.1 -119.899v-241.8c0 -86.6504 -48.4502 -119.9 -125.101 -119.9h-118.65c-78.7998 0 -129.649 30.9004 -129.649 119.9zM154.352 -57.3994
c0 -36.1504 17.25 -42.6494 47 -42.6494h64.4502c35.0498 0 45.5498 8.75 45.5498 42.0996v197.5c0 30.5996 -11.2998 42.0996 -42.7998 42.0996h-69.9502c-44.4004 0 -44.25 -23.75 -44.25 -42.0996v-196.95z" />
    <glyph glyph-name="oneinferior" unicode="&#x2081;" horiz-adv-x="270" 
d="M12.1504 161.45v66.0498l102.15 55h107.1v-482.05h-108.2v383.9z" />
    <glyph glyph-name="twoinferior" unicode="&#x2082;" horiz-adv-x="403" 
d="M23.75 189.1c-0.900391 0 -0.450195 81.5498 0 81.0996c61.5996 10.75 112.1 18.8496 200.6 18.8496c105.15 0 147.601 -61.2998 147.601 -145.35c0 -104.65 -130.25 -207.75 -175 -243.3h174.55v-99.9502h-344.2v95.4004
c60.4004 41.9004 235.101 161.551 235.101 237.15c0 43.0996 -20.75 56.0996 -77.6504 56.0996h-161z" />
    <glyph glyph-name="threeinferior" unicode="&#x2083;" horiz-adv-x="412" 
d="M22.8496 184.55l-0.000976562 79.2969c59.75 21.6504 136.05 21.3008 215.899 20.2012c82.0498 -0.549805 128.149 -49.8496 128.149 -120.85v-30.0498c0 -48.0996 -19.7002 -80.1992 -56.7002 -92.9492c38 -14.7998 56.7002 -48.8496 56.7002 -98.9492v-23.0498
c0 -75.9502 -40.75 -122.3 -133.15 -122.3c-77.8496 0 -146.6 -2 -206.899 19.6504l1 79.8496c14.4004 0 161.601 0.450195 161.601 0.450195c53.4502 0 69.25 7.65039 69.25 39.5508v12.5498c0 34.5 -25.2998 43.25 -65.25 44.25l-125.5 5v86.0498l125.5 7.5498
c46.6504 1.4502 66.8008 11.3506 66.8008 41.4502v12.0996c0 32.0996 -26.75 40.1992 -66.7998 40.1992h-170.6z" />
    <glyph glyph-name="fourinferior" unicode="&#x2084;" horiz-adv-x="434" 
d="M12.1504 -55l171.149 336.6h113.9l-139.2 -280.2h108.15v102.3l24.1504 49.6504h84.0498v-151.95h48.5498v-85l-48.5498 -8.0498v-106.8h-108.2v96.9004h-231.45z" />
    <glyph glyph-name="fiveinferior" unicode="&#x2085;" horiz-adv-x="418" 
d="M42.3496 -13.7002l14.999 295.302h312.05v-99.9502h-216.1l-5.25 -88.5c30 23.5 89.4004 19 124.15 16.7998c81.4004 -3.84961 116.15 -55.5996 116.15 -127.149v-64c0 -88.0498 -61.4004 -122.25 -127.7 -122.25c-84.8496 0 -127.449 0.0996094 -218.85 16.1992v85.8496
h193.4c41.0498 0 44.9502 19.25 44.9502 39.5996v33.4502c0 19.25 -2.40039 42.75 -40.5508 42.75h-68.25c-22.7998 0 -36.2998 -7.9502 -36.2998 -28.1006h-92.7002z" />
    <glyph glyph-name="sixinferior" unicode="&#x2086;" horiz-adv-x="438" 
d="M41.25 53.75c0.900391 186 60.001 224.899 124.101 231.649c69.8496 8.40039 159.6 -0.549805 225.35 -13.0996v-83.5498h-176.7c-62.2998 0 -64.0996 -60.0498 -64.5498 -105.7c38.5 10.4004 83.3496 15.1006 136.3 15.1006c100.1 0 122.05 -52.75 122.05 -116.4
v-66.9502c0 -81.3496 -49.5 -114.35 -123.7 -114.35h-103.7c-81.3496 0 -140.05 41.9502 -139.149 253.3zM149.451 2.59863c0 -43.4502 6.39941 -102.2 59.2998 -102.2h53.75c26.9502 0 37.1006 8.9502 37.1006 35.0498v32.9502c0 27.75 -7.65039 34.2002 -34.9004 34.2002
h-115.25z" />
    <glyph glyph-name="seveninferior" unicode="&#x2087;" horiz-adv-x="397" 
d="M11.1504 182.55v99.9512h347.05l27.4502 -46.4004l-183.1 -435.65h-118.4l161.1 382.1h-234.1z" />
    <glyph glyph-name="eightinferior" unicode="&#x2088;" horiz-adv-x="463" 
d="M50.0498 -42.8496c0 39.75 20.1992 67.8516 55.5488 74.752c-49.7002 20.0498 -55.5498 58.2002 -55.5498 96.0498v41.6504c0 93.0996 59.4502 116.449 130.851 116.449h111.65c78.7998 0 121.75 -30.4502 121.75 -115.351v-33.9502
c0.450195 -16.2002 -4.84961 -67.75 -52.3994 -75.5498c43.7998 -7.65039 52.3994 -63.4004 52.3994 -91.9502v-54.1504c0 -98.2998 -57.1504 -115.55 -120.4 -115.55h-116.15c-117.85 0 -127.699 64.8496 -127.699 112.25v45.3496zM158.249 -36.9473l-0.000976562 -34.0488
c0 -24.2998 8.90039 -33.4502 40 -33.4502h69.6504c28.5498 0 38.2002 10.4502 38.2002 33.4502v34.0498c0 24.3496 -9.84961 36.5996 -37.1992 36.5996h-71.5498c-28.9004 0 -39.1006 -10.9004 -39.1006 -36.6006zM158.248 128.104
c0 -30.25 16.5518 -36.8496 39.1016 -36.8496h69.2002c37.0996 0 39.5498 18.25 39.5498 36.8496v22.6504c0 34.7998 -15.9004 39.75 -41.8008 39.75h-62.9004c-31.25 0 -43.1504 -6.40039 -43.1504 -39.75v-22.6504z" />
    <glyph glyph-name="nineinferior" unicode="&#x2089;" horiz-adv-x="438" 
d="M34 105.2l-0.000976562 67.501c0 82.4502 50.0498 116 124.25 116h103.15c81.3496 0 140.05 -42.5 139.149 -256.6c-0.900391 -187.65 -58.2002 -226.65 -123.65 -234.4c-69.8496 -8.84961 -158.699 0.100586 -225.799 11.4502v84.0996h176.25
c62.2998 0 64.5498 61.1504 65 109c-38.5 -10.4004 -83.3496 -15.1006 -135.75 -15.1006c-100.1 0 -122.6 53.2998 -122.6 118.05zM142.199 119.102c0 -28.8496 8.2002 -35.8496 35.4502 -35.8496h114.7c0 46.2002 -5.0498 105.5 -57.9502 105.5h-55.0996
c-26.9502 0 -37.1006 -9.5 -37.1006 -36.7002v-32.9502z" />
    <glyph glyph-name="zero.oldstyle" horiz-adv-x="630" 
d="M52.9502 178.5v269.6c0 120.1 72.5996 184 184.1 184h164c134.65 0 176.9 -80.3496 176.9 -178.5v-275.1c0 -119 -66.9004 -178.5 -177.45 -178.5h-164c-112.45 0 -183.55 58.5 -183.55 178.5zM192.95 201.05c0 -60.9502 41.749 -72.0498 75.4492 -72.0498h96.9004
c46.9502 0 72.6504 17.5 72.6504 71.5v231.1c0 46 -20.0996 71.5 -68.25 71.5h-105.15c-60.0996 0 -71.5996 -42.75 -71.5996 -71.5v-230.55z" />
    <glyph glyph-name="one.oldstyle" horiz-adv-x="367" 
d="M22.8496 457.15v91.5l141.6 83.3496h138.9v-632h-140v492.45z" />
    <glyph glyph-name="two.oldstyle" horiz-adv-x="589" 
d="M31.0996 510.65v104.049c89.2002 16.2002 172.601 27.75 303.551 25.5c148.8 0 216.75 -66.2998 216.75 -194.149c0 -152.85 -208.15 -284.85 -265.051 -317.05h262.8v-129h-511.5v123c105 58.3496 373.3 203.899 373.3 311.3c0 58.7002 -35.3496 77.7002 -121.3 76.3506
h-258.55z" />
    <glyph glyph-name="three.oldstyle" horiz-adv-x="598" 
d="M37.9004 510v101c88 31 206.5 30 323.5 28c110 -2 180.9 -69.1504 180.9 -176v-52.5c0 -73 -24.3496 -122.2 -75.8994 -141.5c53.0996 -22.7002 75.8994 -73.5 75.8994 -149.5v-42.5c0 -115.6 -65.9004 -179 -187.9 -179c-114 0 -222.5 -3 -310.5 28l1 102h254
c66.75 0 102.5 6.84961 102.5 68.25v31.5c0 60.4004 -37 73.2002 -96.5 75.75l-199 7v113l199 10c69 3 98.5 18.75 98.5 71.5v36c0 57.2998 -46.5 69 -98.5 69h-267z" />
    <glyph glyph-name="four.oldstyle" horiz-adv-x="620" 
d="M15.0498 124l260.5 508h154l-218.65 -439.5h181.15v166.85l31.5 76.6504h108.5v-243.5h73.5v-108.5l-73.5 -24.5v-157.5h-140v157.5h-343z" />
    <glyph glyph-name="five.oldstyle" horiz-adv-x="610" 
d="M67.8496 30h282.002c65.1504 0 72.9502 40.2002 72.9502 71v66.5498c0 33 -5.9502 71.4502 -66.9004 71.4502h-93.5c-35.1504 0 -61.1006 -17.1504 -61.1006 -58.5h-132l22 451.5h444.55v-129h-310l-7.59961 -165c20.5996 16.4502 47.5 22.1504 69.0498 24.5
c38.5996 4.25 88.1992 0.549805 109.299 0c116.9 -5.5 166.2 -80.5498 166.2 -182.5v-103c0 -137 -103.65 -181 -185.45 -181c-124 0 -175.5 1 -309.5 24v110z" />
    <glyph glyph-name="six.oldstyle" horiz-adv-x="608" 
d="M49.5996 384c0 265 85.7002 343.55 172 351.25c100.45 8.7998 224.601 -3.25 318.501 -20.0996v-106.15h-250.5c-91 0 -99.0996 -107.55 -100 -185.5c58.5996 14.9502 123 21 202.5 21c141.5 0 172 -75.9502 172 -171v-109c0 -121.9 -71.4004 -165.5 -177.5 -165.5
h-142.95c-116.15 0.450195 -194.051 70 -194.051 385zM189.6 321c0 -100.6 10.0498 -193 95.2998 -193h76.4004c41.0996 0 63.25 9.4502 63.25 61.75v67.25c0 51.0996 -19.4502 64 -60.5 64h-174.45z" />
    <glyph glyph-name="seven.oldstyle" horiz-adv-x="554" 
d="M22.8496 503l0.000976562 129h471.1l38 -64.5l-245.2 -667.5h-152.9l225 603h-336z" />
    <glyph glyph-name="eight.oldstyle" horiz-adv-x="624" 
d="M56.8496 167.75v73.252c0 60.7998 30.1504 101.7 78.9502 112.5c-69.5 30.25 -78.9502 88.0996 -78.9502 145.5v65c0 137.3 84 173 187 173h151.5c113.05 0 173 -47.7998 173 -173.55v-53.4502c0.450195 -24.75 -6.84961 -104.3 -75 -116
c62.25 -11.6504 75.4502 -94.0508 75 -137.051v-85.9004c0 -148.15 -91.8496 -171.051 -174 -171.051h-150.5c-181.9 -0 -187 114.1 -187 167.75zM196.85 183.452c0 -41.2998 19.6514 -59.9502 71.751 -59.9502h93.8496c43.5498 0 65.8994 20.7002 65.8994 59.9502v69.25
c0 39.9502 -22.2002 62.2998 -63.4502 62.2998h-101.25c-43.7998 0 -66.7998 -19.5498 -66.7998 -62.2998v-69.25zM196.851 494.002c0 -51.5996 32.7998 -62.001 66.7998 -62.001h100.15c57.0498 0 64.5498 29.2998 64.5498 62v47.0996
c0 59.7002 -25.7002 72.4004 -65.4502 72.4004h-94.2998c-45.2998 0 -71.75 -6.59961 -71.75 -72.3994v-47.0996z" />
    <glyph glyph-name="nine.oldstyle" horiz-adv-x="608" 
d="M45.7002 358.05l-0.000976562 109c0 121.9 71.4004 165.5 177.5 165.5h142.95c116.15 -0.450195 194.051 -70 194.051 -385c0 -265 -85.7002 -343.55 -172 -351.25c-100.45 -8.7998 -223.7 1 -318.5 20.0996v106.15h250.5c91 0 99.0996 107.55 100 185.5
c-58.5996 -14.9502 -123 -21 -202.5 -21c-141.5 0 -172 75.9502 -172 171zM185.249 374.55c0 -51.0996 19.4502 -64 60.5 -64h174.45c0 100.6 -10.0498 193 -95.2998 193h-76.4004c-41.0996 0 -63.25 -9.4502 -63.25 -61.75v-67.25z" />
    <glyph glyph-name="Euro" unicode="&#x20ac;" horiz-adv-x="617" 
d="M15.0498 249.5v69l77 7v68l-77 8v65l77 9c0 72 1 264.5 245 264.5c52 0 182.7 -12.0498 261.5 -35.5v-103s-146.5 15 -228.5 15c-133.6 0 -138 -51.5 -138 -141l234 -7v-68l-234 -7v-68l234 -7v-69s-237 -5 -234 -7c0 -110.35 63.7998 -130.5 138 -130.5
c90.9502 0 232.5 22.5 232.5 22.5v-100c-73.8496 -31.7998 -160.5 -40.5 -265.5 -40.5c-77 0 -245 22.5 -245 248.5z" />
    <glyph glyph-name="endash" unicode="&#x2013;" horiz-adv-x="513" 
d="M20 228v119h473v-119h-473z" />
    <glyph glyph-name="emdash" unicode="&#x2014;" horiz-adv-x="736" 
d="M20 230v119h696v-119h-696z" />
    <glyph glyph-name="breve" unicode="&#x2d8;" horiz-adv-x="304" 
d="M37.9004 644h58c0 -34.0498 23.5498 -56 56 -56c38 0 58 21.7002 58 56h58c0 -71.5996 -52.2002 -114 -116 -114c-62.7002 0 -114 44.2002 -114 114z" />
    <glyph glyph-name="ogonek" unicode="&#x2db;" horiz-adv-x="209" 
d="M107.8 0h55.501c-79.7002 -59.75 -46.8506 -112.4 8.49902 -110v-76.5c-106.2 -25.9004 -206.3 114.8 -64 186.5z" />
    <glyph glyph-name="caron" unicode="&#x2c7;" horiz-adv-x="384" 
d="M37.9004 666.5h93.4502l62.9502 -60l58.5498 60h93.5498l-101.8 -135.5h-104zM244.601 531z" />
    <glyph glyph-name="hungarumlaut" unicode="&#x2dd;" horiz-adv-x="401" 
d="M15.0498 531l90.5 138.5h122.5l-122 -138.5h-91zM170.95 531l90.5 138.5h122.5l-122 -138.5h-91z" />
    <glyph glyph-name="dotaccent" unicode="&#x2d9;" horiz-adv-x="194" 
d="M37.9004 545v76c0 15 8 25 24 25h72c15 0 23 -11 23 -25v-76c0 -15 -9 -23 -23 -23h-72c-14 0 -24 9 -24 23z" />
    <glyph glyph-name="Aogonek" unicode="&#x104;" horiz-adv-x="692" 
d="M579.2 0.84375h55.5c-79.7002 -59.75 -46.8506 -112.4 8.5 -110v-76.5c-106.2 -25.9004 -206.3 114.8 -64 186.5zM34 0l247 732h159.25l237.75 -732h-149.05l-52 162.2h-239.75l-52.7998 -162.2h-150.4zM273.55 286.25h170.25l-82.25 261.25z" />
    <glyph glyph-name="Lcaron" unicode="&#x13d;" horiz-adv-x="539" 
d="M60.75 142.5v589.5h140v-551c0 -53 33 -52 62 -52h251v-129h-300.5c-79.7539 0 -152.5 29.5 -152.5 142.5zM262.9 705v67h96v-67l-10 -134h-75z" />
    <glyph glyph-name="Sacute" unicode="&#x15a;" horiz-adv-x="590" 
d="M261.006 798.467l90.5 138.5h122.5l-122 -138.5h-91zM49.5996 485.75v63.25c0 145 86 187.35 198 189c105.25 2.2002 225.2 -11.8496 283 -28.9502v-110.05c-64 5.65039 -208.199 10 -244.5 10c-61.1992 1.34961 -96.5 -2.90039 -96.5 -71v-35.75
c0 -58 22.2002 -70.5 78.9004 -70.5h115.6c143.45 0 173.051 -113.1 173.051 -194v-48.75c0 -166.2 -103.551 -197 -202.551 -197c-124.899 0 -206.75 7.65039 -282.449 29.9502v110.05c40 -4 161.949 -11 254.949 -11c42.1006 0 90.0508 6.9502 90.0508 63.0498v39.4004
c0 41.5996 -12.6006 68.2998 -66.0508 68.2998h-112.5c-176.5 0 -189 130.35 -189 194z" />
    <glyph glyph-name="Scaron" unicode="&#x160;" horiz-adv-x="590" 
d="M155.431 933.967h93.4502l62.9502 -60l58.5498 60h93.5498l-101.8 -135.5h-104zM49.5996 485.75v63.25c0 145 86 187.35 198 189c105.25 2.2002 225.2 -11.8496 283 -28.9502v-110.05c-64 5.65039 -208.199 10 -244.5 10c-61.1992 1.34961 -96.5 -2.90039 -96.5 -71
v-35.75c0 -58 22.2002 -70.5 78.9004 -70.5h115.6c143.45 0 173.051 -113.1 173.051 -194v-48.75c0 -166.2 -103.551 -197 -202.551 -197c-124.899 0 -206.75 7.65039 -282.449 29.9502v110.05c40 -4 161.949 -11 254.949 -11c42.1006 0 90.0508 6.9502 90.0508 63.0498
v39.4004c0 41.5996 -12.6006 68.2998 -66.0508 68.2998h-112.5c-176.5 0 -189 130.35 -189 194z" />
    <glyph glyph-name="Scedilla" unicode="&#x15e;" horiz-adv-x="590" 
d="M196 -125.3l44.2002 15c28 12 29.7998 28.3994 29.7998 66.3994h94.5c0 -102 -25.4004 -141.5 -112 -141.5h-56.5v60.1006zM49.5996 485.75v63.25c0 145 86 187.35 198 189c105.25 2.2002 225.2 -11.8496 283 -28.9502v-110.05c-64 5.65039 -208.199 10 -244.5 10
c-61.1992 1.34961 -96.5 -2.90039 -96.5 -71v-35.75c0 -58 22.2002 -70.5 78.9004 -70.5h115.6c143.45 0 173.051 -113.1 173.051 -194v-48.75c0 -166.2 -103.551 -197 -202.551 -197c-124.899 0 -206.75 7.65039 -282.449 29.9502v110.05c40 -4 161.949 -11 254.949 -11
c42.1006 0 90.0508 6.9502 90.0508 63.0498v39.4004c0 41.5996 -12.6006 68.2998 -66.0508 68.2998h-112.5c-176.5 0 -189 130.35 -189 194z" />
    <glyph glyph-name="Tcaron" unicode="&#x164;" horiz-adv-x="593" 
d="M143 932.5h93.4502l62.9502 -60l58.5498 60h93.5498l-101.8 -135.5h-104zM31.25 603v129h541v-129h-203.5v-603h-140v603h-197.5z" />
    <glyph glyph-name="Zacute" unicode="&#x179;" horiz-adv-x="556" 
d="M233.25 797l90.5 138.5h122.5l-122 -138.5h-91zM26.75 0v129l335.5 474h-335.5v129h504v-129l-319 -474h319v-129h-504z" />
    <glyph glyph-name="Zcaron" unicode="&#x17d;" horiz-adv-x="556" 
d="M124.5 932.5h93.4502l62.9502 -60l58.5498 60h93.5498l-101.8 -135.5h-104zM26.75 0v129l335.5 474h-335.5v129h504v-129l-319 -474h319v-129h-504z" />
    <glyph glyph-name="Zdotaccent" unicode="&#x17b;" horiz-adv-x="556" 
d="M219.25 820v76c0 15 8 25 24 25h72c15 0 23 -11 23 -25v-76c0 -15 -9 -23 -23 -23h-72c-14 0 -24 9 -24 23zM26.75 0v129l335.5 474h-335.5v129h504v-129l-319 -474h319v-129h-504z" />
    <glyph glyph-name="aogonek" unicode="&#x105;" horiz-adv-x="519" 
d="M401.46 0.209961h55.5c-79.7002 -59.75 -46.8496 -112.4 8.5 -110v-76.5c-106.2 -25.9004 -206.3 114.8 -64 186.5zM30.0996 135.35v50c0 77.25 41.75 145.65 155.551 145.65c0 0 156 -1 156 0c0 0 1 33 0 34c0 56.5996 -26.5 65.5 -71 65.5
c-46.1504 0 -179.351 -8.2998 -223 -11.4502v86.4502c69.8994 27.1504 142.949 35.0498 241.949 35.5c114.351 0.450195 192.051 -39.0498 192.051 -170.5v-370.5h-110.551l-29.4492 58.5c-5.85059 -11.5498 -80.4004 -66.1504 -161.5 -64.5
c-102.15 2.75 -150.051 72.2998 -150.051 141.35zM170.1 155.2c0 -44.1504 23.9004 -48.7002 49.6504 -48.7002c58.5498 0 121.9 41.0996 121.9 41.0996v97.3506l-128.5 -9.9502c-36.9502 -3.4502 -43.0508 -30.7998 -43.0508 -54v-25.7998z" />
    <glyph glyph-name="lcaron" unicode="&#x13e;" horiz-adv-x="358" 
d="M45.7002 189v594h140v-572c0 -77.0996 14.5498 -92 46 -104c0 0 60 -21 67 -21v-86h-115.5c-94.5498 0 -137.5 48 -137.5 189zM250.7 714.55v67h96v-67l-10 -134h-75z" />
    <glyph glyph-name="sacute" unicode="&#x15b;" horiz-adv-x="508" 
d="M210.6 598.25l90.5 138.5h122.5l-122 -138.5h-91zM30.0996 347v46c0 82 35 143 138 143c102.051 0 242.551 -3.2998 283.551 -27v-88.3496h-240.65c-35.9502 0 -40.9004 -11.25 -40.9004 -36.4502v-24c0 -33.5498 17.6504 -34.4502 40.9004 -34.4502h126.1
c101.301 0 141 -60.0498 141 -137.25v-54.5c0 -109 -66 -139 -130 -139c-100.699 0 -259.1 4.5498 -296 28.9004v87.4492h250.9c9.34961 0 35.0996 1.15039 35.0996 33.6504v24.7998c0 22.3506 -6.5 34.6504 -35.0996 34.6504h-123.9c-94 0 -149 39.5498 -149 142.55z" />
    <glyph glyph-name="scaron" unicode="&#x161;" horiz-adv-x="508" 
d="M105.6 733.75h93.4502l62.9502 -60l58.5498 60h93.5498l-101.8 -135.5h-104zM30.0996 347v46c0 82 35 143 138 143c102.051 0 242.551 -3.2998 283.551 -27v-88.3496h-240.65c-35.9502 0 -40.9004 -11.25 -40.9004 -36.4502v-24
c0 -33.5498 17.6504 -34.4502 40.9004 -34.4502h126.1c101.301 0 141 -60.0498 141 -137.25v-54.5c0 -109 -66 -139 -130 -139c-100.699 0 -259.1 4.5498 -296 28.9004v87.4492h250.9c9.34961 0 35.0996 1.15039 35.0996 33.6504v24.7998
c0 22.3506 -6.5 34.6504 -35.0996 34.6504h-123.9c-94 0 -149 39.5498 -149 142.55z" />
    <glyph glyph-name="scedilla" unicode="&#x15f;" horiz-adv-x="508" 
d="M82.4502 -119.3l44.2002 15c28 12 29.7998 28.3994 29.7998 66.3994h94.5c0 -102 -25.4004 -141.5 -112 -141.5h-56.5v60.1006zM30.0996 347v46c0 82 35 143 138 143c102.051 0 242.551 -3.2998 283.551 -27v-88.3496h-240.65
c-35.9502 0 -40.9004 -11.25 -40.9004 -36.4502v-24c0 -33.5498 17.6504 -34.4502 40.9004 -34.4502h126.1c101.301 0 141 -60.0498 141 -137.25v-54.5c0 -109 -66 -139 -130 -139c-100.699 0 -259.1 4.5498 -296 28.9004v87.4492h250.9
c9.34961 0 35.0996 1.15039 35.0996 33.6504v24.7998c0 22.3506 -6.5 34.6504 -35.0996 34.6504h-123.9c-94 0 -149 39.5498 -149 142.55z" />
    <glyph glyph-name="tcaron" unicode="&#x165;" horiz-adv-x="413" 
d="M15.0498 425v78.001l85.7998 29l23.5 148h116.5v-148h118.7v-107h-118.7v-213c0 -78.2002 18.0498 -94.9004 45.4502 -105.101c0 0 60 -21 67 -21v-86h-122.1c-78.6504 0 -130.351 49.0996 -130.351 190.1v235h-85.7998zM294.5 800.551h96.4502v-67l-10.4502 -134h-75
l-10.5498 134z" />
    <glyph glyph-name="zacute" unicode="&#x17a;" horiz-adv-x="474" 
d="M191.85 596l90.5 138.5h122.5l-122 -138.5h-91zM22.8496 413v118h429v-118l-227.35 -294h227.35c1 -1 0 -118 0 -118h-414v116.9l238.4 295.1h-253.4z" />
    <glyph glyph-name="zcaron" unicode="&#x17e;" horiz-adv-x="474" 
d="M83.0996 731.5h93.4502l62.9502 -60l58.5498 60h93.5498l-101.8 -135.5h-104zM22.8496 413v118h429v-118l-227.35 -294h227.35c1 -1 0 -118 0 -118h-414v116.9l238.4 295.1h-253.4z" />
    <glyph glyph-name="zdotaccent" unicode="&#x17c;" horiz-adv-x="474" 
d="M177.85 619v76c0 15 8 25 24 25h72c15 0 23 -11 23 -25v-76c0 -15 -9 -23 -23 -23h-72c-14 0 -24 9 -24 23zM22.8496 413v118h429v-118l-227.35 -294h227.35c1 -1 0 -118 0 -118h-414v116.9l238.4 295.1h-253.4z" />
    <glyph glyph-name="Racute" unicode="&#x154;" horiz-adv-x="607" 
d="M258.75 794.75l90.5 138.5h122.5l-122 -138.5h-91zM51.2002 0v732h320.25c114.25 0 199.25 -53.4502 199.25 -228.25c0 -181.2 -75.9004 -202.7 -116.55 -215.5l138.6 -288.25h-157.55l-121 277l-123 14v-291h-140zM191.75 401h165.95c48.75 0 72 14.2998 72 102.75
c0 83.1504 -28 103.75 -72 103.75h-165.95v-206.5z" />
    <glyph glyph-name="Abreve" unicode="&#x102;" horiz-adv-x="692" 
d="M245.625 911h58c0 -34.0498 23.5498 -56 56 -56c38 0 58 21.7002 58 56h58c0 -71.5996 -52.2002 -114 -116 -114c-62.7002 0 -114 44.2002 -114 114zM34 0l247 732h159.25l237.75 -732h-149.05l-52 162.2h-239.75l-52.7998 -162.2h-150.4zM273.55 286.25h170.25
l-82.25 261.25z" />
    <glyph glyph-name="Lacute" unicode="&#x139;" horiz-adv-x="539" 
d="M85.25 797l90.5 138.5h122.5l-122 -138.5h-91zM60.75 142.5v589.5h140v-551c0 -53 33 -52 62 -52h251v-129h-300.5c-79.75 0 -152.5 29.5 -152.5 142.5z" />
    <glyph glyph-name="Cacute" unicode="&#x106;" horiz-adv-x="571" 
d="M286.25 800l90.5 138.5h122.5l-122 -138.5h-91zM41.7998 368c0 234 49.9502 372 248.95 372c102.6 0 176.2 -9.7998 255 -33.25v-109.6c-1 0 -123.95 13.8496 -222 13.8496c-102.45 0 -141.95 -23.4502 -141.95 -245c0 -164 27.1006 -243 142.5 -243
c105 0 221.45 8.09961 221.45 8.09961v-109.6c-65.5996 -20.1504 -150.2 -29.1504 -255 -27.5c-185 1.65039 -248.95 141.95 -248.95 374z" />
    <glyph glyph-name="Ccaron" unicode="&#x10c;" horiz-adv-x="571" 
d="M184.15 935.5h93.4492l62.9502 -60l58.5498 60h93.5508l-101.801 -135.5h-104zM41.7998 368c0 234 49.9502 372 248.95 372c102.6 0 176.2 -9.7998 255 -33.25v-109.6c-1 0 -123.95 13.8496 -222 13.8496c-102.45 0 -141.95 -23.4502 -141.95 -245
c0 -164 27.1006 -243 142.5 -243c105 0 221.45 8.09961 221.45 8.09961v-109.6c-65.5996 -20.1504 -150.2 -29.1504 -255 -27.5c-185 1.65039 -248.95 141.95 -248.95 374z" />
    <glyph glyph-name="Eogonek" unicode="&#x118;" horiz-adv-x="567" 
d="M483.475 14.3232h55.5c-79.6992 -59.75 -46.8496 -112.399 8.5 -110v-76.5c-106.199 -25.8994 -206.3 114.801 -64 186.5zM58 143.9v436.1c0 127.025 89.9648 153.35 159 152c0 0 257.7 -7.2002 322.05 -16v-115.75h-289.05c-52 0 -52 -29 -52 -56v-114.2
l295.55 -10.5498v-115.1l-295.55 -9.4502v-114.2c0.450195 -53 33 -52 62 -52h279.05v-114.75c-56.6494 -7.7002 -312.05 -17 -312.05 -17c-65.2852 -2.90039 -169 11.9004 -169 146.9z" />
    <glyph glyph-name="Ecaron" unicode="&#x11a;" horiz-adv-x="567" 
d="M165.15 930.25h93.4492l62.9502 -60l58.5498 60h93.5508l-101.801 -135.5h-104zM58 143.9v436.1c0 127.025 89.9648 153.35 159 152c0 0 257.7 -7.2002 322.05 -16v-115.75h-289.05c-52 0 -52 -29 -52 -56v-114.2l295.55 -10.5498v-115.1l-295.55 -9.4502v-114.2
c0.450195 -53 33 -52 62 -52h279.05v-114.75c-56.6494 -7.7002 -312.05 -17 -312.05 -17c-65.2852 -2.90039 -169 11.9004 -169 146.9z" />
    <glyph glyph-name="Dcaron" unicode="&#x10e;" horiz-adv-x="662" 
d="M163.75 930.25h93.4502l62.9502 -60l58.5498 60h93.5498l-101.8 -135.5h-104zM60.75 0v732h311.05c210.7 0 253.95 -187.65 253.95 -369c0 -215.5 -75.25 -363 -253.95 -363h-311.05zM200.75 124.85h160.05c90.75 0 124.95 92.3008 124.95 239.15
c0 195.85 -46.9004 244.5 -124.95 244.5h-160.05v-483.65z" />
    <glyph glyph-name="Nacute" unicode="&#x143;" horiz-adv-x="678" 
d="M305.975 797l90.5 138.5h122.5l-122 -138.5h-91zM60.75 0v732h142l290.45 -473v473h140v-732h-140l-291.45 467.5v-467.5h-141z" />
    <glyph glyph-name="Ncaron" unicode="&#x147;" horiz-adv-x="678" 
d="M197.225 932.5h93.4502l62.9502 -60l58.5498 60h93.5498l-101.8 -135.5h-104zM60.75 0v732h142l290.45 -473v473h140v-732h-140l-291.45 467.5v-467.5h-141z" />
    <glyph glyph-name="Ohungarumlaut" unicode="&#x150;" horiz-adv-x="671" 
d="M220.6 797l90.5 138.5h122.5l-122 -138.5h-91zM376.5 797l90.5 138.5h122.5l-122 -138.5h-91zM49.5996 361c0 343 126.45 376 294.45 376c173 0 293.55 -33 293.55 -376c0 -323 -113.55 -365 -293.55 -365s-294.45 32 -294.45 365zM189.6 361
c0 -199.8 29.4502 -236 154.45 -236c117.5 0 153.55 38.7002 153.55 236c0 228.05 -42.2998 247 -153.55 247c-108.25 0 -154.45 -14 -154.45 -247z" />
    <glyph glyph-name="Rcaron" unicode="&#x158;" horiz-adv-x="607" 
d="M150.9 932.5h93.4492l62.9502 -60l58.5498 60h93.5508l-101.801 -135.5h-104zM51.2002 0v732h320.25c114.25 0 199.25 -53.4502 199.25 -228.25c0 -181.2 -75.9004 -202.7 -116.55 -215.5l138.6 -288.25h-157.55l-121 277l-123 14v-291h-140zM191.75 401h165.95
c48.75 0 72 14.2998 72 102.75c0 83.1504 -28 103.75 -72 103.75h-165.95v-206.5z" />
    <glyph glyph-name="Uring" unicode="&#x16e;" horiz-adv-x="664" 
d="M238.75 899c0 57 46 103 102 103s101 -46 101 -103s-45 -102 -101 -102s-102 45 -102 102zM297.3 899c0 -23.9502 19.5 -42.4502 43.4502 -42.4502s42.4502 18.5 42.4502 42.4502s-18.5 43.4502 -42.4502 43.4502s-43.4502 -19.5 -43.4502 -43.4502zM60.75 320v412h140
v-412c0 -167.35 37.0996 -196 142 -196c93.5 0 136 34.4502 136 196v412h141v-412c0 -323 -156 -325 -277 -325c-136 0 -282 -8 -282 325z" />
    <glyph glyph-name="Uhungarumlaut" unicode="&#x170;" horiz-adv-x="664" 
d="M216.8 797l90.5 138.5h122.5l-122 -138.5h-91zM372.7 797l90.5 138.5h122.5l-122 -138.5h-91zM60.75 320v412h140v-412c0 -167.35 37.0996 -196 142 -196c93.5 0 136 34.4502 136 196v412h141v-412c0 -323 -156 -325 -277 -325c-136 0 -282 -8 -282 325z" />
    <glyph glyph-name="Tcommaaccent" unicode="&#x162;" horiz-adv-x="593" 
d="M94.5996 -123.8l44.2002 15c28 12 29.7998 28.3994 29.7998 66.3994h94.5c0 -102 -25.3994 -141.5 -112 -141.5h-56.5v60.1006zM31.25 603v129h541v-129h-203.5v-603h-140v603h-197.5z" />
    <glyph glyph-name="racute" unicode="&#x155;" horiz-adv-x="417" 
d="M184.725 596.9l90.5 138.5h122.5l-122 -138.5h-91zM45.7002 0v531h118l22 -67c36.7998 35.5498 86.2998 72.4502 152.35 72.4502c22.9502 0 44.9502 -0.900391 59.1504 -6.35059v-135.149c-14.2002 1.34961 -46.6504 2.7002 -76.75 2.7002
c-58 0 -100.101 -9.4502 -134.75 -59.1006v-338.55h-140z" />
    <glyph glyph-name="abreve" unicode="&#x103;" horiz-adv-x="519" 
d="M155.25 715h58c0 -34.0498 23.5498 -56 56 -56c38 0 58 21.7002 58 56h58c0 -71.5996 -52.2002 -114 -116 -114c-62.7002 0 -114 44.2002 -114 114zM30.0996 135.35v50c0 77.25 41.75 145.65 155.551 145.65c0 0 156 -1 156 0c0 0 1 33 0 34
c0 56.5996 -26.5 65.5 -71 65.5c-46.1504 0 -179.351 -8.2998 -223 -11.4502v86.4502c69.8994 27.1504 142.949 35.0498 241.949 35.5c114.351 0.450195 192.051 -39.0498 192.051 -170.5v-370.5h-110.551l-29.4492 58.5c-5.85059 -11.5498 -80.4004 -66.1504 -161.5 -64.5
c-102.15 2.75 -150.051 72.2998 -150.051 141.35zM170.1 155.2c0 -44.1504 23.9004 -48.7002 49.6504 -48.7002c58.5498 0 121.9 41.0996 121.9 41.0996v97.3506l-128.5 -9.9502c-36.9502 -3.4502 -43.0508 -30.7998 -43.0508 -54v-25.7998z" />
    <glyph glyph-name="lacute" unicode="&#x13a;" horiz-adv-x="313" 
d="M84.375 843l90.5 138.5h122.5l-122 -138.5h-91zM45.7002 189v594h140v-572c0 -77.0996 18.5996 -93.7998 46 -104c0 0 60 -21 67 -21v-86h-115.5c-86.9004 0 -137.5 48 -137.5 189z" />
    <glyph glyph-name="cacute" unicode="&#x107;" horiz-adv-x="494" 
d="M228.873 597.006l90.5 138.5h122.5l-122 -138.5h-91zM37.9004 266c0 218.8 73 270 175 270c52 0 156.899 -3.09961 244.5 -31.5v-87s-95.5508 6 -184.551 6c-64.3994 0 -94.9492 -3.84961 -94.9492 -160.4c0 -135.949 22.9492 -155.6 94.9492 -155.6
c92 0 191.551 9.34961 191.551 9.34961v-87.8994c-77.7002 -39.5 -168.5 -32.9502 -251.5 -33.9502c-99 0 -175 51.75 -175 271z" />
    <glyph glyph-name="ccaron" unicode="&#x10d;" horiz-adv-x="494" 
d="M116.599 732.506h93.4492l62.9502 -60l58.5498 60h93.5508l-101.801 -135.5h-104zM37.9004 266c0 218.8 73 270 175 270c52 0 156.899 -3.09961 244.5 -31.5v-87s-95.5508 6 -184.551 6c-64.3994 0 -94.9492 -3.84961 -94.9492 -160.4
c0 -135.949 22.9492 -155.6 94.9492 -155.6c92 0 191.551 9.34961 191.551 9.34961v-87.8994c-77.7002 -39.5 -168.5 -32.9502 -251.5 -33.9502c-99 0 -175 51.75 -175 271z" />
    <glyph glyph-name="eogonek" unicode="&#x119;" horiz-adv-x="525" 
d="M429.4 23h55.5c-79.7002 -59.75 -46.8506 -112.4 8.5 -110v-76.5c-106.2 -25.9004 -206.301 114.8 -64 186.5zM37.9004 268c0 228.2 63.5996 267 232 267c153.6 0 225 -17.5 225 -193.5c0 -94.5996 -52 -133 -148 -133h-169c0 -95.8496 36.1992 -101.55 112 -101.55
c81 0 120 -0.450195 195 10.5498v-94.5c-74.9502 -27.9502 -189 -28 -272 -28c-135 0 -175 78.2002 -175 273zM177.9 309h132.699c29.1504 0 44.3008 14.3496 44.3008 39.6504c0 67.0498 -9.55078 79.3496 -76.8506 79.3496c-73.9502 0 -101.25 -4.2998 -100.149 -119z" />
    <glyph glyph-name="ecaron" unicode="&#x11b;" horiz-adv-x="525" 
d="M121.2 729.25h93.4502l62.9492 -60l58.5508 60h93.5498l-101.8 -135.5h-104zM37.9004 268c0 228.2 63.5996 267 232 267c153.6 0 225 -17.5 225 -193.5c0 -94.5996 -52 -133 -148 -133h-169c0 -95.8496 36.1992 -101.55 112 -101.55c81 0 120 -0.450195 195 10.5498
v-94.5c-74.9502 -27.9502 -189 -28 -272 -28c-135 0 -175 78.2002 -175 273zM177.9 309h132.699c29.1504 0 44.3008 14.3496 44.3008 39.6504c0 67.0498 -9.55078 79.3496 -76.8506 79.3496c-73.9502 0 -101.25 -4.2998 -100.149 -119z" />
    <glyph glyph-name="dcaron" unicode="&#x10f;" horiz-adv-x="607" 
d="M37.9004 263c0 169.55 26.2012 276 173.352 276c45 0 112.2 -12.3496 160.8 -34.5v280.5h139.55v-785h-115.15l-24.4004 53.5c-33.1504 -26.7002 -97.75 -59.5 -160.8 -59.5c-130.7 0 -173.351 103.55 -173.351 269zM177.901 268.5
c0 -118.45 24.4512 -154.85 69.6514 -154.85c52.5996 0 94.6992 13.5498 124.499 32.7998v262.85c-36.5498 14.1504 -76.0996 19.9502 -124.5 19.9502c-44.2002 0 -69.6504 -25.25 -69.6504 -160.75zM562.452 781.101h96.4502v-67l-10.4502 -134h-75.5498l-10 134z" />
    <glyph glyph-name="nacute" unicode="&#x144;" 
d="M232.125 600l90.5 138.5h122.5l-122 -138.5h-91zM45.7002 0v531h112.5l27.5 -56.5c45.5996 32.7998 87.5 65.5 168.5 65.5c123.6 0 158.5 -85.2998 158.5 -186.5v-353.5h-140v355.7c0 52.7998 -23.6006 71.7998 -58.6504 71.7998c-56.3496 0 -87.0996 -14.5 -128.35 -46
v-381.5h-140z" />
    <glyph glyph-name="ncaron" unicode="&#x148;" 
d="M129.9 735.5h93.4492l62.9502 -60l58.5498 60h93.5508l-101.801 -135.5h-104zM45.7002 0v531h112.5l27.5 -56.5c45.5996 32.7998 87.5 65.5 168.5 65.5c123.6 0 158.5 -85.2998 158.5 -186.5v-353.5h-140v355.7c0 52.7998 -23.6006 71.7998 -58.6504 71.7998
c-56.3496 0 -87.0996 -14.5 -128.35 -46v-381.5h-140z" />
    <glyph glyph-name="ohungarumlaut" unicode="&#x151;" horiz-adv-x="560" 
d="M156.7 596l90.5 138.5h122.5l-122 -138.5h-91zM312.6 596l90.5 138.5h122.5l-122 -138.5h-91zM37.9004 258c0 217 62.75 278 242.25 278c182.85 0 242.25 -67 242.25 -278c0 -197 -56.6504 -263 -242.25 -263c-183.4 0 -242.25 73 -242.25 263zM177.9 258
c0 -137.4 27.8496 -150.5 102.25 -150.5c78.8496 0 102.25 10.7002 102.25 150.5c0 148.75 -18.8008 165.5 -102.25 165.5c-82.8506 0 -102.25 -16.8496 -102.25 -165.5z" />
    <glyph glyph-name="rcaron" unicode="&#x159;" horiz-adv-x="417" 
d="M67.2002 731.95h93.4502l62.9492 -60l58.5508 60h93.5498l-101.8 -135.5h-104zM45.7002 0v531h118l22 -67c36.7998 35.5498 86.2998 72.4502 152.35 72.4502c22.9502 0 44.9502 -0.900391 59.1504 -6.35059v-135.149c-14.2002 1.34961 -46.6504 2.7002 -76.75 2.7002
c-58 0 -100.101 -9.4502 -134.75 -59.1006v-338.55h-140z" />
    <glyph glyph-name="uring" unicode="&#x16f;" 
d="M169.9 698c0 57 46 103 102 103s101 -46 101 -103s-45 -102 -101 -102s-102 45 -102 102zM228.45 698c0 -23.9502 19.5 -42.4502 43.4502 -42.4502c23.9492 0 42.4492 18.5 42.4492 42.4502s-18.5 43.4502 -42.4492 43.4502c-23.9502 0 -43.4502 -19.5 -43.4502 -43.4502
zM37.9004 177.5v353.5h140v-355.7c0 -52.7998 23.5996 -71.7998 58.6494 -71.7998c56.3506 0 87.1006 14.5 128.351 46v381.5h140v-531h-112.5l-27.5 56.5c-52.75 -31.7002 -87.5 -65.5 -168.5 -65.5c-123.601 0 -158.5 85.2998 -158.5 186.5z" />
    <glyph glyph-name="uhungarumlaut" unicode="&#x171;" 
d="M147.95 596l90.5 138.5h122.5l-122 -138.5h-91zM303.85 596l90.5 138.5h122.5l-122 -138.5h-91zM37.9004 177.5v353.5h140v-355.7c0 -52.7998 23.5996 -71.7998 58.6494 -71.7998c56.3506 0 87.1006 14.5 128.351 46v381.5h140v-531h-112.5l-27.5 56.5
c-52.75 -31.7002 -87.5 -65.5 -168.5 -65.5c-123.601 0 -158.5 85.2998 -158.5 186.5z" />
    <glyph glyph-name="tcommaaccent" unicode="&#x163;" horiz-adv-x="381" 
d="M56.7998 -124.7l44.2002 15c28 12 29.7998 28.4004 29.7998 66.4004h94.5c0 -102 -25.3994 -141.5 -112 -141.5h-56.5v60.0996zM15.0498 425v78l85.7998 29l23.5 148h116.5v-148h118.7v-107h-118.7v-213c0 -78.2002 18.0508 -94.9004 45.4502 -105.1c0 0 60 -21 67 -21
v-86h-122.1c-78.6504 0 -130.351 49.0996 -130.351 190.1v235h-85.7998z" />
    <glyph glyph-name="Lslash" unicode="&#x141;" horiz-adv-x="570" 
d="M14.0498 305.15v71.999l78.0498 33.25v321.6h140v-261.55l112.5 47.9004l-0.450195 -71.5498l-112.05 -48.3496v-217.45c0 -53 33 -52 62 -52h251v-129h-300.5c-79.7539 0 -152.5 29.5 -152.5 142.5v195.9z" />
    <glyph glyph-name="lslash" unicode="&#x142;" horiz-adv-x="357" 
d="M10.5498 350.3v72l75.0498 31.7998v328.9h140v-269.4l115.5 49.9004l-0.450195 -71.5498l-115.05 -49.9004v-231.05c0 -77.0996 18.5996 -93.7998 46 -104c0 0 60 -21 67 -21v-86h-115.5c-86.9004 0 -137.5 48 -137.5 189v193.55z" />
    <glyph glyph-name="Dcroat" unicode="&#x110;" horiz-adv-x="662" 
d="M-4.25 340.5v65h65v326.05c0 0.450195 284.5 0.450195 311.5 0.450195c210.7 0 253.5 -187.65 253.5 -369c0 -215.5 -74.7998 -363 -253.5 -363h-311.5v340.5h-65zM200.75 124.85h160.5c90.75 0 123.15 92.3008 123.15 239.15c0 194.05 -48.7002 242.25 -123.15 242.25
l-160.5 -0.450195v-200.3h111.5v-65h-111.5v-215.65z" />
    <glyph glyph-name="dcroat" unicode="&#x111;" horiz-adv-x="563" 
d="M34.5996 263c0 169.55 26.2012 276 173.352 276c45 0 112.2 -12.3496 160.8 -34.5v100.5h-106.6v65h106.6v115h139.55v-115h65.4004v-65h-65.4004v-605h-115.15l-24.4004 53.5c-33.1504 -26.7002 -97.75 -59.5 -160.8 -59.5c-130.7 0 -173.351 103.55 -173.351 269z
M174.601 268.5c0 -118.45 24.4512 -154.85 69.6514 -154.85c52.5996 0 94.6992 13.5498 124.499 32.7998v262.85c-36.5498 14.1504 -76.0996 19.9502 -124.5 19.9502c-44.2002 0 -69.6504 -25.25 -69.6504 -160.75z" />
    <glyph glyph-name="questiondown.alt" horiz-adv-x="542" 
d="M30.0996 188.9l-0.000976562 73.5c0 135 75 197.25 227.05 184.5c0 1.34961 0.900391 87.2998 0 90h112.95v-195c-26.0996 0.450195 -88.3994 0.900391 -114.499 0c-49 -2 -85.9502 -22.4004 -85.9502 -81.7002v-53.7002c0 -59.2998 33.9502 -84.0498 108.95 -84.0498
l249.55 0.450195v-104.5c-93.2002 -18.5 -167 -30.5 -282 -25.5c-152 0 -216.05 98 -216.05 196zM247.799 618.9l0.000976562 90c0 16.6504 9.5498 23 23.5498 23h87.4502c14 0 24 -9 24 -23v-90c0 -15 -8 -25 -24 -25h-87.4502c-16.6504 0 -23.5508 9.90039 -23.5508 25z
" />
    <glyph glyph-name="at.alt" horiz-adv-x="869" 
d="M49.5996 418.3c0 85.5 35.4492 197.001 206.949 197.001h191.9c84.75 0 175 -20.0996 175 -156.5v-355.5h-90.0996l-19.5 58.5c-2 0 -63.9004 -67.5 -154.9 -67.5c-85 -0.900391 -128.45 65.5 -128 133.5v42c0 89.9004 53.1504 138.5 145.5 138.5
c50.9502 0 135.4 -1 135.4 0c0 0 1 42.4502 0 43c0 43.3496 -20.6504 51.5 -62 51.5h-193.3c-48 0 -94 -10 -94 -90v-287.5c0 -90 54 -108.5 94 -108.5h332.5c82 0 103 40.5 103 108.5v457c0 77 -42 116.75 -103 116.75h-404v85.5c48 10 178.5 28 304.5 27l99.5 -0.450195
c110.95 -0.900391 215.5 -60.3506 215.5 -228.801v-457c0 -147.5 -67.0498 -222 -210 -222h-338c-113 0 -206.5 59.25 -206.5 211zM348.948 245.351c0 -21 17 -39 46.7002 -38.5498c42.5 -0.450195 86.5498 15.7002 116.2 43v79l-119.4 -10.5
c-29.5498 -2.90039 -43.9502 -17.1504 -43.5 -46.1006c-0.549805 -1 -0.549805 -25.8496 0 -26.8496z" />
    <glyph glyph-name="oe" unicode="&#x153;" horiz-adv-x="868" 
d="M37.9004 258c0 217 62.75 277.998 242.25 277.998c76.6504 0 130.5 -12.8496 166.6 -45.1494c35 35.9004 89.0996 44.1504 166.75 44.1504c153.6 0 225 -17.5 225 -193.5c0 -94.5996 -52 -133 -148 -133h-168.55c-1.7998 -90.4502 34.8506 -101.55 111.551 -101.55
c81 0 120 -0.450195 195 10.5498v-94.5c-74.9502 -27.9502 -189 -28 -272 -28c-52.2998 0 -88.5 12.4004 -113.4 40.7002c-35.5498 -28.8496 -88.2998 -40.6992 -162.95 -40.6992c-183.4 0 -242.25 73 -242.25 263zM177.9 257.998c0 -137.4 27.8496 -150.5 102.25 -150.5
c94 0 101.35 26.4502 101.35 160.5c0 130.65 -15.75 155.5 -101.35 155.5c-82.8496 0 -102.25 -16.8496 -102.25 -165.5zM521.95 308.998l132.249 0.000976562c29.1504 0 44.3008 14.3496 44.3008 39.6494c0 67.0498 -9.5498 79.3496 -76.8496 79.3496
c-74.4004 0 -103.5 -8.7998 -99.7002 -119z" />
    <glyph glyph-name="OE" unicode="&#x152;" horiz-adv-x="1008" 
d="M189.6 361c0 -199.8 29 -236 154 -236c117.5 0 153.45 38.7002 153.45 236c0 228.05 -42.2002 247 -153.45 247c-108.25 0 -154 -14 -154 -247zM49.5996 361c0 343 126 376.001 294 376.001c78.5996 0 145.25 -7.25 194.25 -49.7998
c27.25 34.9502 72.1504 47.25 118.2 44.7998c0 0 247.15 -7.2002 311.5 -16v-115.75h-278.5c-52 0 -52 -29 -52 -56v-114.2l285 -10.5498v-115.1l-285 -9.4502v-114.2c0.450195 -53 33 -52 62 -52h268.5v-114.75c-56.6504 -7.7002 -301.5 -17 -301.5 -17
c-43.6504 -2.4502 -99.75 2.59961 -132.4 45.3496c-47.4502 -38.2002 -111.55 -46.3506 -190.05 -46.3506c-180 0 -294 32 -294 365z" />
    <glyph glyph-name="Ydieresis" unicode="&#x178;" horiz-adv-x="656" 
d="M149.75 856.25c0 32.4004 26.8496 58.25 59.25 58.25s58.25 -25.8496 58.25 -58.25s-25.8496 -59.25 -58.25 -59.25s-59.25 26.8496 -59.25 59.25zM404.75 856.25c0 32.4004 26.8496 58.25 59.25 58.25s58.25 -25.8496 58.25 -58.25s-25.8496 -59.25 -58.25 -59.25
s-59.25 26.8496 -59.25 59.25zM34 732h152.5l142.8 -351l156.2 351h152.5l-240.9 -505v-227h-140v227z" />
    <glyph glyph-name="g.salt" horiz-adv-x="555" 
d="M37.9004 276.8c0 179.55 69.4502 263.5 194.45 263.5c106 0 226.65 -16.25 277.5 -30.1504v-570.15c0 -136.1 -81.8496 -225.05 -208.5 -212l-241.5 24v93h225c53 0 85 31 85 95v97.25c-40.9004 -27.0996 -92.5 -38.4492 -137.5 -38.4492
c-153 0 -194.45 101.3 -194.45 278zM177.9 280.649c0 -100.75 0.950195 -171.551 80.8506 -171.551c44.2998 0 67.1494 4 111.1 21.7002v302.5h-110c-80.0498 0 -81.9502 -91.2998 -81.9502 -152.649z" />
    <glyph glyph-name="guilsinglleft" unicode="&#x2039;" horiz-adv-x="356" 
d="M37.9004 354l206 203l76.75 -75.6504l-130.25 -127.35l133.05 -130.7l-74.5498 -77.2998z" />
    <glyph glyph-name="guilsinglright" unicode="&#x203a;" horiz-adv-x="356" 
d="M37.9004 223.3l133.05 130.7l-130.25 127.35l76.75 75.6504l206 -203l-211 -208z" />
    <glyph glyph-name="perthousand" unicode="&#x2030;" horiz-adv-x="1379" 
d="M32.0996 479.5v122c0 85 33.5 130.5 134.5 130.5h101c98 0 132.5 -45.5 132.5 -130.5v-122c0 -85 -33.5 -130.5 -134.5 -130.5h-101c-98 0 -132.5 45.5 -132.5 130.5zM130.1 496c0 -34.1504 8.9502 -49 48.25 -49h73.5c44.7998 0 50.25 16.6504 50.25 49v89
c0 40.2002 -13.3496 49 -48.25 49h-73.5c-38.2002 0 -50.25 -10.0498 -50.25 -49v-89zM207.75 0l446.8 732h100.15l-442.95 -732h-104zM562.6 133.05v122c0 85 32.9502 130.5 133.95 130.5h101.55c98 0 132.5 -45.5 132.5 -130.5v-122c0 -85 -33.5 -130.5 -134.5 -130.5
h-101.55c-98 0 -131.95 45.5 -131.95 130.5zM660.6 149.55c0 -34.1504 8.95117 -49 48.251 -49h72.9502c44.7998 0 50.7998 16.6504 50.7998 49v89c0 40.2002 -13.9004 49 -48.8008 49h-72.9502c-38.2002 0 -50.25 -10.0498 -50.25 -49v-89zM979.801 133.05v122
c0 85 33.5 130.5 134.5 130.5h101c98 0 132.5 -45.5 132.5 -130.5v-122c0 -85 -33.5 -130.5 -134.5 -130.5h-101c-98 0 -132.5 45.5 -132.5 130.5zM1077.8 149.55c0 -34.1504 8.9502 -49 48.25 -49h73.5c44.7998 0 50.25 16.6504 50.25 49v89
c0 40.2002 -13.3496 49 -48.25 49h-73.5c-38.2002 0 -50.25 -10.0498 -50.25 -49v-89z" />
    <glyph glyph-name="dagger" unicode="&#x2020;" horiz-adv-x="440" 
d="M15.0498 453.25v108.5l133 12.75l10.75 195.5h123.5l10.75 -195.5l132 -12.75v-108.5l-132 -12.75l-11.75 -512.5h-123.5l-9.75 512.5z" />
    <glyph glyph-name="daggerdbl" unicode="&#x2021;" horiz-adv-x="455" 
d="M15.0498 146.5v108.5l135.1 14.9502l-2.09961 170.55l-133 12.75v108.5l133 12.75l11.2002 195.5h123.05l10.75 -195.5l132 -12.75v-108.5l-132 -12.75l-3 -171.1l135 -14.4004v-108.5l-139.2 -13.8496l-4.5498 -204.65h-123.5l-4 203.55z" />
    <glyph glyph-name="trademark" unicode="&#x2122;" horiz-adv-x="705" 
d="M15.0498 651.5v80.5h281v-80.5h-94.25v-268.5h-91.5v268.5h-95.25zM313.05 383l38 349h94.9004l60 -205.1l48.0996 205.1h98l42 -349h-91.5l-18.6504 184.4l-37.2998 -184.4h-80.5l-46.5498 183.75l-15 -183.75h-91.5z" />
    <glyph glyph-name="notequal" unicode="&#x2260;" horiz-adv-x="457" 
d="M15.0498 184.5v120.25h150.3l54.5498 92h-204.85v120.25h274.85l38.8496 65.6504h72l-38.8496 -65.6504h80.1504v-120.25h-150.15l-54.5498 -92h204.7v-120.25h-274.15l-44.8496 -76.6504h-72l44.8496 76.6504h-80.8496z" />
    <glyph glyph-name="infinity" unicode="&#x221e;" horiz-adv-x="761" 
d="M37.9004 341c0 87 28 172.999 166 172.999c76 0 131.85 -36 174.8 -95.0996c38 62.4004 103.2 95.1006 179.2 95.1006c138 0 166 -86 166 -173c0 -92 -39 -172 -166 -172c-69.2998 0 -129.05 19 -180.75 95.9004c-46.2002 -76.9004 -99.25 -95.9004 -173.25 -95.9004
c-127 0 -166 80 -166 172zM144.351 340.999c0 -40.1504 11.1494 -71.0488 66.6992 -71.0488c49.75 0 81.75 35.7998 105.4 71.0498c-23.2002 36.25 -65.25 72.0498 -105.4 72.0498c-63.3496 0 -66.6992 -31.9004 -66.6992 -72.0508zM443.149 340.451
c23.6504 -35.25 56.751 -70.502 106.501 -70.502c52.6504 0 67.8008 30.9004 67.8008 71.0508s-5.90039 72.0508 -67.8008 72.0508c-45.6504 0 -83.3008 -36.3496 -106.501 -72.5996z" />
    <glyph glyph-name="lessequal" unicode="&#x2264;" horiz-adv-x="450" 
d="M37.9004 81.4502v107h374.9v-107h-374.9zM37.9004 367.601v129.5l375 133.4v-129.5l-225.95 -67.5498l225.95 -77.5498v-130.4z" />
    <glyph glyph-name="greaterequal" unicode="&#x2265;" horiz-adv-x="450" 
d="M37.9004 81.4502v107h375.45v-107h-375.45zM38.3506 225.5v130.4l225.95 77.5498l-225.95 67.5498v129.5l375 -133.4v-129.5z" />
    <glyph glyph-name="circumflex" unicode="&#x2c6;" horiz-adv-x="384" 
d="M37.9004 531l107.65 135.5h104l96.8496 -135.5h-93l-58.9004 60l-62.5996 -60h-94zM249.551 666.5z" />
    <glyph glyph-name="tilde" unicode="&#x2dc;" horiz-adv-x="419" 
d="M37.9004 586.3c31.75 34.6504 71.501 69.5 120.751 69.5c46.7002 -1.34961 71.8506 -34.5498 106.45 -35c32.7998 -1.5498 65.5996 17.9004 92.0996 38.2002l24.2002 -59.5996c-26.9502 -29.4004 -66.4004 -68.8506 -113.351 -67.9502
c-48.8496 1.34961 -74.2998 35 -111.95 34.5498c-41.25 -0.450195 -60.2002 -15.5 -93.9004 -35z" />
    <glyph glyph-name="ring" unicode="&#x2da;" horiz-adv-x="278" 
d="M37.9004 632c0 57 46 103 102 103s101 -46 101 -103s-45 -102 -101 -102s-102 45 -102 102zM96.4502 632c0 -23.9502 19.5 -42.4502 43.4502 -42.4502s42.4502 18.5 42.4502 42.4502s-18.5 43.4502 -42.4502 43.4502s-43.4502 -19.5 -43.4502 -43.4502z" />
    <glyph glyph-name="ellipsis" unicode="&#x2026;" horiz-adv-x="807" 
d="M296.25 23v90c0 15 8 25 24 25h86c18 0 25 -9 25 -25v-90c0 -18 -11 -23 -25 -23h-86c-14 0 -24 9 -24 23zM323.45 23v90c0 15 8 25 24 25h86c18 0 25 -9 25 -25v-90c0 -18 -11 -23 -25 -23h-86c-14 0 -24 9 -24 23zM350.65 23v90c0 15 8 25 24 25h86c18 0 25 -9 25 -25
v-90c0 -18 -11 -23 -25 -23h-86c-14 0 -24 9 -24 23z" />
    <glyph glyph-name="fraction" unicode="&#x2044;" horiz-adv-x="322" 
d="M-68.5498 0l357.9 752.9h101.3l-357.9 -752.9h-101.3z" />
    <glyph glyph-name="dotlessi" unicode="&#x131;" horiz-adv-x="230" 
d="M45.7002 0v531h140v-531h-140z" />
    <glyph glyph-name="ampersand.salt" horiz-adv-x="979" 
d="M33.5498 319.55v85.7002c0 165.05 85.25 196.6 249.5 197.699h430l18 124.35h122v-126.35h111v-94.3496l-111 -19.4502v-268.8c0 -176.5 -130 -219.45 -260.5 -219.45h-164c-107.7 0.549805 -204.5 38.7002 -204.5 163.351c-98.5 0 -190.5 32.5996 -190.5 157.3z
M173.55 324.5c0 -39.0498 19.499 -53.4004 50.499 -53.4004c0 122.2 70.75 164.9 190 164.9h74c90.7002 0 175.5 -23.5996 175.5 -146.85c0 -116.35 -73.8496 -123.5 -177.149 -123.5h-122.35c0.450195 -45.2998 28.5498 -49.0498 67.25 -50.3994h161.25
c83 0 120.5 36.4004 120.5 104.75v266.6h-424.5c-97 0 -115 -15.2002 -115 -81.3506v-80.75zM364.049 269.999l121.25 -0.000976562c28.2002 0 38.25 1.2998 38.25 31.25c0 25.7002 -7.65039 29.9502 -38.25 29.9502h-65.75c-35.3496 0 -55.5 -1.34961 -55.5 -61.1992z" />
    <glyph glyph-name="a.superior" horiz-adv-x="373" 
d="M23.2998 466.3l-0.00195312 34.998c0 50.7002 30.2998 94.9502 111 94.9502c0 0 100.95 -0.549805 100.95 0.450195c0 0 1 15.1504 0 16.1504c0 35.9004 -18.5996 40.6504 -51.0996 40.6504c-46.8496 0 -115.1 -5.84961 -148.85 -8.09961v66.2002
c52.4004 20.9502 94.4004 25.5 164.551 26.8496c85.6504 0.450195 143.601 -26.1494 143.601 -113.449v-247h-81.7998l-25.9502 44.5996c-4.2002 -8.7998 -51.75 -49.7002 -105.25 -48.6006c-71.25 1.65039 -107.15 46.4004 -107.15 92.3008zM124.897 484.798
c0 -25.5996 15.7998 -30.1006 34.6494 -30.1006c43.5 0 75.7002 26.75 75.7002 26.75v58.5l-80.0996 -7.5c-25.9502 -2.4502 -30.25 -18.7998 -30.25 -33.2998v-14.3496z" />
    <glyph glyph-name="b.superior" horiz-adv-x="402" 
d="M28.6504 378l-0.000976562 523.45h108.2v-184.75c35.9004 16.7002 77.8506 26.1504 110.751 26.1504c108.5 0 127.6 -74.75 127.6 -186.65c0 -109.5 -31.7998 -182.2 -127.6 -182.2c-46.0498 0 -85.7998 24.5498 -110.2 44.5996l-22 -40.5996h-86.75zM137.399 487
c22.2998 -11.7998 41.3506 -20.2012 79.4502 -20.2012c32.5 0 50.1504 20.1504 50.1504 93.25c0 84.2002 -18.6504 97.1504 -51.25 97.1504c-34.9004 0 -51.1006 -4.34961 -78.3506 -13.6992v-156.5z" />
    <glyph glyph-name="c.superior" horiz-adv-x="353" 
d="M23.2998 555c0 145.65 52.3477 180.902 126.598 180.902c37.9004 0 109.551 -2.75 173.001 -24.2998v-67.4502s-61.5996 4.4502 -124.199 4.4502c-45 0 -67.2002 1.84961 -67.2002 -95.0508c0 -76.6504 16.5 -92.1504 67.2002 -92.1504
c64.5996 0 129.199 5.34961 129.199 5.34961v-66.7998c-56.5996 -29.6504 -118.199 -24.8506 -177.999 -25.8506c-71.7998 0 -126.6 34.7998 -126.6 180.899z" />
    <glyph glyph-name="d.superior" horiz-adv-x="400" 
d="M23.2998 556.65c0 114.65 18.6484 186.649 127.148 186.649c32.9004 0 75.3008 -9.4502 111.201 -26.1504v185.2h107.3v-524.35h-86.75l-21.5498 40.5996c-24.4004 -20.0498 -64.1504 -44.5996 -110.2 -44.5996c-95.7998 0 -127.149 70.4004 -127.149 182.65z
M131.498 560.499c0 -73.0996 17.6504 -93.7002 50.1504 -93.7002c38.0996 0 56.6992 8.40039 78.999 20.2002v156.95c-27.25 9.7998 -43.5498 13.7002 -79 13.7002c-32.0498 0 -50.1494 -12.9502 -50.1494 -97.1504z" />
    <glyph glyph-name="e.superior" horiz-adv-x="389" 
d="M23.2998 556.45c0 127.2 32.749 178.45 167.399 178.45c110.65 0 172.25 -12.2998 172.25 -131.75c0 -65 -41.2998 -91.0498 -109.95 -91.0498h-121.5c0 -44.5996 9.5 -51.25 66.6504 -51.25c59.6504 0 101.9 -0.900391 156.801 4.89941v-69.75
c-56.0498 -20.8496 -139.85 -21.8994 -201.3 -21.8994c-95.4004 0 -130.351 49.5498 -130.351 182.35zM131.499 590.601l91.6504 -0.000976562c20.9004 0 31.6006 7.7998 31.6006 21.2002c0 32.2002 -9.90039 39.6504 -58.5508 39.6504
c-47.7998 0 -65.7998 -9.75 -64.7002 -60.8496z" />
    <glyph glyph-name="f.superior" horiz-adv-x="313" 
d="M19.9502 650.55l0.000976562 70.4502l60.1504 4.9502v68.2002c0 63.5 28.5498 108.3 116.35 108.3c35.9004 0 65.8008 -4.7998 97.8506 -17.5498v-65.5498c-1 0 -66.9004 1.4502 -66.9004 1.4502c-38.6504 1 -39.1006 -16.4004 -39.1006 -49.0508v-37.75h82.7998
v-83.4502h-83.7002v-272.55h-108.2v272.55h-59.25z" />
    <glyph glyph-name="g.superior" horiz-adv-x="418" 
d="M27.1504 293.75l-0.000976562 46.4014l39.6504 31.3496c-30 12.3496 -42.5996 34.2998 -42.5996 68.7998c0 22 11 58.6504 46 62.6504c-36 19 -43.9004 67.3496 -43.9004 103.35c0 92.5996 55.7002 129 128.7 129h240.35v-60l-40 -19.25
c9.75 -11.8496 13.2998 -43.75 13.2998 -69c0 -54.6504 -28.2998 -118.75 -125.3 -118.75h-93.2002c-11 0 -28.2998 0.299805 -28.2998 -16.6006c0 -18 13.8496 -17.7002 28.8496 -19.1504l121.15 -12.0498c74.4004 -7 107.351 -40.9502 107.351 -114.2v-8
c0 -40.4502 -9.25 -109 -115.85 -109h-113.45c-66.75 0 -122.75 29.0498 -122.75 104.45zM134.899 314.852c0 -32.2002 14.5 -38.7002 41.5 -38.7002h60.4502c24.0498 0 35.0498 6.65039 35.0498 32.6006v5c0 23.2002 -13.5498 29.7998 -41.8496 33.1494l-68.9004 7.84961
l-26.25 2.4502v-42.3496zM134.949 605.752c-0.450195 -33 10.6494 -54.4492 46.5498 -54.4492h37.5c38.9502 0 42.6504 29 42.6504 55c0 32.5996 -17.9004 47 -43.2002 47h-36.7998c-31.7998 0 -46.25 -14.1504 -46.7002 -47.5508z" />
    <glyph glyph-name="h.superior" horiz-adv-x="404" 
d="M28.6504 378l-0.000976562 521.9h107.65v-208.3c31.7002 22.7002 62.4004 49.6006 122.301 49.6006c91 0 116.4 -57.2002 116.4 -125.55v-237.65h-108.2v228.3c0 34.2002 -17.7998 47.0498 -42.25 47.0498c-37.5 0 -57.2002 -8.7002 -87.7002 -28.8506v-246.5h-108.2z
" />
    <glyph glyph-name="i.superior" horiz-adv-x="168" 
d="M25.75 780.6v67.75c0 11 6 19 18 19h80.1504c11 0 17 -8 17 -19v-67.75c0 -11 -6 -17 -17 -17h-80.1504c-11 0 -18 6 -18 17zM28.5498 378v356h108.2v-356h-108.2z" />
    <glyph glyph-name="j.superior" horiz-adv-x="169" 
d="M26.75 783.5v67.75c0 11 6 19 18 19h80.1504c11 0 17 -8 17 -19v-67.75c0 -11 -6 -17.4502 -17 -17.4502h-80.1504c-11 0 -18 6.4502 -18 17.4502zM29.6504 195.45v537h109.1v-358c1 -58 -1.34961 -122.5 -27.25 -179h-81.8496z" />
    <glyph glyph-name="k.superior" horiz-adv-x="409" 
d="M28.6504 378v521h108.2v-286.85h18.8496l105.75 117.85h127.5l-144.8 -154.55l143.9 -197.45h-120.05l-109.15 158.95h-22v-158.95h-108.2z" />
    <glyph glyph-name="l.superior" horiz-adv-x="235" 
d="M28.2002 504v396.001h108.2v-373.15c0 -50.4004 8.5498 -60.3008 31.2002 -68.3008c0 0 41.9502 -14 46.9502 -14v-66.5498h-85.1504c-69.9004 0 -101.2 32 -101.2 126z" />
    <glyph glyph-name="m.superior" horiz-adv-x="644" 
d="M28.6504 378l-0.000976562 353.449h85.9004l19.5498 -43.5c33.9004 24.9004 61.4004 49.1504 120.051 49.1504c50.6504 0 86.4004 -19.7998 102.301 -51.8496c34.0498 27.5996 80.7002 51.8496 141.65 51.8496c84.7002 0 117.3 -52.5996 117.3 -124.449v-234.65h-108.2
v225.3c0 31.9502 -17.3496 46.5 -41.7998 46.5c-37.2998 0 -62.5996 -6.7998 -90.0498 -26.6494v-19.5996v-225.55h-108.2v225.3c0 31.9502 -18.25 46.5 -42.7002 46.5c-37.9502 0 -57.6504 -8.7002 -88.1504 -28.8506v-242.95h-107.65z" />
    <glyph glyph-name="n.superior" horiz-adv-x="404" 
d="M28.6504 378l-0.000976562 353.451h84.6504l20.9004 -42.1504c34.4502 24.9004 62.8506 49.1504 123.301 49.1504c92.0996 0 117.5 -56.6504 117.5 -124.45v-236h-108.2v227.1c0 34.2002 -17.3496 46.5 -41.7998 46.5c-37.9502 0 -57.6504 -9.15039 -88.1504 -29.3008
v-244.3h-108.2z" />
    <glyph glyph-name="o.superior" horiz-adv-x="400" 
d="M23.2998 550c0 132.75 42.9502 185 175.25 185c131.5 0 174 -54 174 -185c0 -121.55 -40.2998 -175 -174 -175c-132.95 0 -175.25 55.2998 -175.25 175zM131.5 550.55c0 -78.4502 18.8506 -88.25 67.0508 -88.25c47.9502 0 65.7998 6.7998 65.7998 88.25
c0 83.4502 -13.5 97.1504 -66.7002 97.1504c-52.6504 0 -66.1504 -17.1504 -66.1504 -97.1504z" />
    <glyph glyph-name="p.superior" horiz-adv-x="401" 
d="M28.6504 192.35l-0.000976562 543.852h86.75l20.6504 -40.7002c23.5 20.0498 67.75 45.1494 112.45 45.1494c92.6504 0 125.351 -75.25 125.351 -184.65c0 -105.2 -20.4502 -188.65 -125.351 -188.65c-32 0 -78.4502 9.4502 -113 26.1504v-201.15h-106.85z
M136.05 465.602c25 -9.25 47.5 -13.7002 80.1504 -13.7002c30.7998 0 49.4502 14.5996 49.4502 100.25c0 74.6504 -17.6504 95.1504 -48.3506 95.1504c-35.8496 0 -60.75 -9.40039 -81.25 -21.75v-159.95z" />
    <glyph glyph-name="q.superior" horiz-adv-x="401" 
d="M23.2998 556c0 127.2 51.5996 184.1 144.5 184.1c78.9004 0 164.65 -11.7998 201.851 -22.5v-525.25h-108.2v203c-30.4004 -21.0996 -61.3008 -30 -94.751 -30c-112.8 0 -143.399 76.2002 -143.399 190.65zM131.5 558.199c0 -60.4502 0.750977 -106.65 58.7012 -106.65
c32.3496 0 38.9492 2.4502 71.249 13.7002v190.85h-70.7002c-57.4502 0 -59.25 -59.0996 -59.25 -97.8994z" />
    <glyph glyph-name="r.superior" horiz-adv-x="312" 
d="M28.6504 378l-0.000976562 353.449h91.75l13.7002 -50.4502c27.2998 26.5498 61 54.4502 107.9 54.4502c17.0498 0 33.25 -0.900391 43.3496 -4.90039v-104c-10.0996 0.900391 -32.3496 1.80078 -53.7998 1.80078c-40.5 0 -68.5996 -5.84961 -94.6992 -36.4492v-213.9
h-108.2z" />
    <glyph glyph-name="s.superior" horiz-adv-x="367" 
d="M23.2998 612.7v31.7002c0 54.25 24.4502 93.75 95.5498 93.75c61.8496 0 158.899 -7.34961 202.6 -21.25v-68.7998h-168.95c-24.2998 0 -27.5996 -7.2002 -27.5996 -22.1504v-13c0 -20.25 12.4004 -20.7002 28.0508 -20.7002h92.7002
c68.3496 0 95.1494 -38.3496 95.1494 -86.3994v-38.6504c0 -75.0996 -45.5498 -95.7998 -89.5498 -95.7998c-50.5 0 -188.25 5.84961 -210.95 22.5996v67.9004h174.1c7.15039 0 25.3506 -2.65039 25.3506 20.8994v12.9004c0 14.2998 -5.25 21.3496 -25.3496 21.3496h-88.75
c-64.6504 0 -102.351 27.9502 -102.351 95.6504z" />
    <glyph glyph-name="t.superior" horiz-adv-x="297" 
d="M20.4004 651.1l-0.000976562 61.2002l60.7998 15.8496l18.75 103.2h89.4502v-96.7998h82.8496v-83.4502h-82.8496v-127.9c0 -52 7.65039 -57.75 31.2002 -64.75c0 0 40.0498 -12.5498 43.25 -12.5498v-67.4502h-85.9502c-63.8496 0 -96.6992 32.5498 -96.6992 123.45
v149.2h-60.7998z" />
    <glyph glyph-name="u.superior" horiz-adv-x="401" 
d="M27.2002 498.15l-0.000976562 233.303h108.2v-227.1c0 -32.4004 17.7998 -46.0508 41.7998 -46.0508c36.5996 0 54.0498 7.7998 84.5498 27.3994v245.75h108.2v-353.45h-85.0996l-23.0996 44.3496c-35 -30.9502 -57.7998 -51.3506 -117.7 -51.3506
c-91 0 -116.85 59.3496 -116.85 127.149z" />
    <glyph glyph-name="v.superior" horiz-adv-x="412" 
d="M18.9502 731.45h106.85l80.1504 -232.95l80 232.95h106.4l-135 -353.45h-104.9z" />
    <glyph glyph-name="w.superior" horiz-adv-x="602" 
d="M18.9502 731.45h106.851l80.1504 -232.95l72.8496 232.95h100.35l-32.6504 -97.5498l52.5498 -135.4l75.5996 232.95h106.95l-131.7 -353.45h-101.05l-50 123l-45.3496 -123h-101.05z" />
    <glyph glyph-name="x.superior" horiz-adv-x="413" 
d="M19.9502 378l127.8 179l-127.8 174.45h118.45l67.9004 -100.8l65.75 100.8h119.9l-127.2 -175.55l125.25 -177.9h-116.15l-67.0996 106.25l-67.9004 -106.25h-118.9z" />
    <glyph glyph-name="y.superior" horiz-adv-x="435" 
d="M18.9502 732.45h104.301l70.7002 -244c5.34961 -18.75 16.1992 -27.3496 31.249 -27.8994l80.8496 271.9h109.25l-135.7 -469l-56.25 -68h-77.5498l55.4004 180c-56.75 1.34961 -86.7998 41.3994 -99.3496 87.4492z" />
    <glyph glyph-name="z.superior" horiz-adv-x="365" 
d="M23.2998 644.15l0.000976562 87.2988h313.85v-84.5996l-161.75 -180.55h161.3c1 -1 0 -87.2998 0 -87.2998h-302.95v86.75l168.55 178.4h-179z" />
    <glyph glyph-name="zero.tnum" horiz-adv-x="613" 
d="M44.25 178.5v369.5c0 120.1 72.5996 184 184.1 184h164c134.65 0 177.9 -82.5996 177.9 -178.5v-375c0 -119 -67.3496 -178.5 -177.899 -178.5h-164c-112.45 0 -184.101 58.5 -184.101 178.5zM184.25 201.05c0 -60.9502 42.2988 -72.0498 75.999 -72.0498h96.9004
c46.9502 0 73.1006 17.5 73.1006 71.5v331c0 46 -20.5498 71.5 -68.7002 71.5h-105.7c-60.0996 0 -71.5996 -42.75 -71.5996 -71.5v-330.45z" />
    <glyph glyph-name="one.tnum" horiz-adv-x="613" 
d="M111.3 556.35v91.5l147.9 84.1504h139.35v-614h143.75v-118h-432v118h147.8v475z" />
    <glyph glyph-name="two.tnum" horiz-adv-x="613" 
d="M42.7998 612l0.000976562 104.499c91 15.75 174.85 25.5 304 25.5c151.05 0 216.75 -103.6 216.75 -226.5c0 -164.1 -209.65 -333.649 -276.15 -386.499h276.15v-129h-514.3v123c93.5996 63 373.85 275.8 373.85 391.75c0 66.4004 -35.9004 97.25 -121.851 97.25h-258.45
z" />
    <glyph glyph-name="three.tnum" horiz-adv-x="613" 
d="M50.0498 605v101c88 31 206.5 30 323.5 28c110 -2 180.45 -69.1504 180.45 -176v-52.5c0 -73 -24.3496 -122.2 -75.8994 -141.5c53.0996 -22.7002 75.8994 -73.5 75.8994 -149.5v-42.5c0 -115.6 -65.9004 -179 -187.9 -179c-114 0 -222.05 -3 -310.05 28l0.549805 102
h254c66.75 0 102.5 4.59961 102.5 68.25v31.5c0 60.4004 -37 73.2002 -96.5 75.75l-198.55 7v113l198.55 10c69 3 98.5 18.75 98.5 71.5v36c0 57.2998 -46.5 69 -98.5 69h-266.55z" />
    <glyph glyph-name="four.tnum" horiz-adv-x="613" 
d="M21.4004 224l260.95 508h154l-218.65 -439.5h181.15v166.85l31.0498 76.6504h108.95v-243.5h73.5v-108.5l-73.5 -24.5v-157.5h-140v157.5h-343.45z" />
    <glyph glyph-name="five.tnum" horiz-adv-x="613" 
d="M67.8496 20l0.00195312 110h282c65.1504 0 72.9502 40.2002 72.9502 71v66.5498c0 33 -5.9502 71.4502 -66.9004 71.4502h-93.5c-35.1504 0 -61.1006 -17.1504 -61.1006 -58.5h-132l22 451.5h444.55v-129h-310l-7.59961 -165
c20.5996 16.4502 46.5996 21.7002 68.1494 24.0498c38.5996 4.25 89.0996 1 110.199 0.450195c116.9 -5.5 166.2 -80.5498 166.2 -182.5v-103c0 -137 -103.65 -181 -185.45 -181c-124 0 -175.5 1 -309.5 24z" />
    <glyph glyph-name="six.tnum" horiz-adv-x="613" 
d="M46.1504 384c0 265 85.7012 343.55 172.001 351.25c100.45 8.7998 222.8 -3.25 318.5 -20.0996v-106.15h-250.5c-91 0 -99.0996 -107.55 -100 -185.5c58.5996 14.9502 123 21 202.5 21c141.5 0 172 -75.9502 172 -171v-109c0 -121.9 -71.4004 -165.5 -177.5 -165.5
h-142.95c-116.15 0.450195 -194.051 70 -194.051 385zM186.151 321c0 -100.6 10.0498 -193 95.2998 -193h76.4004c41.0996 0 63.25 9.4502 63.25 61.75v67.25c0 51.0996 -19.4502 64 -60.5 64h-174.45z" />
    <glyph glyph-name="seven.tnum" horiz-adv-x="613" 
d="M51.0498 603l0.000976562 129h471.1l38 -64.5l-245.2 -667.5h-152.9l225 603h-336z" />
    <glyph glyph-name="eight.tnum" horiz-adv-x="613" 
d="M51.5 167.75v73.252c0 60.7998 30.1504 101.7 78.9502 112.5c-69.5 30.25 -78.9502 88.0996 -78.9502 145.5v65c0 137.3 84 173 187 173h151.5c113.05 0 173 -47.7998 173 -173.55v-53.4502c0.450195 -24.75 -6.84961 -104.3 -75 -116
c62.25 -11.6504 75.4502 -94.0508 75 -137.051v-85.9004c0 -148.15 -91.8496 -171.051 -174 -171.051h-150.5c-181.9 -0 -187 114.1 -187 167.75zM191.5 183.452c0 -41.2998 19.6514 -59.9502 71.751 -59.9502h93.8496c43.5498 0 65.8994 20.7002 65.8994 59.9502v69.25
c0 39.9502 -22.2002 62.2998 -63.4502 62.2998h-101.25c-43.7998 0 -66.7998 -19.5498 -66.7998 -62.2998v-69.25zM191.501 494.002c0 -51.5996 32.7998 -62.001 66.7998 -62.001h100.15c57.0498 0 64.5498 29.2998 64.5498 62v47.0996
c0 59.7002 -25.7002 72.4004 -65.4502 72.4004h-94.2998c-45.2998 0 -71.75 -6.59961 -71.75 -72.3994v-47.0996z" />
    <glyph glyph-name="nine.tnum" horiz-adv-x="613" 
d="M46.1504 460.75l-0.000976562 109c0 121.9 71.4004 165.5 177.5 165.5h142.95c116.15 -0.450195 194.051 -70 194.051 -385c0 -265 -85.7002 -343.55 -172 -351.25c-100.45 -8.7998 -221.9 1 -318.5 20.0996v106.15h250.5c91 0 99.0996 107.55 100 185.5
c-58.5996 -14.9502 -123 -21 -202.5 -21c-141.5 0 -172 75.9502 -172 171zM185.699 477.25c0 -51.0996 19.4502 -64 60.5 -64h174.45c0 100.6 -10.0498 193 -95.2998 193h-76.4004c-41.0996 0 -63.25 -9.4502 -63.25 -61.75v-67.25z" />
    <glyph glyph-name="zero.tosf" horiz-adv-x="613" 
d="M44.25 178.5v269.6c0 120.1 72.5996 184 184.1 184h164c134.65 0 177.9 -80.3496 177.9 -178.5v-275.1c0 -119 -67.3496 -178.5 -177.899 -178.5h-164c-112.45 0 -184.101 58.5 -184.101 178.5zM184.25 201.05c0 -60.9502 42.2988 -72.0498 75.999 -72.0498h96.9004
c46.9502 0 73.1006 17.5 73.1006 71.5v231.1c0 46 -20.5498 71.5 -68.7002 71.5h-105.7c-60.0996 0 -71.5996 -42.75 -71.5996 -71.5v-230.55z" />
    <glyph glyph-name="one.tosf" horiz-adv-x="613" 
d="M133.55 457.15v91.5l141.6 83.3496h138.9v-514h139.7v-118h-423v118h143.3v374.45z" />
    <glyph glyph-name="two.tosf" horiz-adv-x="613" 
d="M42.7998 510.65l0.000976562 104.049c89.2002 16.2002 172.601 27.75 303.551 25.5c148.8 0 216.75 -66.2998 216.75 -194.149c0 -152.85 -208.15 -284.85 -265.051 -317.05h262.8v-129h-512.05v123c105 58.3496 373.85 203.899 373.85 311.3
c0 58.7002 -35.9004 77.7002 -121.851 76.3506h-258z" />
    <glyph glyph-name="three.tosf" horiz-adv-x="613" 
d="M50.0498 509.55v101c88 31 206.5 30 323.5 28c110 -2 180.45 -69.1504 180.45 -176v-52.5c0 -73 -24.3496 -122.2 -75.8994 -141.5c53.0996 -22.7002 75.8994 -73.5 75.8994 -149.5v-42.5c0 -115.6 -65.9004 -179 -187.9 -179c-114 0 -222.05 -3 -310.05 28l0.549805 102
h254c66.75 0 102.5 4.59961 102.5 68.25v31.5c0 60.4004 -37 73.2002 -96.5 75.75l-198.55 7v113l198.55 10c69 3 98.5 18.75 98.5 71.5v36c0 57.2998 -46.5 69 -98.5 69h-266.55z" />
    <glyph glyph-name="four.tosf" horiz-adv-x="613" 
d="M21.4004 124l260.95 508h154l-218.65 -439.5h181.15v166.85l31.0498 76.6504h108.95v-243.5h73.5v-108.5l-73.5 -24.5v-157.5h-140v157.5h-343.45z" />
    <glyph glyph-name="five.tosf" horiz-adv-x="613" 
d="M67.8496 30h282.002c65.1504 0 72.9502 40.2002 72.9502 71v66.5498c0 33 -5.9502 71.4502 -66.9004 71.4502h-93.5c-35.1504 0 -61.1006 -17.1504 -61.1006 -58.5h-132l22 451.5h444.55v-129h-310l-7.59961 -165c20.5996 16.4502 47.5 22.1504 69.0498 24.5
c38.5996 4.25 88.1992 0.549805 109.299 0c116.9 -5.5 166.2 -80.5498 166.2 -182.5v-103c0 -137 -103.65 -181 -185.45 -181c-124 0 -175.5 1 -309.5 24v110z" />
    <glyph glyph-name="six.tosf" horiz-adv-x="613" 
d="M46.1504 384c0 265 85.7012 343.55 172.001 351.25c100.45 8.7998 222.8 -3.25 318.5 -20.0996v-106.15h-250.5c-91 0 -99.0996 -107.55 -100 -185.5c58.5996 14.9502 123 21 202.5 21c141.5 0 172 -75.9502 172 -171v-109c0 -121.9 -71.4004 -165.5 -177.5 -165.5
h-142.95c-116.15 0.450195 -194.051 70 -194.051 385zM186.151 321c0 -100.6 10.0498 -193 95.2998 -193h76.4004c41.0996 0 63.25 9.4502 63.25 61.75v67.25c0 51.0996 -19.4502 64 -60.5 64h-174.45z" />
    <glyph glyph-name="seven.tosf" horiz-adv-x="613" 
d="M51.0498 503l0.000976562 129h471.1l38 -64.5l-245.2 -667.5h-152.9l225 603h-336z" />
    <glyph glyph-name="eight.tosf" horiz-adv-x="613" 
d="M51.5 167.75v73.252c0 60.7998 30.1504 101.7 78.9502 112.5c-69.5 30.25 -78.9502 88.0996 -78.9502 145.5v65c0 137.3 84 173 187 173h151.5c113.05 0 173 -47.7998 173 -173.55v-53.4502c0.450195 -24.75 -6.84961 -104.3 -75 -116
c62.25 -11.6504 75.4502 -94.0508 75 -137.051v-85.9004c0 -148.15 -91.8496 -171.051 -174 -171.051h-150.5c-181.9 -0 -187 114.1 -187 167.75zM191.5 183.452c0 -41.2998 19.6514 -59.9502 71.751 -59.9502h93.8496c43.5498 0 65.8994 20.7002 65.8994 59.9502v69.25
c0 39.9502 -22.2002 62.2998 -63.4502 62.2998h-101.25c-43.7998 0 -66.7998 -19.5498 -66.7998 -62.2998v-69.25zM191.501 494.002c0 -51.5996 32.7998 -62.001 66.7998 -62.001h100.15c57.0498 0 64.5498 29.2998 64.5498 62v47.0996
c0 59.7002 -25.7002 72.4004 -65.4502 72.4004h-94.2998c-45.2998 0 -71.75 -6.59961 -71.75 -72.3994v-47.0996z" />
    <glyph glyph-name="nine.tosf" horiz-adv-x="613" 
d="M46.1504 358.05l-0.000976562 109c0 121.9 71.4004 165.5 177.5 165.5h142.95c116.15 -0.450195 194.051 -70 194.051 -385c0 -265 -85.7002 -343.55 -172 -351.25c-100.45 -8.7998 -223.7 1 -318.5 20.0996v106.15h250.5c91 0 99.0996 107.55 100 185.5
c-58.5996 -14.9502 -123 -21 -202.5 -21c-141.5 0 -172 75.9502 -172 171zM185.699 374.55c0 -51.0996 19.4502 -64 60.5 -64h174.45c0 100.6 -10.0498 193 -95.2998 193h-76.4004c-41.0996 0 -63.25 -9.4502 -63.25 -61.75v-67.25z" />
    <glyph glyph-name="partialdiff" unicode="&#x2202;" horiz-adv-x="634" 
d="M43.25 227c0 151 90.9014 238 239.751 238c51 0 111.35 -12.75 148.25 -57c-4.9502 150.1 -46.3506 203 -139.251 203c-75.2998 0 -149.25 -28 -186.25 -51l-23 102c67 44 127.25 78 212.25 78c195 0 277.25 -137 277.25 -353c0 -216.8 -77.6504 -392 -278.25 -392
c-131.45 0 -250.75 74 -250.75 232zM182.151 230c0 -71.7998 54.6006 -107.649 115.351 -107.649c100.05 0 124.399 137.8 124.85 188.5c-23 12.9502 -65.5498 26.7998 -116.25 26.7998c-90.4502 0 -123.95 -45.9004 -123.95 -107.65z" />
    <glyph glyph-name="summation" unicode="&#x2211;" horiz-adv-x="571" 
d="M30.0996 -68l214 338l-214 333v129h526v-129h-353.95l212.45 -333l-212.45 -338h353.95v-132h-526v132z" />
    <glyph glyph-name="product" unicode="&#x220f;" horiz-adv-x="650" 
d="M15.0498 603v129h620.5v-129h-76v-603h-140v603h-189.5v-603h-140v603h-75z" />
    <glyph glyph-name="pi" unicode="&#x3c0;" horiz-adv-x="645" 
d="M15.0498 402v129h566.5v-129h-90.5v-214c0 -65.75 20.7998 -79.5 69 -79.5h69.5v-82.5c-25 -17 -65.0996 -31 -124.5 -31c-98 0 -154 55.5 -154 187.5v219.5h-121v-402h-140v402h-75z" />
    <glyph glyph-name="integral" unicode="&#x222b;" horiz-adv-x="442" 
d="M15.0498 -91.5h62.5c70 0 72.5498 96.4502 73 179.5v418c0 163.95 38.5 294 155.5 294c78.0498 0 103 -18 121 -25v-87.5h-60.5c-69 0 -75.5498 -89.0996 -76 -181.5v-418c0 -173.85 -32.5 -292 -152.5 -292c-58.5996 0 -102 11 -123 25v87.5z" />
    <glyph glyph-name="Omega" unicode="&#x3a9;" horiz-adv-x="763" 
d="M49.0498 393.5c0 154 71.25 345.501 333.25 345.501c248 0 327.25 -168.5 327.25 -350.5c0 -117 -21.5 -192.2 -101 -262l106 -10v-116.5h-250v127.5c94.7002 73.0996 105 148.699 105 257.499c0 101 -31.25 225 -187.25 225c-161.5 0 -193.25 -124.9 -193.25 -230
c0 -107.25 7.2998 -166.2 108 -252.5v-127.5h-242v117.5l111 10c-100.45 66.0498 -117 154 -117 266z" />
    <glyph glyph-name="radical" unicode="&#x221a;" horiz-adv-x="659" 
d="M15.0498 240l0.000976562 129h164.35l84.3496 -178l230.1 609h150.45l-301.5 -800h-136.75l-122.8 240h-68.2002z" />
    <glyph glyph-name="florin" unicode="&#x192;" horiz-adv-x="593" 
d="M15.0498 -179l13.6016 87.5h62.5c70 0 89.1504 96.4502 101.95 179.5l44.7002 287h-86.5996l17.4004 107.45h86.5996l3.90039 23.5498c26.0996 163.95 84.9492 294 201.949 294c72.6504 0 104.95 -20.25 117 -25l-13.0498 -87.5h-60.5
c-69.4502 0 -88.7002 -89.0996 -104.05 -181.5l-3.90039 -24h115.7l-17.4004 -107h-115.7l-44.7002 -287c-27.2002 -173.85 -75 -292 -200.4 -292c-57.7002 0 -105.851 15.5 -119.001 25z" />
    <glyph glyph-name="approxequal" unicode="&#x2248;" horiz-adv-x="509" 
d="M37.9004 259.9c36.1504 32.4502 82.999 70.999 146.999 70.999c60 0 89 -37 149 -37c47 0 69.8496 16.0498 113 39l24.75 -62.3496c-36.7998 -33.5996 -78.6494 -73.6494 -139.749 -73.6494c-51.75 0 -89 38 -149 38c-51 0 -76 -23 -124 -38zM37.8994 440.749
c36.1504 32.4502 82.999 70.999 146.999 70.999c60 0 89 -37 149 -37c47 0 69.8496 16.0498 113 39l24.75 -62.3496c-36.7998 -33.5996 -78.6494 -73.6494 -139.749 -73.6494c-51.75 0 -89 38 -149 38c-51 0 -76 -23 -124 -38z" />
    <glyph glyph-name="uni2206" unicode="&#x2206;" horiz-adv-x="714" 
d="M15.0498 0l311 732h74l299 -732h-684zM206.7 123.5h330l-163.85 398.85z" />
    <glyph glyph-name="lozenge" unicode="&#x25ca;" horiz-adv-x="512" 
d="M15.0498 373l207 359h74l201 -359l-201 -373h-74zM153.55 373l105.5 -192.5l100.5 192.5l-100.5 183.5z" />
    <glyph glyph-name="cdotaccent" unicode="&#x10b;" horiz-adv-x="494" 
d="M224.65 620.8v76c0 15 8 25 24 25h72c15 0 23 -11 23 -25v-76c0 -15 -9 -23 -23 -23h-72c-14 0 -24 9 -24 23zM37.9004 266c0 218.8 73 270 175 270c52 0 156.899 -3.09961 244.5 -31.5v-87s-95.5508 6 -184.551 6c-64.3994 0 -94.9492 -3.84961 -94.9492 -160.4
c0 -135.949 22.9492 -155.6 94.9492 -155.6c92 0 191.551 9.34961 191.551 9.34961v-87.8994c-77.7002 -39.5 -168.5 -32.9502 -251.5 -33.9502c-99 0 -175 51.75 -175 271z" />
    <glyph glyph-name="ccircumflex" unicode="&#x109;" horiz-adv-x="494" 
d="M115.55 596.9l107.65 135.5h104l96.8496 -135.5h-93l-58.8994 60l-62.6006 -60h-94zM37.9004 266c0 218.8 73 270 175 270c52 0 156.899 -3.09961 244.5 -31.5v-87s-95.5508 6 -184.551 6c-64.3994 0 -94.9492 -3.84961 -94.9492 -160.4
c0 -135.949 22.9492 -155.6 94.9492 -155.6c92 0 191.551 9.34961 191.551 9.34961v-87.8994c-77.7002 -39.5 -168.5 -32.9502 -251.5 -33.9502c-99 0 -175 51.75 -175 271z" />
    <glyph glyph-name="Hbar" unicode="&#x126;" horiz-adv-x="686" 
d="M14.5996 516v65h63.2002v151h140v-151h251v151h140v-151h62.2998v-65h-62.2998v-516h-140v289.5h-251v-289.5h-140v516h-63.2002zM217.8 418.5h251v97.5h-251v-97.5z" />
    <glyph glyph-name="Hcircumflex" unicode="&#x124;" horiz-adv-x="636" 
d="M172 797l107.65 135.5h104l96.8496 -135.5h-93l-58.9004 60l-62.5996 -60h-94zM60.75 0v732h140v-313.5h251v313.5h140v-732h-140v289.5h-251v-289.5h-140z" />
    <glyph glyph-name="Idotaccent" unicode="&#x130;" horiz-adv-x="245" 
d="M71.25 820v76c0 15 8 25 24 25h72c15 0 23 -11 23 -25v-76c0 -15 -9 -23 -23 -23h-72c-14 0 -24 9 -24 23zM60.75 0v732h140v-732h-140z" />
    <glyph glyph-name="Gbreve" unicode="&#x11e;" horiz-adv-x="614" 
d="M211.65 914h58c0 -34.0498 23.5498 -56 56 -56c38 0 58 21.7002 58 56h58c0 -71.5996 -52.2002 -114 -116 -114c-62.7002 0 -114 44.2002 -114 114zM41.7998 370c0 212.65 39.9502 370 238.95 370c110.85 0 175.75 -6.2998 281.5 -32.5v-108.5
c-6 0 -134.1 17.5 -248.5 17.5c-110.55 0 -131.95 -67.9502 -131.95 -248.5c0 -190.1 21.75 -241.35 125.5 -242.25c68.2998 -0.450195 126 46 126 46v131.25h-102.55v88.5c42.75 18.1504 101.8 25 174.55 25c21 0 44 -1 68 -3v-413.5h-100.55l-37.4502 49
c-32.5 -29.7998 -71 -51.25 -155.5 -54c-207 -8.0498 -238 166.3 -238 375z" />
    <glyph glyph-name="Jcircumflex" unicode="&#x134;" horiz-adv-x="356" 
d="M87.4004 797l107.649 135.5h104l96.8506 -135.5h-93l-58.9004 60l-62.5996 -60h-94zM26.75 23.2002l1.7998 109c91.0498 -8.10059 142.65 -11.0498 143.101 93.8496v505.95h140v-567c0 -47 -3.10059 -115 -53.1006 -147c-53 -34 -179.8 -28.7998 -231.8 5.2002z" />
    <glyph glyph-name="hbar" unicode="&#x127;" horiz-adv-x="564" 
d="M-7.65039 604.5l-0.000976562 65h67.6504v113.4h140.8v-113.4h112.55v-65h-112.55v-130c52.75 31.7002 97.5 65.9502 171.75 65.5c122.25 1.7998 154.45 -84.4004 154.45 -185.601v-354.4h-141.35v355.25c-1.34961 49.6504 -17.2998 73.1504 -60.8994 73.1504
c-44.2002 -1.34961 -82.1504 -15.3994 -123.4 -46.8994v-381.5h-141.35v604.5h-67.6504z" />
    <glyph glyph-name="hcircumflex" unicode="&#x125;" 
d="M-78.5 842.9l107.65 135.5h104l96.8496 -135.5h-93l-58.9004 60l-62.5996 -60h-94zM3.34961 0v782.9h139.45v-308.4c43.9502 31.7002 88.0498 65.5 169.05 65.5c123.601 0 158.5 -85.2998 158.5 -186.5v-353.5h-140v355.7c0 52.7998 -23.1494 71.7998 -58.6494 71.7998
c-56.3506 0 -87.1006 -14.5 -128.351 -46v-381.5h-140z" />
    <glyph glyph-name="jcircumflex" unicode="&#x135;" horiz-adv-x="242" 
d="M-30.0996 596.25l107.649 149h103.45l97.4004 -149h-88.5996l-64.4004 69l-66 -69h-89.5zM54.1494 -270v801h142.25v-535c1 -86 -2.34961 -181.7 -37 -266h-105.25zM181 745.25z" />
    <glyph glyph-name="Cdotaccent" unicode="&#x10a;" horiz-adv-x="571" 
d="M271.3 823.9v76c0 15 8 25 24 25h72c15 0 23 -11 23 -25v-76c0 -15 -9 -23 -23 -23h-72c-14 0 -24 9 -24 23zM41.7998 368c0 234 49.9502 372 248.95 372c102.6 0 176.2 -9.7998 255 -33.25v-109.6c-1 0 -123.95 13.8496 -222 13.8496
c-102.45 0 -141.95 -23.4502 -141.95 -245c0 -164 27.1006 -243 142.5 -243c105 0 221.45 8.09961 221.45 8.09961v-109.6c-65.5996 -20.1504 -150.2 -29.1504 -255 -27.5c-185 1.65039 -248.95 141.95 -248.95 374z" />
    <glyph glyph-name="Ccircumflex" unicode="&#x108;" horiz-adv-x="571" 
d="M176.4 800l107.649 135.5h104l96.8506 -135.5h-93l-58.9004 60l-62.5996 -60h-94zM41.7998 368c0 234 49.9502 372 248.95 372c102.6 0 176.2 -9.7998 255 -33.25v-109.6c-1 0 -123.95 13.8496 -222 13.8496c-102.45 0 -141.95 -23.4502 -141.95 -245
c0 -164 27.1006 -243 142.5 -243c105 0 221.45 8.09961 221.45 8.09961v-109.6c-65.5996 -20.1504 -150.2 -29.1504 -255 -27.5c-185 1.65039 -248.95 141.95 -248.95 374z" />
    <glyph glyph-name="Gdotaccent" unicode="&#x120;" horiz-adv-x="614" 
d="M266.35 823v76c0 15 8 25 24 25h72c15 0 23 -11 23 -25v-76c0 -15 -9 -23 -23 -23h-72c-14 0 -24 9 -24 23zM41.7998 370c0 212.65 39.9502 370 238.95 370c110.85 0 175.75 -6.2998 281.5 -32.5v-108.5c-6 0 -134.1 17.5 -248.5 17.5
c-110.55 0 -131.95 -67.9502 -131.95 -248.5c0 -190.1 21.75 -241.35 125.5 -242.25c68.2998 -0.450195 126 46 126 46v131.25h-102.55v88.5c42.75 18.1504 101.8 25 174.55 25c21 0 44 -1 68 -3v-413.5h-100.55l-37.4502 49c-32.5 -29.7998 -71 -51.25 -155.5 -54
c-207 -8.0498 -238 166.3 -238 375z" />
    <glyph glyph-name="Gcircumflex" unicode="&#x11c;" horiz-adv-x="614" 
d="M179.55 800l107.65 135.5h104l96.8496 -135.5h-93l-58.8994 60l-62.6006 -60h-94zM41.7998 370c0 212.65 39.9502 370 238.95 370c110.85 0 175.75 -6.2998 281.5 -32.5v-108.5c-6 0 -134.1 17.5 -248.5 17.5c-110.55 0 -131.95 -67.9502 -131.95 -248.5
c0 -190.1 21.75 -241.35 125.5 -242.25c68.2998 -0.450195 126 46 126 46v131.25h-102.55v88.5c42.75 18.1504 101.8 25 174.55 25c21 0 44 -1 68 -3v-413.5h-100.55l-37.4502 49c-32.5 -29.7998 -71 -51.25 -155.5 -54c-207 -8.0498 -238 166.3 -238 375z" />
    <glyph glyph-name="Ubreve" unicode="&#x16c;" horiz-adv-x="664" 
d="M225.25 911h58c0 -34.0498 23.5498 -56 56 -56c38 0 58 21.7002 58 56h58c0 -71.5996 -52.2002 -114 -116 -114c-62.7002 0 -114 44.2002 -114 114zM60.75 320v412h140v-412c0 -167.35 37.0996 -196 142 -196c93.5 0 136 34.4502 136 196v412h141v-412
c0 -323 -156 -325 -277 -325c-136 0 -282 -8 -282 325z" />
    <glyph glyph-name="Scircumflex" unicode="&#x15c;" horiz-adv-x="590" 
d="M155.181 798.467l107.65 135.5h104l96.8496 -135.5h-93l-58.8994 60l-62.6006 -60h-94zM49.5996 485.75v63.25c0 145 86 187.35 198 189c105.25 2.2002 225.2 -11.8496 283 -28.9502v-110.05c-64 5.65039 -208.199 10 -244.5 10
c-61.1992 1.34961 -96.5 -2.90039 -96.5 -71v-35.75c0 -58 22.2002 -70.5 78.9004 -70.5h115.6c143.45 0 173.051 -113.1 173.051 -194v-48.75c0 -166.2 -103.551 -197 -202.551 -197c-124.899 0 -206.75 7.65039 -282.449 29.9502v110.05c40 -4 161.949 -11 254.949 -11
c42.1006 0 90.0508 6.9502 90.0508 63.0498v39.4004c0 41.5996 -12.6006 68.2998 -66.0508 68.2998h-112.5c-176.5 0 -189 130.35 -189 194z" />
    <glyph glyph-name="ubreve" unicode="&#x16d;" 
d="M160 710h58c0 -34.0498 23.5498 -56 56 -56c38 0 58 21.7002 58 56h58c0 -71.5996 -52.2002 -114 -116 -114c-62.7002 0 -114 44.2002 -114 114zM37.9004 177.5v353.5h140v-355.7c0 -52.7998 23.5996 -71.7998 58.6494 -71.7998c56.3506 0 87.1006 14.5 128.351 46v381.5
h140v-531h-112.5l-27.5 56.5c-52.75 -31.7002 -87.5 -65.5 -168.5 -65.5c-123.601 0 -158.5 85.2998 -158.5 186.5z" />
    <glyph glyph-name="scircumflex" unicode="&#x15d;" horiz-adv-x="508" 
d="M100.994 596.029l107.649 135.5h104l96.8506 -135.5h-93l-58.9004 60l-62.5996 -60h-94zM30.0996 347v46c0 82 35 143 138 143c102.051 0 242.551 -3.2998 283.551 -27v-88.3496h-240.65c-35.9502 0 -40.9004 -11.25 -40.9004 -36.4502v-24
c0 -33.5498 17.6504 -34.4502 40.9004 -34.4502h126.1c101.301 0 141 -60.0498 141 -137.25v-54.5c0 -109 -66 -139 -130 -139c-100.699 0 -259.1 4.5498 -296 28.9004v87.4492h250.9c9.34961 0 35.0996 1.15039 35.0996 33.6504v24.7998
c0 22.3506 -6.5 34.6504 -35.0996 34.6504h-123.9c-94 0 -149 39.5498 -149 142.55z" />
    <glyph glyph-name="gbreve" unicode="&#x11f;" horiz-adv-x="560" 
d="M163.4 710.45h58c0 -34.0498 23.5498 -56 56 -56c38 0 58 21.7002 58 56h58c0 -71.6006 -52.2002 -114 -116 -114c-62.7002 0 -114 44.2002 -114 114zM35.3496 102.35c0 41.8008 18.5508 81.0508 61.75 94.5508c-44 28 -58.5498 94.0996 -58.5498 147.1
c0 127 64.3506 189 184 189h323v-83.5l-59 -18c9.35059 -22.0996 20 -40.3496 20 -104c0 -76.5 -31.7998 -178.5 -181.5 -178.5h-123c-16 0 -40.4502 -0.150391 -40.4502 -23.4004s18.3086 -26.8496 40.4502 -26.8496h162.95c96.0195 0 157.05 -50.0498 157.05 -157.25
v-57.5c0 -76.5 -35.5 -154 -166.5 -154h-150c-94 0 -165.5 48.9004 -165.5 154v67.4004l46.6006 48.5c-28 15.5996 -51.3008 51.7998 -51.3008 102.449zM180.6 -98.9502c0 -52.6494 27.9004 -58.5498 62.9004 -58.5498h82.9004c50.1992 0 56.1992 24.75 56.1992 55.7998
v38.75c0 29.9502 -12.3428 48.2324 -52.0498 48.6504h-107.7c-19.4766 0 -42.25 3.59961 -42.25 3.59961v-88.25zM178.55 344c0 -49 15 -82.5 64.5 -82.5h56.2002c53.0498 0 68.2002 34.4004 67.2998 82.5c-1.34961 55.1758 -19 76.5 -68.2998 76.5h-53.7002
c-56.7002 0 -66 -36.9004 -66 -76.5z" />
    <glyph glyph-name="gdotaccent" unicode="&#x121;" horiz-adv-x="560" 
d="M221.3 620.35v76c0 15 8 25 24 25h72c15 0 23 -11 23 -25v-76c0 -15 -9 -23 -23 -23h-72c-14 0 -24 9 -24 23zM35.3496 102.35c0 41.8008 18.5508 81.0508 61.75 94.5508c-44 28 -58.5498 94.0996 -58.5498 147.1c0 127 64.3506 189 184 189h323v-83.5l-59 -18
c9.35059 -22.0996 20 -40.3496 20 -104c0 -76.5 -31.7998 -178.5 -181.5 -178.5h-123c-16 0 -40.4502 -0.150391 -40.4502 -23.4004s18.3086 -26.8496 40.4502 -26.8496h162.95c96.0195 0 157.05 -50.0498 157.05 -157.25v-57.5c0 -76.5 -35.5 -154 -166.5 -154h-150
c-94 0 -165.5 48.9004 -165.5 154v67.4004l46.6006 48.5c-28 15.5996 -51.3008 51.7998 -51.3008 102.449zM180.6 -98.9502c0 -52.6494 27.9004 -58.5498 62.9004 -58.5498h82.9004c50.1992 0 56.1992 24.75 56.1992 55.7998v38.75
c0 29.9502 -12.3428 48.2324 -52.0498 48.6504h-107.7c-19.4766 0 -42.25 3.59961 -42.25 3.59961v-88.25zM178.55 344c0 -49 15 -82.5 64.5 -82.5h56.2002c53.0498 0 68.2002 34.4004 67.2998 82.5c-1.34961 55.1758 -19 76.5 -68.2998 76.5h-53.7002
c-56.7002 0 -66 -36.9004 -66 -76.5z" />
    <glyph glyph-name="gcircumflex" unicode="&#x11d;" horiz-adv-x="560" 
d="M123.5 596.45l107.65 135.5h104l96.8496 -135.5h-93l-58.9004 60l-62.5996 -60h-94zM35.3496 102.35c0 41.8008 18.5508 81.0508 61.75 94.5508c-44 28 -58.5498 94.0996 -58.5498 147.1c0 127 64.3506 189 184 189h323v-83.5l-59 -18
c9.35059 -22.0996 20 -40.3496 20 -104c0 -76.5 -31.7998 -178.5 -181.5 -178.5h-123c-16 0 -40.4502 -0.150391 -40.4502 -23.4004s18.3086 -26.8496 40.4502 -26.8496h162.95c96.0195 0 157.05 -50.0498 157.05 -157.25v-57.5c0 -76.5 -35.5 -154 -166.5 -154h-150
c-94 0 -165.5 48.9004 -165.5 154v67.4004l46.6006 48.5c-28 15.5996 -51.3008 51.7998 -51.3008 102.449zM180.6 -98.9502c0 -52.6494 27.9004 -58.5498 62.9004 -58.5498h82.9004c50.1992 0 56.1992 24.75 56.1992 55.7998v38.75
c0 29.9502 -12.3428 48.2324 -52.0498 48.6504h-107.7c-19.4766 0 -42.25 3.59961 -42.25 3.59961v-88.25zM178.55 344c0 -49 15 -82.5 64.5 -82.5h56.2002c53.0498 0 68.2002 34.4004 67.2998 82.5c-1.34961 55.1758 -19 76.5 -68.2998 76.5h-53.7002
c-56.7002 0 -66 -36.9004 -66 -76.5z" />
    <glyph glyph-name="gbreve.salt" horiz-adv-x="555" 
d="M175.15 712.5h58c0 -34.0498 23.5498 -56 56 -56c38 0 58 21.7002 58 56h58c0 -71.5996 -52.2002 -114 -116 -114c-62.7002 0 -114 44.2002 -114 114zM37.9004 276.8c0 179.55 69.4492 263.5 194.449 263.5c106 0 226.65 -16.25 277.5 -30.1494v-570.15
c0 -136.1 -81.8496 -225.05 -208.5 -212l-241.5 24v93h225c53 0 85 31 85 95v97.25c-40.8994 -27.0996 -92.5 -38.4502 -137.5 -38.4502c-153 0 -194.449 101.3 -194.449 278zM177.9 280.65c0 -100.75 0.949219 -171.551 80.8496 -171.551
c44.2998 0 67.1504 4 111.1 21.7002v302.5h-110c-80.0498 0 -81.9492 -91.2998 -81.9492 -152.649z" />
    <glyph glyph-name="gdotaccent.salt" horiz-adv-x="555" 
d="M229.875 622.4v76c0 15 8 25 24 25h72c15 0 23 -11 23 -25v-76c0 -15 -9 -23 -23 -23h-72c-14 0 -24 9 -24 23zM37.9004 276.8c0 179.55 69.4492 263.5 194.449 263.5c106 0 226.65 -16.25 277.5 -30.1494v-570.15c0 -136.1 -81.8496 -225.05 -208.5 -212l-241.5 24v93
h225c53 0 85 31 85 95v97.25c-40.8994 -27.0996 -92.5 -38.4502 -137.5 -38.4502c-153 0 -194.449 101.3 -194.449 278zM177.9 280.65c0 -100.75 0.949219 -171.551 80.8496 -171.551c44.2998 0 67.1504 4 111.1 21.7002v302.5h-110
c-80.0498 0 -81.9492 -91.2998 -81.9492 -152.649z" />
    <glyph glyph-name="gcircumflex.salt" horiz-adv-x="555" 
d="M136.95 598.5l107.649 135.5h104l96.8506 -135.5h-93l-58.9004 60l-62.5996 -60h-94zM37.9004 276.8c0 179.55 69.4492 263.5 194.449 263.5c106 0 226.65 -16.25 277.5 -30.1494v-570.15c0 -136.1 -81.8496 -225.05 -208.5 -212l-241.5 24v93h225c53 0 85 31 85 95
v97.25c-40.8994 -27.0996 -92.5 -38.4502 -137.5 -38.4502c-153 0 -194.449 101.3 -194.449 278zM177.9 280.65c0 -100.75 0.949219 -171.551 80.8496 -171.551c44.2998 0 67.1504 4 111.1 21.7002v302.5h-110c-80.0498 0 -81.9492 -91.2998 -81.9492 -152.649z" />
    <glyph glyph-name="f_f" unicode="&#xfb00;" horiz-adv-x="795" 
d="M15.0498 424v90l99 17v89c0 63.9004 25 156 145 156c49 0 97.0498 -7.34961 140 -24v-83.6504c-1 0 -90 1 -90 1c-53.5498 1 -55 -30.5 -55 -78.5v-59.8496h236.15v99c0 90.8496 36.5498 156 156.55 156c49 0 90.4502 -6.25 133.95 -24v-83.0996c-1 0 -95.5 1 -95.5 1
c-56.2998 1 -55 -27.2002 -55 -82.9004v-66h119.6v-107h-120.5v-424h-140v424h-237.25v-424h-140v424h-97z" />
    <glyph glyph-name="f_f_i" unicode="&#xfb03;" horiz-adv-x="1007" 
d="M15.0498 424v90l99 17v89c0 63.9004 25 156 145 156c49 0 97.0498 -7.34961 140 -24v-83.6504c-1 0 -90 1 -90 1c-53.5498 1 -53.4502 -30.5 -55.5498 -78.5l-0.900391 -59.8496h223.65v39.7998c0 119.65 82.5996 213 216.899 215.2
c49 0.549805 189.05 -10.75 232.55 -28.5v-83.0996c-1 0 -183.1 5.5 -183.1 5.5c-56.2998 1.7998 -126.35 -15.4004 -126.35 -114.601v-34.2998l346.35 -10v-521h-140.45v424h-206.8v-424h-140v424h-222.75v-424h-140.55v424h-97z" />
    <glyph glyph-name="ffl" unicode="&#xfb04;" horiz-adv-x="1101" 
d="M15.0498 424v90.002l99 17v89c0 63.9004 25 156 145 156c49 0 97.0498 -7.34961 140 -24v-83.6504c-1 0 -90 1 -90 1c-53.5498 1 -54.5498 -30.5 -55.5498 -78.5l-0.900391 -59.8496h226.4v45.2998c0 150.35 76.5498 208.8 196.55 208.8l298.15 -1.65039v-572.45
c0 -77.0996 14.5498 -92 46 -104c0 0 60 -21 67 -21v-86h-115.5c-94.5498 0 -137.5 48 -137.5 189v490.35c-24.75 0 -130.7 0.549805 -130.7 0.549805c-56.2998 0 -84 -20.9004 -84 -103.601v-45.2998h119.6v-107h-120.5v-424h-140v424h-225.5v-424h-140.55v424h-97z" />
    <glyph glyph-name="c_t" horiz-adv-x="855" 
d="M30.0996 261c0 232 79.0498 272.001 181.05 272.001l371.45 -1.09961l23.5 147.55h116.5v-148h118.7v-107.9h-118.7v-212.1c0 -83.5996 14 -94 46.3496 -105.1c0 0 57.75 -19.6504 62.0498 -19.6504v-87.3496h-117.6c-86.75 0 -130.8 49.5498 -130.8 190.1v234.1
l-310.95 -0.549805c-60 0 -101.55 2.65039 -101.55 -166c0 -139.25 25.1504 -151.5 97.1504 -151.5c92 0 191.55 9.34961 191.55 9.34961v-87.9004c-78.7998 -27.4004 -143.2 -33.5 -252.05 -33.9502c-100.65 0 -176.65 35 -176.65 268z" />
    <glyph glyph-name="s_t" unicode="&#xfb06;" horiz-adv-x="887" 
d="M30.0996 344.3l0.00195312 46.9023c0 82 40.5 140.25 143.5 140.25h436.6l23.5 148h116.5v-148h118.7v-106.1h-118.7v-213.9c0.450195 -83.5996 14 -94 46.3496 -105.1c0 0 57.75 -19.6504 62.0498 -19.6504v-87.3496h-117.6c-86.75 0 -130.8 49.5498 -130.8 190.1
v229.85l-399.2 -0.450195c-35.9502 0 -40.9004 -11.25 -40.9004 -36.4502v-24.9004c0 -33.5498 17.6504 -34.4502 40.9004 -34.4502h126.1c101.3 0 141 -60.0498 141 -137.25v-51.7998c0 -109 -66 -139 -130 -139c-73.2002 0 -259.101 4.5498 -296.001 28.8994v87.4502
h250.9c9.34961 0 35.0996 1.15039 35.0996 33.6504v22.0996c0 22.3496 -6.5 34.6494 -35.0996 34.6494h-123.9c-94 0 -149 39.5498 -149 142.55z" />
    <glyph glyph-name="t_t" horiz-adv-x="755" 
d="M15.0498 425v78l85.7998 29l23.5 148h116.5v-148h241l23.5 148h116.5v-148h118.7v-107h-118.7v-213c0.450195 -83.5996 14.5498 -93.5498 46.8994 -105.1c0 0 57.75 -19.6504 62.0498 -19.6504v-87.3496h-117.6c-86.75 0 -131.35 49.5498 -131.35 190.1v235h-241v-213
c0.450195 -83.5996 14 -93.5498 46.3496 -105.1c0 0 57.75 -19.6504 62.0498 -19.6504v-87.3496h-117.6c-86.75 0 -130.8 49.5498 -130.8 190.1v235h-85.7998z" />
    <glyph glyph-name="f_t" horiz-adv-x="760" 
d="M15.0498 424v90l84.1504 17v99c0 90.8496 36.5498 156 156.55 156c49 0 90.4502 -6.25 133.95 -24v-83.0996c-1 0 -95.5 1 -95.5 1c-56.2998 1 -55 -27.2002 -55 -82.9004v-65h248.1l23.5 148h116.5v-148h118.7v-107h-118.7v-213
c0.450195 -83.5996 14 -93.5498 46.3496 -105.1c0 0 57.75 -19.6504 62.0498 -19.6504v-87.3496h-117.6c-86.75 0 -130.8 49.5498 -130.8 190.1v235h-249v-425h-140v424h-83.25z" />
    <glyph glyph-name="t_y" horiz-adv-x="962" 
d="M15.0498 425l0.000976562 78l85.7998 29l23.5 148h116.5v-148h144.55c118.65 0 162.601 -42.2998 184.9 -127.05l71.0996 -245.5c10.9502 -38.6504 45 -38.4502 53.3496 -39l106.9 410.55h146.15l-183.5 -699l-73.7002 -102h-101.7l78.3496 270
c-75.5996 -0 -133.1 40.7998 -160.3 135.3l-67.4004 217.05c-14.5498 54.9502 -36.75 72.6504 -95.4004 72.6504h-103.3v-213c0.450195 -83.5996 14 -94 46.3496 -105.1c0 0 57.75 -19.6504 62.0498 -19.6504v-87.3496h-117.6c-86.75 0 -130.8 49.5498 -130.8 190.1v235
h-85.7998z" />
    <glyph glyph-name="f_y" horiz-adv-x="981" 
d="M15.0498 424v90l84.1504 17v99c0 90.8496 36.5498 156 156.55 156c49 0 90.4502 -10.75 133.95 -28.5v-83.0996c-1 0 -95.5 5.5 -95.5 5.5c-56.2998 3.25 -55 -27.2002 -55 -82.9004v-66h158.9c121.4 0.549805 166.25 -41.75 189.45 -126.05l73.3496 -245.05
c10.9502 -38.6504 45 -38.4502 53.3496 -39l106.45 410.55h146.15l-183.5 -699l-73.7002 -102h-101.7l78.3496 270c-75.0498 0 -133.55 40.7998 -160.3 135.3l-69.2002 216.6c-15 54.9502 -38.5498 72.2002 -97.75 71.6504h-120.75v-424h-140v424h-83.25z" />
    <glyph glyph-name="kgreenlandic" unicode="&#x138;" horiz-adv-x="569" 
d="M45.7002 0v531h140.55v-214.5h50.4502l149.5 214.5h167.9l-191 -267l171.5 -264h-163.4l-137.5 209.5h-47l-0.450195 -209.5h-140.55z" />
    <glyph glyph-name="Rcommaaccent" unicode="&#x156;" horiz-adv-x="607" 
d="M238.935 -170.55v78.2998c0 16.2002 8.10059 24.2998 22.5 24.2998h75.6006c16.2002 0 21.5996 -10.7998 21.5996 -24.2998v-110.7c0 -99.8545 -115.2 -69.2998 -115.2 -69.2998v43.6504c27 -0.900391 27.9004 13.5449 27.9004 22.9492v12.6006h-9.90039
c-12.5996 0 -22.5 7.2002 -22.5 22.5zM51.2002 0v732h320.25c114.25 0 199.25 -53.4502 199.25 -228.25c0 -181.2 -75.9004 -202.7 -116.55 -215.5l138.6 -288.25h-157.55l-121 277l-123 14v-291h-140zM191.75 401h165.95c48.75 0 72 14.2998 72 102.75
c0 83.1504 -28 103.75 -72 103.75h-165.95v-206.5z" />
    <glyph glyph-name="Itilde" unicode="&#x128;" horiz-adv-x="245" 
d="M-41 852.3c31.75 34.6504 71.5 69.5 120.75 69.5c46.7002 -1.34961 71.8496 -34.5498 106.45 -35c32.7998 -1.5498 65.5996 17.9004 92.0996 38.2002l24.2002 -59.5996c-26.9502 -29.4004 -66.4004 -68.8506 -113.35 -67.9502
c-48.8506 1.34961 -74.3008 35 -111.95 34.5498c-41.25 -0.450195 -60.2002 -15.5 -93.9004 -35zM60.75 0v732h140v-732h-140z" />
    <glyph glyph-name="Lcommaaccent" unicode="&#x13b;" horiz-adv-x="539" 
d="M234.085 -171.65v78.3008c0 16.1992 8.09961 24.2998 22.5 24.2998h75.5996c16.2002 0 21.6006 -10.7998 21.6006 -24.2998v-110.7c0 -99.8555 -115.2 -69.2998 -115.2 -69.2998v43.6494c27 -0.899414 27.9004 13.5449 27.9004 22.9502v12.5996h-9.90039
c-12.5996 0 -22.5 7.2002 -22.5 22.5zM60.75 142.5v589.5h140v-551c0 -53 33 -52 62 -52h251v-129h-300.5c-79.75 0 -152.5 29.5 -152.5 142.5z" />
    <glyph glyph-name="Emacron" unicode="&#x112;" horiz-adv-x="567" 
d="M165.85 796.1v79.5h292v-79.5h-292zM58 143.9v436.1c0 127.025 89.9648 153.35 159 152c0 0 257.7 -7.2002 322.05 -16v-115.75h-289.05c-52 0 -52 -29 -52 -56v-114.2l295.55 -10.5498v-115.1l-295.55 -9.4502v-114.2c0.450195 -53 33 -52 62 -52h279.05v-114.75
c-56.6494 -7.7002 -312.05 -17 -312.05 -17c-65.2852 -2.90039 -169 11.9004 -169 146.9z" />
    <glyph glyph-name="Gcommaaccent" unicode="&#x122;" horiz-adv-x="614" 
d="M253.235 -179.4v78.3008c0 16.1992 8.09961 24.2998 22.5 24.2998h75.5996c16.2002 0 21.5996 -10.7998 21.5996 -24.2998v-110.7c0 -99.8555 -115.199 -69.2998 -115.199 -69.2998v43.6494c27 -0.899414 27.8994 13.5449 27.8994 22.9502v12.5996h-9.89941
c-12.6006 0 -22.5 7.2002 -22.5 22.5zM41.7998 370c0 212.65 39.9502 370 238.95 370c110.85 0 175.75 -6.2998 281.5 -32.5v-108.5c-6 0 -134.1 17.5 -248.5 17.5c-110.55 0 -131.95 -67.9502 -131.95 -248.5c0 -190.1 21.75 -241.35 125.5 -242.25
c68.2998 -0.450195 126 46 126 46v131.25h-102.55v88.5c42.75 18.1504 101.8 25 174.55 25c21 0 44 -1 68 -3v-413.5h-100.55l-37.4502 49c-32.5 -29.7998 -71 -51.25 -155.5 -54c-207 -8.0498 -238 166.3 -238 375z" />
    <glyph glyph-name="Tbar" unicode="&#x166;" horiz-adv-x="584" 
d="M21.7998 603v129h541v-129h-203.5v-170h98v-65h-98v-368h-140v368h-98v65h98v170h-197.5z" />
    <glyph glyph-name="rcommaaccent" unicode="&#x157;" horiz-adv-x="417" 
d="M47.9346 -174.4v78.3008c0 16.1992 8.10059 24.2998 22.5 24.2998h75.6006c16.2002 0 21.5996 -10.7998 21.5996 -24.2998v-110.7c0 -99.8555 -115.2 -69.2998 -115.2 -69.2998v43.6494c27 -0.899414 27.9004 13.5449 27.9004 22.9502v12.5996h-9.90039
c-12.5996 0 -22.5 7.2002 -22.5 22.5zM41.2998 0v531h118l22 -67c36.7998 35.5498 86.2998 72.4502 152.351 72.4502c22.9492 0 44.9492 -0.900391 59.1494 -6.35059v-135.149c-14.2002 1.34961 -46.6494 2.7002 -76.75 2.7002c-58 0 -100.1 -9.4502 -134.75 -59.1006
v-338.55h-140z" />
    <glyph glyph-name="itilde" unicode="&#x129;" horiz-adv-x="230" 
d="M-56.0498 651.3c31.75 34.6504 71.5 69.5 120.75 69.5c46.7002 -1.34961 71.8496 -34.5498 106.45 -35c32.7998 -1.5498 65.5996 17.9004 92.0996 38.2002l24.2002 -59.5996c-26.9502 -29.4004 -66.4004 -68.8506 -113.351 -67.9502
c-48.8496 1.34961 -74.2998 35 -111.949 34.5498c-41.25 -0.450195 -60.2002 -15.5 -93.9004 -35zM45.7002 0v531h140v-531h-140z" />
    <glyph glyph-name="lcommaaccent" unicode="&#x13c;" horiz-adv-x="313" 
d="M111.785 -172.2v78.2998c0 16.2002 8.09961 24.3008 22.5 24.3008h75.5996c16.2002 0 21.6006 -10.8008 21.6006 -24.3008v-110.699c0 -99.8555 -115.2 -69.3008 -115.2 -69.3008v43.6504c27 -0.900391 27.8994 13.5449 27.8994 22.9502v12.5996h-9.89941
c-12.6006 0 -22.5 7.2002 -22.5 22.5zM45.7002 189v594h140v-572c0 -77.0996 18.5996 -93.7998 46 -104c0 0 60 -21 67 -21v-86h-115.5c-86.9004 0 -137.5 48 -137.5 189z" />
    <glyph glyph-name="emacron" unicode="&#x113;" horiz-adv-x="525" 
d="M126.25 595.55v79.5h292v-79.5h-292zM37.9004 268c0 228.2 63.5996 267 232 267c153.6 0 225 -17.5 225 -193.5c0 -94.5996 -52 -133 -148 -133h-169c0 -95.8496 36.1992 -101.55 112 -101.55c81 0 120 -0.450195 195 10.5498v-94.5c-74.9502 -27.9502 -189 -28 -272 -28
c-135 0 -175 78.2002 -175 273zM177.9 309h132.699c29.1504 0 44.3008 14.3496 44.3008 39.6504c0 67.0498 -9.55078 79.3496 -76.8506 79.3496c-73.9502 0 -101.25 -4.2998 -100.149 -119z" />
    <glyph glyph-name="gcommaaccent" unicode="&#x123;" horiz-adv-x="560" 
d="M215.79 617.301v110.7c0 99.8535 115.2 69.2998 115.2 69.2998v-43.6504c-27 0.899414 -27.9004 -13.5459 -27.9004 -22.9512v-12.5996h9.90039c12.5996 0 22.5 -7.2002 22.5 -22.5v-78.2988c0 -16.2002 -8.09961 -24.3008 -22.5 -24.3008h-75.5996
c-16.2002 0 -21.6006 10.8008 -21.6006 24.3008zM35.3496 101.9c0 45.0996 17.999 84.8008 61.749 95.001c-44 28 -58.5498 94.0996 -58.5498 147.1c0 127 64.3496 189 184 189h323v-83.5l-59 -18c9.34961 -22.0996 20 -40.3496 20 -104
c0 -76.5 -31.7998 -178.5 -181.5 -178.5h-123c-16 0 -40.4502 -0.5 -40.4502 -24.2998c0 -23.25 18.4502 -24.4004 40.4502 -26.8506l160.15 -18.4004c96.4502 -10.4502 159.851 -44.9502 159.851 -162.45v-33c0 -76.5 -35.5 -154 -166.5 -154h-150
c-94 0 -165.5 48.9004 -165.5 154v73.4502l52.0996 47.4004c-28 15.5996 -56.7998 46.3994 -56.7998 97.0498zM180.599 -98.9482c0 -52.6504 27.9004 -58.5498 62.9004 -58.5498h82.9004c50.2002 0 56.2002 24.75 56.2002 55.7998v19.75
c0 29.9502 -23.9004 44.25 -61.0508 48.5l-94.2002 11.5498c-14.5 1.90039 -46.75 5.7002 -46.75 5.7002v-82.75zM178.549 344.003c0 -49 15 -88 64.5 -88h56.2002c53.0498 0 68.2002 41 67.2998 88c-1.34961 60.6504 -19 82 -68.2998 82h-53.7002
c-56.7002 0 -66 -42.4004 -66 -82z" />
    <glyph glyph-name="gcommaaccent.salt" horiz-adv-x="555" 
d="M228.49 617.301v110.7c0 99.8535 115.2 69.2998 115.2 69.2998v-43.6504c-27 0.899414 -27.9004 -13.5459 -27.9004 -22.9512v-12.5996h9.90039c12.5996 0 22.5 -7.2002 22.5 -22.5v-78.2988c0 -16.2002 -8.09961 -24.3008 -22.5 -24.3008h-75.5996
c-16.2002 0 -21.6006 10.8008 -21.6006 24.3008zM37.9004 276.8c0 179.55 69.4502 263.5 194.45 263.5c106 0 226.65 -16.25 277.5 -30.1504v-570.15c0 -136.1 -81.8496 -225.05 -208.5 -212l-241.5 24v93h225c53 0 85 31 85 95v97.25
c-40.9004 -27.0996 -92.5 -38.4492 -137.5 -38.4492c-153 0 -194.45 101.3 -194.45 278zM177.9 280.649c0 -100.75 0.950195 -171.551 80.8506 -171.551c44.2998 0 67.1494 4 111.1 21.7002v302.5h-110c-80.0498 0 -81.9502 -91.2998 -81.9502 -152.649z" />
    <glyph glyph-name="tbar" unicode="&#x167;" horiz-adv-x="374" 
d="M15.0498 425v78l85.7998 29l23.5 148h116.5v-148h118.7v-107h-118.7v-103h82.4502v-65h-82.4502v-45c0.450195 -83.5996 14 -93.5498 46.3496 -105.1c0 0 57.75 -19.6504 62.0498 -19.6504v-87.3496h-117.6c-86.75 0 -130.8 49.5498 -130.8 190.1v67h-70.5498v65h70.5498
v103h-85.7998z" />
    <glyph glyph-name="Eng" unicode="&#x14a;" horiz-adv-x="677" 
d="M60.75 0v731.999h142l289.55 -468.5v468.5h140v-732v-73c0 -174.55 -133.4 -191.149 -252.5 -183.999v101c54.1504 7.75 112.5 5.59961 112.5 91.5v64.5l-290.1 467.5l-0.900391 -467.5h-140.55z" />
    <glyph glyph-name="eng" unicode="&#x14b;" horiz-adv-x="557" 
d="M45.7002 0l-0.000976562 531h112.5l27.5 -56.5c52.75 31.7002 87.5 65.5 168.5 65.5c123.6 0 158.5 -85.2998 158.5 -186.5v-353.5l-1 -68c-3.59961 -158.55 -130.55 -192.1 -196 -200l-35.5 76.5c48.7002 18.5996 90.5 35.5 92.5 119.5v72v355.7
c0 52.7998 -23.5996 71.7998 -58.6494 71.7998c-56.3496 0 -87.0996 -14.5 -128.35 -46v-381.5h-140z" />
    <glyph glyph-name="Amacron" unicode="&#x100;" horiz-adv-x="692" 
d="M214.625 797v79.5h292v-79.5h-292zM34 0l247 732h159.25l237.75 -732h-149.05l-52 162.2h-239.75l-52.7998 -162.2h-150.4zM273.55 286.25h170.25l-82.25 261.25z" />
    <glyph glyph-name="Iogonek" unicode="&#x12e;" horiz-adv-x="245" 
d="M109.625 0.293945h55.5c-79.7002 -59.75 -46.8496 -112.4 8.5 -110v-76.5c-106.2 -25.9004 -206.3 114.8 -64 186.5zM60.75 0v732h140v-732h-140z" />
    <glyph glyph-name="Edotaccent" unicode="&#x116;" horiz-adv-x="567" 
d="M265.4 818.65v76c0 15 8 25 24 25h72c15 0 23 -11 23 -25v-76c0 -15 -9 -23 -23 -23h-72c-14 0 -24 9 -24 23zM58 143.9v436.1c0 127.025 89.9648 153.35 159 152c0 0 257.7 -7.2002 322.05 -16v-115.75h-289.05c-52 0 -52 -29 -52 -56v-114.2l295.55 -10.5498v-115.1
l-295.55 -9.4502v-114.2c0.450195 -53 33 -52 62 -52h279.05v-114.75c-56.6494 -7.7002 -312.05 -17 -312.05 -17c-65.2852 -2.90039 -169 11.9004 -169 146.9z" />
    <glyph glyph-name="Imacron" unicode="&#x12a;" horiz-adv-x="245" 
d="M-15.25 797v79.5h292v-79.5h-292zM60.75 0v732h140v-732h-140z" />
    <glyph glyph-name="Ncommaaccent" unicode="&#x145;" horiz-adv-x="678" 
d="M283.435 -174.4v78.3008c0 16.1992 8.10059 24.2998 22.5 24.2998h75.6006c16.2002 0 21.5996 -10.7998 21.5996 -24.2998v-110.7c0 -99.8555 -115.2 -69.2998 -115.2 -69.2998v43.6494c27 -0.899414 27.9004 13.5449 27.9004 22.9502v12.5996h-9.90039
c-12.5996 0 -22.5 7.2002 -22.5 22.5zM60.75 0v732h142l290.45 -473v473h140v-732h-140l-291.45 467.5v-467.5h-141z" />
    <glyph glyph-name="Omacron" unicode="&#x14c;" horiz-adv-x="671" 
d="M198.05 797v79.5h292v-79.5h-292zM49.5996 361c0 343 126.45 376 294.45 376c173 0 293.55 -33 293.55 -376c0 -323 -113.55 -365 -293.55 -365s-294.45 32 -294.45 365zM189.6 361c0 -199.8 29.4502 -236 154.45 -236c117.5 0 153.55 38.7002 153.55 236
c0 228.05 -42.2998 247 -153.55 247c-108.25 0 -154.45 -14 -154.45 -247z" />
    <glyph glyph-name="Kcommaaccent" unicode="&#x136;" horiz-adv-x="628" 
d="M252.535 -174.4v78.3008c0 16.1992 8.09961 24.2998 22.5 24.2998h75.5996c16.2002 0 21.6006 -10.7998 21.6006 -24.2998v-110.7c0 -99.8555 -115.2 -69.2998 -115.2 -69.2998v43.6494c27 -0.899414 27.8994 13.5449 27.8994 22.9502v12.5996h-9.89941
c-12.6006 0 -22.5 7.2002 -22.5 22.5zM60.75 0v732h134.5v-306h58.9004l185.449 306h163.15l-223.95 -366.65l223.95 -365.35h-163.15l-185.449 302.5h-57.9004v-302.5h-135.5z" />
    <glyph glyph-name="Uogonek" unicode="&#x172;" horiz-adv-x="664" 
d="M313.9 -1.7998h55.5c-79.7002 -59.75 -46.8506 -112.4 8.5 -110v-76.5c-106.2 -25.9004 -206.301 114.8 -64 186.5zM60.75 320v412h140v-412c0 -167.35 37.0996 -196 142 -196c93.5 0 136 34.4502 136 196v412h141v-412c0 -323 -156 -325 -277 -325
c-136 0 -282 -8 -282 325z" />
    <glyph glyph-name="Utilde" unicode="&#x168;" horiz-adv-x="664" 
d="M168.275 850.05c31.75 34.6504 71.5 69.5 120.75 69.5c46.6992 -1.34961 71.8496 -34.5498 106.449 -35c32.8008 -1.5498 65.6006 17.9004 92.1006 38.2002l24.2002 -59.5996c-26.9502 -29.4004 -66.4004 -68.8506 -113.351 -67.9502
c-48.8496 1.34961 -74.2998 35 -111.95 34.5498c-41.25 -0.450195 -60.1992 -15.5 -93.8994 -35zM60.75 320v412h140v-412c0 -167.35 37.0996 -196 142 -196c93.5 0 136 34.4502 136 196v412h141v-412c0 -323 -156 -325 -277 -325c-136 0 -282 -8 -282 325z" />
    <glyph glyph-name="Umacron" unicode="&#x16a;" horiz-adv-x="664" 
d="M194.25 797v79.5h292v-79.5h-292zM60.75 320v412h140v-412c0 -167.35 37.0996 -196 142 -196c93.5 0 136 34.4502 136 196v412h141v-412c0 -323 -156 -325 -277 -325c-136 0 -282 -8 -282 325z" />
    <glyph glyph-name="amacron" unicode="&#x101;" horiz-adv-x="519" 
d="M124.25 601v79.5h292v-79.5h-292zM30.0996 135.35v50c0 77.25 41.75 145.65 155.551 145.65c0 0 156 -1 156 0c0 0 1 33 0 34c0 56.5996 -26.5 65.5 -71 65.5c-46.1504 0 -179.351 -8.2998 -223 -11.4502v86.4502c69.8994 27.1504 142.949 35.0498 241.949 35.5
c114.351 0.450195 192.051 -39.0498 192.051 -170.5v-370.5h-110.551l-29.4492 58.5c-5.85059 -11.5498 -80.4004 -66.1504 -161.5 -64.5c-102.15 2.75 -150.051 72.2998 -150.051 141.35zM170.1 155.2c0 -44.1504 23.9004 -48.7002 49.6504 -48.7002
c58.5498 0 121.9 41.0996 121.9 41.0996v97.3506l-128.5 -9.9502c-36.9502 -3.4502 -43.0508 -30.7998 -43.0508 -54v-25.7998z" />
    <glyph glyph-name="iogonek" unicode="&#x12f;" horiz-adv-x="227" 
d="M89.9746 0.293945h55.5c-79.6992 -59.75 -46.8496 -112.4 8.5 -110v-76.5c-106.199 -25.9004 -206.3 114.8 -64 186.5zM37.9004 609.85v88.6504c0 15 8 25 24 25h105c15 0 22.4492 -11 22.4492 -25v-88.6504c0 -15 -8.44922 -23 -22.4492 -23h-105c-14 0 -24 9 -24 23z
M42.9502 0v531h140v-531h-140z" />
    <glyph glyph-name="edotaccent" unicode="&#x117;" horiz-adv-x="525" 
d="M211.85 619v76c0 15 8 25 24 25h72c15 0 23 -11 23 -25v-76c0 -15 -9 -23 -23 -23h-72c-14 0 -24 9 -24 23zM37.9004 268c0 228.2 63.5996 267 232 267c153.6 0 225 -17.5 225 -193.5c0 -94.5996 -52 -133 -148 -133h-169c0 -95.8496 36.1992 -101.55 112 -101.55
c81 0 120 -0.450195 195 10.5498v-94.5c-74.9502 -27.9502 -189 -28 -272 -28c-135 0 -175 78.2002 -175 273zM177.9 309h132.699c29.1504 0 44.3008 14.3496 44.3008 39.6504c0 67.0498 -9.55078 79.3496 -76.8506 79.3496c-73.9502 0 -101.25 -4.2998 -100.149 -119z" />
    <glyph glyph-name="imacron" unicode="&#x12b;" horiz-adv-x="230" 
d="M-30.2998 596v79.5h292v-79.5h-292zM45.7002 0v531h140v-531h-140z" />
    <glyph glyph-name="ncommaaccent" unicode="&#x146;" 
d="M216.285 -174.4v78.3008c0 16.1992 8.09961 24.2998 22.5 24.2998h75.5996c16.2002 0 21.6006 -10.7998 21.6006 -24.2998v-110.7c0 -99.8555 -115.2 -69.2998 -115.2 -69.2998v43.6494c27 -0.899414 27.8994 13.5449 27.8994 22.9502v12.5996h-9.89941
c-12.6006 0 -22.5 7.2002 -22.5 22.5zM45.7002 0v531h112.5l27.5 -56.5c45.5996 32.7998 87.5 65.5 168.5 65.5c123.6 0 158.5 -85.2998 158.5 -186.5v-353.5h-140v355.7c0 52.7998 -23.6006 71.7998 -58.6504 71.7998c-56.3496 0 -87.0996 -14.5 -128.35 -46v-381.5h-140z
" />
    <glyph glyph-name="omacron" unicode="&#x14d;" horiz-adv-x="560" 
d="M134.15 596v79.5h292v-79.5h-292zM37.9004 258c0 217 62.75 278 242.25 278c182.85 0 242.25 -67 242.25 -278c0 -197 -56.6504 -263 -242.25 -263c-183.4 0 -242.25 73 -242.25 263zM177.9 258c0 -137.4 27.8496 -150.5 102.25 -150.5
c78.8496 0 102.25 10.7002 102.25 150.5c0 148.75 -18.8008 165.5 -102.25 165.5c-82.8506 0 -102.25 -16.8496 -102.25 -165.5z" />
    <glyph glyph-name="kcommaaccent" unicode="&#x137;" horiz-adv-x="557" 
d="M215.435 -174.4v78.3008c0 16.1992 8.10059 24.2998 22.5 24.2998h75.6006c16.2002 0 21.5996 -10.7998 21.5996 -24.2998v-110.7c0 -99.8555 -115.2 -69.2998 -115.2 -69.2998v43.6494c27 -0.899414 27.9004 13.5449 27.9004 22.9502v12.5996h-9.90039
c-12.5996 0 -22.5 7.2002 -22.5 22.5zM45.7002 0v782h140v-429h29l150.75 178h177.25l-199.15 -231.5l199.15 -299.5h-166.25l-161.75 246h-29v-246h-140z" />
    <glyph glyph-name="uogonek" unicode="&#x173;" 
d="M422.95 -1.35645h55.5c-79.7002 -59.75 -46.8506 -112.399 8.5 -110v-76.5c-106.2 -25.8994 -206.3 114.8 -64 186.5zM37.9004 177.5v353.5h140v-355.7c0 -52.7998 23.5996 -71.7998 58.6494 -71.7998c56.3506 0 87.1006 14.5 128.351 46v381.5h140v-531h-112.5
l-27.5 56.5c-52.75 -31.7002 -87.5 -65.5 -168.5 -65.5c-123.601 0 -158.5 85.2998 -158.5 186.5z" />
    <glyph glyph-name="utilde" unicode="&#x169;" 
d="M99.6504 651.3c31.75 34.6504 71.5 69.5 120.75 69.5c46.6992 -1.34961 71.8496 -34.5498 106.449 -35c32.8008 -1.5498 65.6006 17.9004 92.1006 38.2002l24.2002 -59.5996c-26.9502 -29.4004 -66.4004 -68.8506 -113.351 -67.9502
c-48.8496 1.34961 -74.2998 35 -111.95 34.5498c-41.25 -0.450195 -60.1992 -15.5 -93.8994 -35zM37.9004 177.5v353.5h140v-355.7c0 -52.7998 23.5996 -71.7998 58.6494 -71.7998c56.3506 0 87.1006 14.5 128.351 46v381.5h140v-531h-112.5l-27.5 56.5
c-52.75 -31.7002 -87.5 -65.5 -168.5 -65.5c-123.601 0 -158.5 85.2998 -158.5 186.5z" />
    <glyph glyph-name="umacron" unicode="&#x16b;" 
d="M125.4 596v79.5h292v-79.5h-292zM37.9004 177.5v353.5h140v-355.7c0 -52.7998 23.5996 -71.7998 58.6494 -71.7998c56.3506 0 87.1006 14.5 128.351 46v381.5h140v-531h-112.5l-27.5 56.5c-52.75 -31.7002 -87.5 -65.5 -168.5 -65.5
c-123.601 0 -158.5 85.2998 -158.5 186.5z" />
    <glyph glyph-name="exclam.smcp" horiz-adv-x="272" 
d="M66.0498 23v90c0 15 8 25 24 25h88c15 0 23 -11 23 -25v-90c0 -15 -9 -23 -23 -23h-88c-14 0 -24 9 -24 23zM64.8994 570h140.7l-15.25 -386.5h-113.5z" />
    <glyph glyph-name="quotedbl.smcp" horiz-adv-x="443" 
d="M64.6504 533.7v67h134.5v-67l-10 -134h-112.95zM245.301 533.7v67h134.5v-67l-10 -134h-114.05z" />
    <glyph glyph-name="numbersign.smcp" horiz-adv-x="610" 
d="M15.0498 150.9l14.6016 95.5498h120.25l16.0498 93.7998h-121.15l14.1504 95.5498h121.6l24.5 146.85h96l-24.5 -146.85h95.9502l24.0498 146.85h96l-24.0498 -146.85h127.55l-14.1504 -95.5498h-128l-15.5996 -93.7998l127.35 -0.549805l-13.5 -95.5498h-129
l-25.0498 -150.8h-96l24.5996 150.8l-95.5 0.549805l-25.0498 -151.35h-96l24.5996 151.35h-119.7zM246.352 246.45h95.9492l15.1504 93.7998h-95.5z" />
    <glyph glyph-name="dollar.smcp" horiz-adv-x="520" 
d="M37.9004 374.8v34.2988c0 108.7 58 163.25 167.05 164.8v74.9004h88.2002v-78c53.5996 -4 121.25 -11.9004 163.35 -18.75v-101s-158.6 4.9502 -221.3 4.9502c-32.6504 0 -57.3008 -9.09961 -57.3008 -49.6494v-20.5498c0 -28.8496 17.5996 -42.6992 52.7998 -42.6992
h97.4004c118.1 0 152.25 -81.2998 152.25 -160.05v-33.5996c0 -132.7 -80.25 -159.9 -187.2 -158.101v-71.9004h-88.2002v75.3496c-55.25 3.90039 -127.3 10.9004 -146.85 18.9502v99.4502c13.5 0 139.65 -3.40039 228.351 -3.40039
c27.7002 0 53.4502 15.0498 53.4502 42.9502v24.7998c0 28.7002 -19.4502 43.4004 -50.2998 43.4004h-91.9004c-122.3 0 -159.8 66.8496 -159.8 153.85z" />
    <glyph glyph-name="percent.smcp" horiz-adv-x="923" 
d="M21.8496 349.45v90.0498c0 85 33.5 130.5 134.5 130.5h75.7998c98 0 132.5 -45.5 132.5 -130.5v-90.0498c0 -85 -33.5 -130.5 -134.5 -130.5h-75.7998c-98 0 -132.5 45.5 -132.5 130.5zM119.85 365.95c0 -34.1504 8.9502 -49 48.25 -49h48.2998
c44.7998 0 50.25 16.6504 50.25 49v57.0498c0 40.2002 -13.3496 49 -48.25 49h-48.2998c-38.2002 0 -50.25 -10.0498 -50.25 -49v-57.0498zM261.8 0l297.6 570h100.7l-294.3 -570h-104zM558.35 131.7v90.0498c0 85 34.0498 130.5 135.05 130.5h75.25
c98 0 132.5 -45.5 132.5 -130.5v-90.0498c0 -85 -33.5 -130.5 -134.5 -130.5h-75.25c-98 0 -133.05 45.5 -133.05 130.5zM656.35 148.2c0 -34.1504 8.9502 -49 48.25 -49h48.8496c44.7998 0 49.7002 16.6504 49.7002 49v57.0498c0 40.2002 -12.7998 49 -47.7002 49h-48.8496
c-38.2002 0 -50.25 -10.0498 -50.25 -49v-57.0498z" />
    <glyph glyph-name="ampersand.smcp" horiz-adv-x="595" 
d="M59.6504 66.4004c-62.9502 90.0996 -35.002 174.853 38.6982 238.402l55.9502 47.3496l-30.7998 39.7002c-63.5 82.7002 -7.0498 168.15 56.1504 178.25c74.9004 12.0996 176.601 -2.7002 236.351 -19.4004v-97h-128.6c-42.9004 0 -47.3008 -17 -23.6006 -46.5
l120.05 -153.2l97.2998 77.2998l51.5 -57.9004l-53.2998 -87.4004l-25.2002 -24.6504l122.95 -161.35h-150.7l-63.6504 79.7998l-49.5498 -46.9004c-53.0996 -47.5498 -184.949 -66.7002 -253.549 33.5zM162.448 138.104c16.5 -20.9502 47.6504 -36.251 78.6006 -7.05078
l47.5498 44.3496l-62.75 79.7002l-49.9004 -39.8496c-34.5996 -27.0996 -28.5498 -58.0996 -13.5 -77.1494z" />
    <glyph glyph-name="quotesingle.smcp" horiz-adv-x="263" 
d="M64.6504 533.7v67h134.5v-67l-10 -134h-113.5z" />
    <glyph glyph-name="asterisk.smcp" horiz-adv-x="426" 
d="M37.9004 399.75v56.5l139 23.5l4.5498 -85zM94.4502 249.95l25 136.649l82.4502 -20.8496l-53.9502 -132.75zM165.55 553.5l54.4004 19.3008l67.2998 -122.4l-79 -32.2002zM190.4 300.4l46.5 71.7998l112.2 -90.3496l-32.5498 -45.2002zM239.45 405.2l119 78.2998
l31.5498 -47.0996l-96.5 -97z" />
    <glyph glyph-name="zero.smcp" horiz-adv-x="570" 
d="M52.9502 162v246c0 112 77 162 172 162h126c154 0 167 -114 167 -162v-246c0 -119 -68 -162 -167 -162h-126c-91 0 -172 42 -172 162zM192.95 191.7c0 -51.5996 29.1006 -62.6992 62.8008 -62.6992h63.2998c45.8496 0 58.8994 25.2002 58.8994 63.25v181.1
c0 36.0996 -5.25 67.6494 -60 67.6494h-63.2998c-54 0 -61.7002 -30.0996 -61.7002 -67.0996v-182.2z" />
    <glyph glyph-name="one.smcp" horiz-adv-x="358" 
d="M30.0996 396.6v91.5l129 82.7998h138.9v-570.9h-140v431.9z" />
    <glyph glyph-name="two.smcp" horiz-adv-x="517" 
d="M30.0996 445.4l0.000976562 102.699c91 15.75 107.2 27.2998 236.8 27.2998c148.8 0 212.25 -70.1504 212.25 -198c0 -135.3 -131.65 -218.6 -190.601 -248.399h188.35v-129h-439.7v123c88.7002 51.4004 299.7 140.301 299.7 246.501
c0 54.8496 -22 77.6992 -107.95 76.3496c-22.5 0 -198.85 -0.450195 -198.85 -0.450195z" />
    <glyph glyph-name="three.smcp" horiz-adv-x="507" 
d="M22.8496 446.75l-0.000976562 104.25c69 24 193 24.5498 284 22c91.5 -2.5498 144 -67.0498 144 -144v-28.5c0 -57 -12.8496 -105.05 -55.9492 -116.5c43.5498 -21.6504 55.9502 -63.5 55.9502 -122.5v-20.5c0 -88.2998 -40.7998 -143.25 -149 -146
c-89 -2.2002 -205 -3 -274 21v105.25h225.35c28.9004 0 55.6504 5.7998 55.6504 41.75v14.4502c0 38.1504 -21.8496 45 -54.5 46l-178.5 5v111.75l178.5 4c40.25 1 56.5 7.75 56.5 44.75v16.9502c0 31.75 -18.9004 40.8496 -55.4004 40.8496h-232.6z" />
    <glyph glyph-name="four.smcp" horiz-adv-x="556" 
d="M15.0498 191.5l189.5 378.5h150.15l-157 -321h136v121l37 86h103v-207h68v-108.5l-68 -19v-119.5h-140v119.5h-277.5z" />
    <glyph glyph-name="five.smcp" horiz-adv-x="531" 
d="M57.8496 23v104.499h235.25c41.5 0 53.75 14.4004 53.75 46.8506v30.4004c0 28.25 -1.2998 46.25 -51 46.25h-64.5c-24.7002 0 -53 -10 -53 -47.5h-119.5l17 366.5h385v-129h-263.6l-6.90039 -107c18.75 20.0996 45.1504 28.5 69.5 28.5h63.5
c118 0 163.5 -56.4502 163.5 -158.5v-52c0 -117.95 -78.5 -152 -163.5 -153c-99 -1 -182.5 1 -265.5 24z" />
    <glyph glyph-name="six.smcp" horiz-adv-x="540" 
d="M49.5996 300c0 220 91.501 275.549 170.501 275.999s179.95 -2.14941 257.5 -14.999v-114h-224.5c-58.0996 0 -63.5 -63.7002 -63.5 -103.25c56.0996 9.65039 112.449 12 170.449 12c106 0 135.55 -64.3496 135.55 -141.25v-66.5c0 -105.75 -73.5498 -149 -146.55 -149
h-122.95c-106.45 0 -176.5 49 -176.5 301zM189.601 245.999c0 -47.0498 0.399414 -118 56.2998 -118h70.1504c25.6504 0 39.5508 5.90039 39.5508 40.5v43.25c0 29.5498 -11.6504 34.25 -39.5508 34.25h-126.45z" />
    <glyph glyph-name="seven.smcp" horiz-adv-x="477" 
d="M22.8496 441v129h391.2l40.75 -64.5l-188.25 -505.5h-151.2l165.5 441h-258z" />
    <glyph glyph-name="eight.smcp" horiz-adv-x="562" 
d="M56.8496 130l0.000976562 70c0 58 36.5498 68 67.5498 78c-50 17 -67.5498 71 -67.5498 112v43c0 117.55 54.7998 142 144.8 142h166c84.6504 0 139.2 -30.5 139.2 -142v-43c0 -17 -2 -81 -58 -93c42 -8 58 -63 58 -97v-70c0 -108.7 -80.9004 -130 -135.801 -130h-174.9
c-130.7 -0 -139.3 78.5498 -139.3 130zM196.851 158.8c0 -33.0498 10.6006 -39.7998 48.9004 -39.7998h77.9004c29.5996 0 43.1992 7.0498 43.1992 38.1494v37.5c0 30.7998 -13.25 40.2998 -41.2002 40.2998h-86.7002c-25 0 -42.0996 -6.0498 -42.0996 -38.6494v-37.5z
M196.852 382.149c0 -30 15.6484 -40.2998 41.5488 -40.2998h88.9004c38.2998 0 39.4502 20.5498 39.4502 38.6494v34c0 34.3496 -11.5 41.5 -41 41.5h-83.2998c-30.75 0 -45.5996 -1.75 -45.5996 -41.5v-32.3496z" />
    <glyph glyph-name="nine.smcp" horiz-adv-x="540" 
d="M45.7002 360.5v66.501c0 105.75 72.4502 149 145.45 149h124.05c106.45 -0.450195 176.5 -49 176.5 -301c0 -220 -80.5 -275.55 -159.5 -276s-190.05 -0.100586 -268.5 14.999v114h224.5c58.0996 0 63.5 63.7002 63.5 103.25c-63.7998 -10.2002 -113.55 -12 -171.55 -12
c-106 0 -134.45 64.3496 -134.45 141.25zM185.7 363.251c0 -29.5498 10.5508 -34.25 38.4512 -34.25h127.55c0 47.0498 -1.5 118 -57.4004 118h-70.1504c-25.6504 0 -38.4502 -5.90039 -38.4502 -40.5v-43.25z" />
    <glyph glyph-name="question.smcp" horiz-adv-x="468" 
d="M15.0498 441.8v113c65 11.0996 152 22.75 238 18.75c117.3 0 185 -52.5 185 -170.55v-31.7998c0 -107.05 -79.3496 -165 -187.5 -145.7c0 -0.900391 -0.900391 -40.2002 0 -42h-109v141c44 -1 69.1504 -0.900391 100.5 0c32.0498 0.900391 56 11 56 43.9502v23.5498
c0 35.7998 -19.8496 49.7998 -67 49.7998h-216zM128 23v90c0 15 8 25 24 25h86c18 0 25 -9 25 -25v-90c0 -18 -11 -23 -25 -23h-86c-14 0 -24 9 -24 23z" />
    <glyph glyph-name="at.smcp" horiz-adv-x="868" 
d="M49.5996 51.9004l-0.000976562 304.001c0 85.5 35 197 206.5 197h191.9c84.75 0 175 -20.0996 175 -156.5v-355.5h-90.0996l-19.5 58.5c-2 0 -63.9004 -67.5 -154.9 -67.5c-85 -0.900391 -128.45 65.5 -128 133.5v42c0 89.9004 53.1504 138.5 145.5 138.5
c50.9502 0 135.4 -1 135.4 0c0 0 1 42.4502 0 43c0 43.3496 -20.6504 51.5 -62 51.5h-193.3c-48 0 -94 -10 -94 -90v-287.5c0 -90 54 -108.5 94 -108.5h332.5c82 0 103 40.5 103 108.5v457c0 77 -42 116.75 -103 116.75h-404v85.5c48 10 178.5 28 304.5 27h99.5
c110.95 -0.900391 215.5 -60.8008 215.5 -229.251v-457c0 -147.5 -67.0498 -222 -210 -222h-338c-113 0 -206.5 59.25 -206.5 211zM348.499 182.951c0 -21 17 -39 46.7002 -38.5498c42.5 -0.450195 86.5498 15.7002 116.2 43v79l-119.4 -10.5
c-29.5498 -2.90039 -43.9502 -17.1504 -43.5 -46.1006c-0.549805 -1 -0.549805 -25.8496 0 -26.8496z" />
    <glyph glyph-name="a.smcp" horiz-adv-x="606" 
d="M26.75 0l200 570h167.5l186.5 -570h-147l-39.0996 116.25h-178.9l-42 -116.25h-147zM250.15 228.75h113.449l-54.0996 169.25z" />
    <glyph glyph-name="b.smcp" horiz-adv-x="548" 
d="M60.75 0v571h269.5c124 0 181.5 -56.2998 181.5 -153c0 -80.25 -33.5498 -117.1 -78.5 -127c41.3496 -9.59961 81.5 -49.5996 81.5 -129c0 -113.6 -58.5 -162 -184.5 -162h-269.5zM200.75 119h118.5c24.5498 0 53.8496 5.7998 53.8496 61.1494
c0 40.1504 -13.5996 64.1006 -53.8496 64.1006c0 0 -102.3 -0.900391 -118.5 0v-125.25zM200.75 345.75h118.5c41.4502 0 52.5 16.2998 52.5 55.75c0 41.75 -25.7002 51.5 -52.5 51.5h-118.5v-107.25z" />
    <glyph glyph-name="c.smcp" horiz-adv-x="514" 
d="M41.7998 295c0 166.45 42.7988 283 220.499 283c75.4502 0 162.351 -7.5 226.001 -30.5v-97.5c-15 3 -128 15.5 -193 15.5c-102 0 -113.5 -59 -113.5 -170.5c0 -95.9502 -1.5 -184.5 113.5 -186.5c79.0498 0.900391 193 14.9502 193 14.9502v-95.5
c-65.7002 -25.2998 -127.55 -31.9502 -226 -31.9502c-195.85 0 -220.5 140.1 -220.5 299z" />
    <glyph glyph-name="d.smcp" horiz-adv-x="590" 
d="M60.75 0v572h269c180.4 -2 219 -147.85 219 -289c0 -288.05 -140.3 -283 -219 -283h-269zM200.75 123.5h113.599c80.1504 0 94.4004 75.9004 94.4004 159.5c0 119.65 -36.7998 165.5 -94.3994 165.5h-113.6v-325z" />
    <glyph glyph-name="e.smcp" horiz-adv-x="512" 
d="M60.75 105v354c0 79.4502 53.75 110.9 126 112c0 0 241.35 -5.40039 292.5 -14.75v-107.75h-246.5c-30 0 -32 -9 -32 -33v-71.0498l242 -8v-105l-242 -7v-70.9502c0 -29 15 -32 36 -32h242.5v-107.3c-62.7002 -14.2998 -312.5 -16.2002 -312.5 -16.2002
c-63.75 1.09961 -106 35.75 -106 107z" />
    <glyph glyph-name="f.smcp" horiz-adv-x="512" 
d="M60.75 0v459c0 79.4502 51 110.9 126 112c0 0 241.35 -5.40039 292.5 -14.75v-107.75h-246.5c-30 0 -31.0996 -10.3496 -32 -33v-83.4004l242 -8v-105l-242 -7v-212.1h-140z" />
    <glyph glyph-name="g.smcp" horiz-adv-x="567" 
d="M41.7998 286c0 184 42.1006 288.049 202.001 292.999c73.7998 3.2998 205.55 -5.75 268.5 -25v-100.5c-77.9502 9.2998 -140.4 13 -213.5 13c-88.3496 0 -117 -19 -117 -178.5c0 -64.3496 2.75 -166.449 95 -166.999c53.5 0 99.5996 23.4502 109.5 46.5v66.75h-101v76.5
c40 11 93 19.5 174 19.5c21 0 43 -1 67 -3v-327.25h-105.5l-31.5 44c-35.4004 -35.0996 -80.5508 -51 -151.001 -51c-201.5 -0.450195 -196.5 243 -196.5 293z" />
    <glyph glyph-name="h.smcp" horiz-adv-x="586" 
d="M60.75 -1v571h140v-230.5h201v230.5h140v-571h-140v211.5h-201v-211.5h-140z" />
    <glyph glyph-name="i.smcp" horiz-adv-x="245" 
d="M60.75 0v570h140v-570h-140z" />
    <glyph glyph-name="j.smcp" horiz-adv-x="336" 
d="M26.75 21l1.80078 109.001c95.9004 -7.65039 121.25 7.64941 122.6 78.999v361h140v-405c0 -46 -6.09961 -120.05 -60.2998 -148.2c-67.7002 -34.7998 -155.101 -24.7998 -204.101 4.2002z" />
    <glyph glyph-name="k.smcp" horiz-adv-x="579" 
d="M60.75 -1v571h134.5v-232h56.5l142.5 232h159l-178.75 -290l178.75 -281h-159l-144.5 221h-54.5v-221h-134.5z" />
    <glyph glyph-name="l.smcp" horiz-adv-x="501" 
d="M60.75 119v451h140v-392c-0.450195 -49.0996 23.3496 -49 60 -49h215v-129h-296c-67.2998 -0 -119 37.0498 -119 119z" />
    <glyph glyph-name="m.smcp" horiz-adv-x="765" 
d="M41.7998 0l53.8994 571h181.2l107.5 -372.75l106.5 372.75h180.3l52.9004 -571h-137.45l-34.9502 359.6l-95.25 -359.6h-141.55l-97.7998 358.95l-35.4502 -358.95h-139.85z" />
    <glyph glyph-name="n.smcp" horiz-adv-x="601" 
d="M60.75 0v571h137l220 -316.3v316.3h139v-571h-136l-220 320.85v-320.85h-140z" />
    <glyph glyph-name="o.smcp" horiz-adv-x="598" 
d="M41.7998 280c0 244 91.25 295 257.25 295c163 0 258.25 -32 258.25 -288c0 -245 -90.25 -292 -258.25 -292c-161 0 -257.25 36 -257.25 285zM181.8 285c0 -139.7 26.8496 -161 117.25 -161c76.9502 0 118.25 13.6504 118.25 163c0 151.2 -32.0996 159 -118.25 159
c-74.0996 0 -117.25 -6 -117.25 -161z" />
    <glyph glyph-name="p.smcp" horiz-adv-x="529" 
d="M45.7002 0l0.000976562 568.999h276.5c94.9502 0 174 -41.5996 174 -178.5c0 -181.05 -99.3496 -193.899 -163 -194.999c-18.1504 -0.549805 -144.851 9.15039 -147.051 13v-208.5h-140.45zM186.151 302.499h117.35c28.4004 0 52.7002 9.5 52.7002 74.5
c1.34961 49.2998 -19.4502 74 -52.7002 74h-117.35v-148.5z" />
    <glyph glyph-name="q.smcp" horiz-adv-x="598" 
d="M41.7998 280c0 244 91.25 295 257.25 295c163 0 258.25 -32 258.25 -288c0 -245 -90.25 -292 -258.25 -292c-161 0 -257.25 36 -257.25 285zM181.8 285c0 -139.7 26.8496 -161 117.25 -161c76.9502 0 118.25 13.6504 118.25 163c0 151.2 -32.0996 159 -118.25 159
c-74.0996 0 -117.25 -6 -117.25 -161zM262.399 -33h79.5c31.2002 -53.3496 103.4 -44.2998 162.5 -28.25v-113c-100.6 -22.0498 -234.25 13.2002 -242 141.25z" />
    <glyph glyph-name="r.smcp" horiz-adv-x="549" 
d="M45.7002 0l0.000976562 569.899h270.55c91.3496 0 179.949 -33.0498 179.949 -178.05c0 -102.95 -27.5498 -163.4 -84.7002 -178.65l111.8 -213.2h-150l-93.3496 200.9c-13.5 0.900391 -93.7998 8.5 -94.25 9.40039v-210.3h-140zM185.701 302.949l117.35 0.000976562
c28.4004 0 53.1504 13.5498 53.1504 78.5498c0 60.0996 -32.9502 70.3994 -53.1504 70.3994h-117.35v-148.95z" />
    <glyph glyph-name="s.smcp" horiz-adv-x="543" 
d="M41.7998 368.5v46.9004c0 85.8496 33.3496 157.6 154.5 157.6c52 0 199.4 -6.59961 278.5 -22.75v-101s-144.2 6.75 -251 6.75c-32.2002 0 -42 -20.3496 -42 -43.3496v-33.1504c0 -34.7002 14.9004 -37.75 42 -37.75h137c109.55 0 141 -70.5 141 -153.75v-48
c0 -118.9 -65.6504 -150 -141 -150c-46.7998 0 -257.25 3.40039 -297 24.2002v99s158.1 -5.2002 258.5 -5.2002c32.2002 0 39.5 35.2998 39.5 35.2998v39.2002c0 25.0996 -10.9004 35.75 -39.5 35.75h-131.5c-111.05 0 -149 54.25 -149 150.25z" />
    <glyph glyph-name="t.smcp" horiz-adv-x="520" 
d="M26.75 441v129h468v-129h-164v-441h-140v441h-164z" />
    <glyph glyph-name="u.smcp" horiz-adv-x="600" 
d="M60.2002 260v310h141v-310c-0.450195 -116.9 36.5498 -136 109 -136c66.5498 0 104 21.2998 104 136v310h141v-310c0 -233 -124 -265 -245 -265c-136 0 -251 26 -250 265z" />
    <glyph glyph-name="v.smcp" horiz-adv-x="609" 
d="M26.75 570h147l134.4 -395.3l127.85 395.3h147l-190.55 -570h-167.5z" />
    <glyph glyph-name="w.smcp" horiz-adv-x="849" 
d="M26.75 570h147l112.05 -396.65l104.15 396.65h146.55l-47.2002 -159.9l84.7002 -236.75l105.95 396.65h144.3l-166.4 -570h-167.5l-62.1504 178.65l-56.2998 -178.65h-169.3z" />
    <glyph glyph-name="x.smcp" horiz-adv-x="590" 
d="M26.75 0l182.399 283.8l-179.3 286.2h170.35l95.5498 -175.2l98.75 175.2h170.8l-182.85 -287.85l179.3 -282.15h-164.6l-101.3 170.6l-100.1 -170.6h-169z" />
    <glyph glyph-name="y.smcp" horiz-adv-x="592" 
d="M26.75 570h152.5l119.5 -225l115.5 225h152.5l-199 -374.5v-196.5h-140v196.5z" />
    <glyph glyph-name="z.smcp" horiz-adv-x="500" 
d="M26.75 0v129l267.5 312h-267.5v129h448v-129l-258 -312h258v-129h-448z" />
    <glyph glyph-name="grave.smcp" horiz-adv-x="243" 
d="M15.0498 669.5h122.5l90.5 -138.5h-91z" />
    <glyph glyph-name="aogonek.smcp" horiz-adv-x="612" 
d="M483.05 0.84375h55.5c-79.7002 -59.75 -46.8496 -112.4 8.5 -110v-76.5c-106.2 -25.9004 -206.3 114.8 -64 186.5zM26.75 0l200 570h167.5l186.5 -570h-147l-39.0996 116.25h-178.9l-42 -116.25h-147zM250.15 228.75h113.449l-54.0996 169.25z" />
    <glyph glyph-name="rcommaaccent.smcp" horiz-adv-x="549" 
d="M215.435 -174.4v78.3008c0 16.1992 8.10059 24.2998 22.5 24.2998h75.6006c16.2002 0 21.5996 -10.7998 21.5996 -24.2998v-110.7c0 -99.8555 -115.2 -69.2998 -115.2 -69.2998v43.6494c27 -0.899414 27.9004 13.5449 27.9004 22.9502v12.5996h-9.90039
c-12.5996 0 -22.5 7.2002 -22.5 22.5zM45.7002 0v569.9h270.55c91.3496 0 179.95 -33.0508 179.95 -178.051c0 -102.949 -27.5498 -163.399 -84.7002 -178.649l111.8 -213.2h-150l-93.3496 200.9c-13.5 0.899414 -93.7998 8.5 -94.25 9.39941v-210.3h-140zM185.7 302.95
h117.35c28.4004 0 53.1504 13.5498 53.1504 78.5498c0 60.0996 -32.9502 70.4004 -53.1504 70.4004h-117.35v-148.95z" />
    <glyph glyph-name="itilde.smcp" horiz-adv-x="245" 
d="M-52.0996 685.3c31.75 34.6504 71.5 69.5 120.75 69.5c46.6992 -1.34961 71.8496 -34.5498 106.449 -35c32.8008 -1.5498 65.6006 17.9004 92.1006 38.2002l24.2002 -59.5996c-26.9502 -29.4004 -66.4004 -68.8506 -113.351 -67.9502
c-48.8496 1.34961 -74.2998 35 -111.95 34.5498c-41.25 -0.450195 -60.1992 -15.5 -93.8994 -35zM60.75 0v570h140v-570h-140z" />
    <glyph glyph-name="lcommaaccent.smcp" horiz-adv-x="501" 
d="M207.885 -174.4v78.3008c0 16.1992 8.10059 24.2998 22.5 24.2998h75.6006c16.1992 0 21.5996 -10.7998 21.5996 -24.2998v-110.7c0 -99.8555 -115.2 -69.2998 -115.2 -69.2998v43.6494c27 -0.899414 27.9004 13.5449 27.9004 22.9502v12.5996h-9.90039
c-12.5996 0 -22.5 7.2002 -22.5 22.5zM60.75 119v451h140v-392c-0.450195 -49.0996 23.3496 -49 60 -49h215v-129h-296c-67.2998 0 -119 37.0498 -119 119z" />
    <glyph glyph-name="dieresis.smcp" horiz-adv-x="448" 
d="M37.9004 581.55c0 32.4004 26.8496 58.7002 59.25 58.7002s58.25 -26.2998 58.25 -58.7002s-25.8496 -59.25 -58.25 -59.25s-59.25 26.8496 -59.25 59.25zM292.9 581.55c0 32.4004 26.8496 58.7002 59.25 58.7002s58.25 -26.2998 58.25 -58.7002
s-25.8496 -59.25 -58.25 -59.25s-59.25 26.8496 -59.25 59.25z" />
    <glyph glyph-name="scaron.smcp" horiz-adv-x="543" 
d="M118.95 768.5h93.4502l62.9492 -60l58.5508 60h93.5498l-101.8 -135.5h-104zM41.7998 368.5v46.9004c0 85.8496 33.3506 157.6 154.5 157.6c52 0 199.4 -6.59961 278.5 -22.75v-101s-144.2 6.75 -251 6.75c-32.2002 0 -42 -20.3496 -42 -43.3496v-33.1504
c0 -34.7002 14.9004 -37.75 42 -37.75h137c109.55 0 141 -70.5 141 -153.75v-48c0 -118.9 -65.6494 -150 -141 -150c-46.7998 0 -257.25 3.40039 -297 24.2002v99s158.101 -5.2002 258.5 -5.2002c32.2002 0 39.5 35.2998 39.5 35.2998v39.2002
c0 25.0996 -10.8994 35.75 -39.5 35.75h-131.5c-111.05 0 -149 54.25 -149 150.25z" />
    <glyph glyph-name="emacron.smcp" horiz-adv-x="512" 
d="M132 631.45v79.5h292v-79.5h-292zM60.75 105v354c0 79.4502 53.75 110.9 126 112c0 0 241.35 -5.40039 292.5 -14.75v-107.75h-246.5c-30 0 -32 -9 -32 -33v-71.0498l242 -8v-105l-242 -7v-70.9502c0 -29 15 -32 36 -32h242.5v-107.3
c-62.7002 -14.2998 -312.5 -16.2002 -312.5 -16.2002c-63.75 1.09961 -106 35.75 -106 107z" />
    <glyph glyph-name="gcommaaccent.smcp" horiz-adv-x="567" 
d="M41.7998 286c0 184 45.7012 288.049 208.301 292.999c73.7998 3.2998 199.25 -5.75 262.2 -25v-100.05c-50.0498 6.59961 -174.149 13 -204.949 13c-91.9502 0 -125.101 -17.2002 -125.101 -178.95c0 -88.2002 6.7998 -162.851 100.399 -166.101
c57.0996 -1.7998 89.6992 12.2002 103.649 38.4004v73.5h-107.75v76.9502c40 11 99.75 19.5 180.75 19.5c21 0 43 -1 67 -3v-327.25c-4.5 -1.34961 -99.2002 1.35059 -105.5 0.000976562l-31.5 39.5c-35.4004 -35.0996 -77.4004 -46.5 -147.851 -46.5
c-210.185 0 -199.649 243 -199.649 293zM237.986 -175.501v78.2998c0 16.2002 8.09961 24.2998 22.5 24.2998h75.5996c16.2002 0 21.5996 -10.7998 21.5996 -24.2998v-110.7c0 -99.8545 -115.199 -69.2998 -115.199 -69.2998v43.6504
c27 -0.900391 27.8994 13.5449 27.8994 22.9502v12.5996h-9.89941c-12.6006 0 -22.5 7.2002 -22.5 22.5z" />
    <glyph glyph-name="tbar.smcp" horiz-adv-x="498" 
d="M15.0498 441v129h468v-129h-164v-111h91.5v-65h-91.5v-265h-140v265h-94.5v65h94.5v111h-164z" />
    <glyph glyph-name="zcaron.smcp" horiz-adv-x="500" 
d="M96.5 765.5h93.4502l62.9502 -60l58.5498 60h93.5498l-101.8 -135.5h-104zM26.75 0v129l267.5 312h-267.5v129h448v-129l-258 -312h258v-129h-448z" />
    <glyph glyph-name="macron.smcp" horiz-adv-x="367" 
d="M37.9004 503.05v79.5h292v-79.5h-292z" />
    <glyph glyph-name="degree.smcp" horiz-adv-x="278" 
d="M37.9004 467c0 57 45.5498 103 101.55 103s101 -46 101 -103s-45 -102.45 -101 -102.45s-101.55 45.4502 -101.55 102.45zM96.4502 467c0 -23.9502 19.0498 -42.4502 43 -42.4502s42.4502 18.5 42.4502 42.4502s-18.5 43 -42.4502 43s-43 -19.0498 -43 -43z" />
    <glyph glyph-name="acute.smcp" horiz-adv-x="243" 
d="M15.0498 531l90.5 138.5h122.5l-122 -138.5h-91z" />
    <glyph glyph-name="caron.smcp" horiz-adv-x="384" 
d="M37.9004 680h88.0508l63.8496 -69l67.0996 69h89.5l-107.65 -149h-104zM238.751 531z" />
    <glyph glyph-name="eng.smcp" horiz-adv-x="601" 
d="M57.4502 0v570.999h137l220 -316.3v316.3h139v-571v-51c-1.34961 -122.8 -82.0996 -165.399 -225.5 -160.999v97.75c47 0 87.5 15.5 87.5 74.5v42.75l-218 317.85v-320.85h-140z" />
    <glyph glyph-name="amacron.smcp" horiz-adv-x="606" 
d="M164.5 630v79.5h292v-79.5h-292zM26.75 0l200 570h167.5l186.5 -570h-147l-39.0996 116.25h-178.9l-42 -116.25h-147zM250.15 228.75h113.449l-54.0996 169.25z" />
    <glyph glyph-name="aacute.smcp" horiz-adv-x="606" 
d="M265 630l90.5 138.5h122.5l-122 -138.5h-91zM26.75 0l200 570h167.5l186.5 -570h-147l-39.0996 116.25h-178.9l-42 -116.25h-147zM250.15 228.75h113.449l-54.0996 169.25z" />
    <glyph glyph-name="acircumflex.smcp" horiz-adv-x="606" 
d="M156.25 630l107.65 135.5h104l96.8496 -135.5h-93l-58.9004 60l-62.5996 -60h-94zM26.75 0l200 570h167.5l186.5 -570h-147l-39.0996 116.25h-178.9l-42 -116.25h-147zM250.15 228.75h113.449l-54.0996 169.25z" />
    <glyph glyph-name="atilde.smcp" horiz-adv-x="606" 
d="M138.75 685.3c31.75 34.6504 71.5 69.5 120.75 69.5c46.7002 -1.34961 71.8496 -34.5498 106.45 -35c32.7998 -1.5498 65.5996 17.9004 92.0996 38.2002l24.2002 -59.5996c-26.9502 -29.4004 -66.4004 -68.8506 -113.35 -67.9502
c-48.8506 1.34961 -74.3008 35 -111.95 34.5498c-41.25 -0.450195 -60.2002 -15.5 -93.9004 -35zM26.75 0l200 570h167.5l186.5 -570h-147l-39.0996 116.25h-178.9l-42 -116.25h-147zM250.15 228.75h113.449l-54.0996 169.25z" />
    <glyph glyph-name="adieresis.smcp" horiz-adv-x="606" 
d="M124.25 689.25c0 32.4004 26.8496 58.25 59.25 58.25s58.25 -25.8496 58.25 -58.25s-25.8496 -59.25 -58.25 -59.25s-59.25 26.8496 -59.25 59.25zM379.25 689.25c0 32.4004 26.8496 58.25 59.25 58.25s58.25 -25.8496 58.25 -58.25s-25.8496 -59.25 -58.25 -59.25
s-59.25 26.8496 -59.25 59.25zM26.75 0l200 570h167.5l186.5 -570h-147l-39.0996 116.25h-178.9l-42 -116.25h-147zM250.15 228.75h113.449l-54.0996 169.25z" />
    <glyph glyph-name="aring.smcp" horiz-adv-x="606" 
d="M209.675 668.75c0 57 46 103 102 103s101 -46 101 -103s-45 -102 -101 -102s-102 45 -102 102zM268.225 668.75c0 -23.9502 19.5 -42.4502 43.4502 -42.4502s42.4502 18.5 42.4502 42.4502s-18.5 43.4502 -42.4502 43.4502s-43.4502 -19.5 -43.4502 -43.4502zM26.75 0
l200 570h167.5l186.5 -570h-147l-39.0996 116.25h-178.9l-42 -116.25h-147zM250.15 228.75h113.449l-54.0996 169.25z" />
    <glyph glyph-name="ae.smcp" horiz-adv-x="803" 
d="M17.5 0l203.3 461.651c45.7002 109.55 169.05 107.35 263.05 108.35c0 0 237.3 -5.40039 288.45 -14.75v-107.75h-242.45c-30.4502 0 -32 -9.90039 -32.9004 -32.5508v-73.2998l238.85 -7.5498v-105l-238.85 -7.4502v-69.1504
c0 -29.4502 15.4502 -31.5498 36.9004 -31.5498l238.45 -0.450195v-107.3c-62.7002 -14.2998 -306.2 -15.75 -306.2 -15.75c-57.7998 -1.4502 -109.6 27.0498 -109.6 100.05v38.5h-126.05l-61.2002 -136h-151.75zM273.05 237.501h83.4502v183.4z" />
    <glyph glyph-name="iogonek.smcp" horiz-adv-x="245" 
d="M110.975 1.39355h55.5c-79.6992 -59.75 -46.8496 -112.399 8.5 -110v-76.5c-106.199 -25.8994 -206.3 114.8 -64 186.5zM60.75 0v570h140v-570h-140z" />
    <glyph glyph-name="ccaron.smcp" horiz-adv-x="514" 
d="M137.4 778.5h93.4492l62.9502 -60l58.5498 60h93.5508l-101.801 -135.5h-104zM41.7998 295c0 166.45 42.7998 283 220.5 283c75.4502 0 162.351 -7.5 226 -30.5v-97.5c-15 3 -128 15.5 -193 15.5c-102 0 -113.5 -59 -113.5 -170.5c0 -95.9502 -1.5 -184.5 113.5 -186.5
c79.0498 0.900391 193 14.9502 193 14.9502v-95.5c-65.7002 -25.2998 -127.55 -31.9502 -226 -31.9502c-195.85 0 -220.5 140.1 -220.5 299z" />
    </font>
</defs>
</svg>
