<?xml version="1.0" standalone="no"?>
<!DOCTYPE svg PUBLIC "-//W3C//DTD SVG 1.1//EN" "http://www.w3.org/Graphics/SVG/1.1/DTD/svg11.dtd" >
<svg xmlns="http://www.w3.org/2000/svg" xmlns:xlink="http://www.w3.org/1999/xlink" version="1.1">
<metadata>
Created by FontForge 20141024 at Thu Apr  2 11:35:33 2015
 By System Administrator
Copyright (c) 2011 Natanael Gama (exo@ndiscovered.com), with Reserved Font Name "Exo"
</metadata>
<defs>
<font id="Exo-Light" horiz-adv-x="546" >
  <font-face 
    font-family="Exo"
    font-weight="300"
    font-stretch="normal"
    units-per-em="1000"
    panose-1="2 0 3 3 0 0 0 0 0 0"
    ascent="800"
    descent="-200"
    x-height="531"
    cap-height="732"
    bbox="-100.88 -272.63 1333.56 1002"
    underline-thickness="50"
    underline-position="-50"
    stemh="57"
    stemv="57"
    unicode-range="U+000D-FB06"
  />
<missing-glyph horiz-adv-x="771" 
d="M650.8 506l-252 -240l252 -241v481zM133.8 13h507l-253 243zM120.8 22l256 244l-256 241v-485zM641.8 518h-511l257 -242zM106.8 0v531h558v-531h-558z" />
    <glyph glyph-name="fi" unicode="fi" horiz-adv-x="603" 
d="M22.3799 472.3v42.3799l98 14.6201v54.7002c0 118 70.2002 202 190.2 202c44.5801 0 130.82 -13.9004 185.601 -28.9004v-37.0996c-1 0 -172 9.98047 -172 9.98047c-73.8604 4 -146.801 -31.5195 -146.801 -145.979v-54.7002l364.4 -8.98047v-520.32h-57.6602v472.3
h-306.74v-472.3h-57v472.3h-98z" />
    <glyph glyph-name="fl" unicode="fl" horiz-adv-x="718" 
d="M22.3799 474v42.3809l98.6602 14.6201v53c0 108 43.3398 202 163.34 202h258.8v-595.98c0 -110.8 30.3203 -122.72 68.9004 -132c0 0 76.9004 -17.5996 83.9004 -17.5996v-39.4004h-80.8604c-90.5996 0 -128.939 51.0596 -128.939 189v540.3h-188.88
c-71.8203 0 -119.261 -32.2002 -119.261 -146.32v-53h146.34v-57h-147.66v-474h-57v474h-97.3398z" />
    <glyph glyph-name=".notdef" horiz-adv-x="771" 
d="M650.8 506l-252 -240l252 -241v481zM133.8 13h507l-253 243zM120.8 22l256 244l-256 241v-485zM641.8 518h-511l257 -242zM106.8 0v531h558v-531h-558z" />
    <glyph glyph-name=".notdef" horiz-adv-x="771" 
d="M650.8 506l-252 -240l252 -241v481zM133.8 13h507l-253 243zM120.8 22l256 244l-256 241v-485zM641.8 518h-511l257 -242zM106.8 0v531h558v-531h-558z" />
    <glyph glyph-name="uni000D" unicode="&#xd;" horiz-adv-x="969" 
 />
    <glyph glyph-name="space" unicode=" " horiz-adv-x="260" 
 />
    <glyph glyph-name="exclam" unicode="!" horiz-adv-x="265" 
d="M91.8604 19.2598v58.7002c0 12.6201 6.63965 20.5801 19.9199 20.5801h40.04c12.6201 0 19.2598 -8.95996 19.2598 -20.5801v-58.7002c0 -12.6201 -7.63965 -19.2598 -19.2598 -19.2598h-40.04c-11.6201 -0 -19.9199 7.63965 -19.9199 19.2598zM97.8604 731h66.2207
l-6.32031 -535h-53.5801z" />
    <glyph glyph-name="quotedbl" unicode="&#x22;" horiz-adv-x="339" 
d="M79.5596 665l-0.000976562 67h58v-67l-8.63965 -134h-39.7197zM202.658 665l-0.000976562 67h58v-67l-8.63965 -134h-39.7197z" />
    <glyph glyph-name="numbersign" unicode="#" horiz-adv-x="675" 
d="M22.3799 238.12l5.95996 38.4004h165.8l28.04 178.6h-165.8l6.95996 38.4004h164.8l38.3604 238.48h38.4004l-38.3604 -238.48h172.8l37.3604 238.48h38.4004l-37.3604 -238.48h177l-6.62012 -38.4004h-177.34l-28.04 -179.6h177l-5.95996 -38.4004h-177
l-37.6797 -237.12h-38.4004l37.6797 237.12l-172.8 1l-37.6797 -238.12h-38.4004l37.6797 238.12h-164.8zM232.54 276.521l171.8 -1l28.04 179.6h-171.8z" />
    <glyph glyph-name="dollar" unicode="$" horiz-adv-x="578" 
d="M61.46 494l0.00195312 66.002c1.32031 144.4 83.7002 178.04 195.8 178v86h44.4004v-88.3203c60.96 -4.32031 146.58 -15.3008 186.58 -19.9805v-42.7002c-54.7598 1.36035 -230.479 8.66016 -230.479 8.66016c-81.9004 3.33984 -139.301 -16.1201 -139.301 -121.66v-66
c0 -86.7998 55.0195 -106.5 118.619 -106.5h121.16c136.3 0 158.7 -81.5 158.7 -163.5v-68c0 -141.4 -107.94 -168.641 -215.28 -164.001v-81.3203h-44.4004v84.96c-61.9805 5.2998 -144.421 13.5996 -174.501 17.96v41.4004c41.3604 -1.36035 141.24 -6 234.24 -6
c60.04 0 142.94 12.4404 142.94 107v68c0 66.5195 -24.7998 106.5 -101.7 106.5h-120.48c-149.72 0 -176.3 87.2197 -176.3 163.5z" />
    <glyph glyph-name="percent" unicode="%" horiz-adv-x="954" 
d="M47.0996 474v133c0 85 28 125 129 125h101c98 0 127 -40 127 -125v-133c0 -85 -28 -125 -129 -125h-101c-98 0 -127 40 -127 125zM95.0996 474c0 -61.5801 21.46 -77 79 -77h101c64.46 0 81 17.04 81 77v133c0 58.8604 -18.7402 77 -79 77h-101
c-65.1396 0 -81 -17.04 -81 -77v-133zM232.1 0l438 732h54l-438 -732h-54zM550.899 127.34v133c0 85 28 125 129 125h101c98 0 127 -40 127 -125v-133c0 -85 -28 -125 -129 -125h-101c-98 0 -127 40 -127 125zM598.899 127.34c0 -61.5801 21.46 -77 79 -77h101
c64.46 0 81 17.04 81 77v133c0 58.8604 -18.7402 77 -79 77h-101c-65.1396 0 -81 -17.04 -81 -77v-133z" />
    <glyph glyph-name="ampersand" unicode="&#x26;" horiz-adv-x="642" 
d="M82.4199 82c-76.0195 96.7002 -51 210 36 284l86 73l-63 85c-79 107 -1.7002 193.56 69.6602 204.3c96.2803 12.0195 194.34 -0.280273 266.34 -13.54v-37.7598h-203c-88.7197 0 -147.479 -39.8799 -74.0596 -139l253.36 -343.16l127.6 129.2l18.2402 -18.5596
l-57.1201 -99.8604l-53.5801 -54.8604l109.18 -150.76h-68.6201l-82 111l-72 -67c-80.6602 -75 -218.26 -64.3604 -293 38zM130.46 113.5c47.4805 -61.8799 142.04 -88.2002 203.521 -30.4004l78.2998 73.2998l-175.38 235.2l-78 -65
c-83.4004 -69.0596 -81.2402 -144.239 -28.4404 -213.1z" />
    <glyph glyph-name="quotesingle" unicode="'" horiz-adv-x="160" 
d="M51.3965 665l-0.000976562 67h58v-67l-8.63965 -134h-39.7197z" />
    <glyph glyph-name="parenleft" unicode="(" horiz-adv-x="328" 
d="M83.8398 326c0 274 159 534 159 534h62.6396s-164.64 -262 -164.64 -534c0 -300 164.98 -536 164.98 -536h-62.9805s-159 220 -159 536z" />
    <glyph glyph-name="parenright" unicode=")" horiz-adv-x="327" 
d="M22.3799 -210c0 0 164.64 236 164.64 536c0 272 -164.64 534 -164.64 534h62.6396s159 -260 159 -534c0 -316 -159 -536 -159 -536h-62.6396z" />
    <glyph glyph-name="asterisk" unicode="*" horiz-adv-x="449" 
d="M56.1201 574.84l0.000976562 31.1602l140.02 20.5l3.2998 -57zM128.201 412.3l27.0596 134.66l56.3604 -12.5801l-54.5801 -131.36zM186.201 719.04l30.1602 11.9199l72.2803 -119.7l-53.04 -24.2002zM218.541 482.46l31.1406 48.7402l112.72 -88.2803l-16.5801 -24.8604
zM261.882 564.54l117.28 78.3799l15.2598 -27.1797l-94.7402 -94.6201z" />
    <glyph glyph-name="plus" unicode="+" horiz-adv-x="517" 
d="M56.1201 327.5v57h173.4v174.4h57v-174.4h175.4v-57h-175.4v-174.4h-57v174.4h-173.4z" />
    <glyph glyph-name="comma" unicode="," horiz-adv-x="236" 
d="M79.5596 20.9199l-0.000976562 56.7188c0 14.9404 7.2998 22.2402 20.5801 22.2402h37.0596c14.9404 0 19.9209 -9.62012 19.9209 -22.2402v-97.4805c0 -76.2998 -73.5801 -61.3594 -73.5801 -61.3594v23.1602c24.9004 -0.660156 25.9004 16.2598 25.9004 25.5596
v32.4805h-9.2998c-11.6201 0 -20.5801 6.98047 -20.5801 20.9209z" />
    <glyph glyph-name="hyphen" unicode="-" horiz-adv-x="348" 
d="M22.3799 261.5v57h303.8v-57h-303.8z" />
    <glyph glyph-name="period" unicode="." horiz-adv-x="238" 
d="M79.5596 19.2598v58.7002c0 12.6201 6.63965 20.5801 19.9199 20.5801h38.7197c14.5996 0 20.5801 -7.63965 20.5801 -20.5801v-58.7002c0 -14.5996 -8.95996 -19.2598 -20.5801 -19.2598h-38.7197c-11.6201 -0 -19.9199 7.63965 -19.9199 19.2598z" />
    <glyph glyph-name="slash" unicode="/" horiz-adv-x="384" 
d="M22.3799 -72l281 842h58.5996l-281 -842h-58.5996z" />
    <glyph glyph-name="zero" unicode="0" horiz-adv-x="649" 
d="M78.1602 162v408c0 108 77 162 172 162h153.8c122 0 167.34 -74.2998 167.34 -162v-408c0 -119 -68.3398 -162 -167.34 -162h-153.8c-91 0 -172 42 -172 162zM135.16 162c0 -75.5 52.7207 -105 115.001 -105h153.8c77.5996 0 110.34 40.46 110.34 105v408
c0 60.96 -28.8604 105 -110.341 105h-153.8c-76.46 0 -115 -43.4004 -115 -105v-408z" />
    <glyph glyph-name="one" unicode="1" horiz-adv-x="359" 
d="M44.7598 607.6v39.4004l168 85h57v-732h-57v667.38z" />
    <glyph glyph-name="two" unicode="2" horiz-adv-x="597" 
d="M44.7598 684v41.3994c102.34 13 203.2 16.5996 293.8 16.5996c145.68 0 203 -100.52 203 -210c0 -190.9 -317.3 -429.4 -382.16 -475h382.16v-57h-489.8v52.7002c105.26 75.7002 431.8 314.96 431.8 480.96c0 95.4404 -48.5596 150.341 -146.34 150.341h-292.46z" />
    <glyph glyph-name="three" unicode="3" horiz-adv-x="596" 
d="M33.4004 677l-0.000976562 35.1191c78.4805 24.2002 190.801 23.8799 307.801 21.8799c113.06 -2 171.34 -73 171.34 -165v-69c0 -83.8799 -47.7598 -124.42 -84.3594 -135.66c37.9404 -18.8604 84.3604 -58.8203 84.3604 -144.34v-59c0 -109 -56 -168 -178 -168
c-114 0 -223.8 -0.959961 -295.14 22.2197l1.33984 35.7803h289.16c61.8398 0 123.64 14.7803 123.64 110v59c0 85.4805 -63.9805 112.841 -119 114.841l-233.14 7v43.04l233.14 8.63965c72.0596 2.32031 121 37.3203 121 106.48v69c0 76.5596 -57.4404 108 -119.641 108
h-302.5z" />
    <glyph glyph-name="four" unicode="4" horiz-adv-x="593" 
d="M22.3799 228.42l316.24 503.581h67.2598l-297.74 -476.86h315.96v216.86l27.8203 75h29.1797v-291.86h90v-43.7002l-90 -15.9404v-193.5h-57v193.5h-375.2z" />
    <glyph glyph-name="five" unicode="5" horiz-adv-x="618" 
d="M85.1797 15.2402v41.0596h304c69.3398 0 106.66 48.6602 106.66 111.7v104.9c0 38.7803 -5.41992 111 -107 111h-153.66c-46.1396 0 -96.6201 -33.9199 -96.6201 -92h-51.7197l22 440.1h422.34v-57h-369.64l-13.7002 -276.34c11.96 16.3203 45.4004 39.6006 91 42.2402
c60.46 4.62012 119.34 0 150.34 0c118 0 163.66 -69 163.66 -166v-108.9c0 -137 -101.66 -170 -163.66 -170c-124 0 -191.08 0.660156 -304 19.2402z" />
    <glyph glyph-name="six" unicode="6" horiz-adv-x="627" 
d="M72.8203 384c0 262.62 85.9404 354.001 172 354.001c101 0 208.36 -4.63965 291.801 -15.5996v-41.4004h-282.2c-103.24 0 -123.28 -184.9 -124.601 -278.42c85 10 195.8 17.5996 269.8 17.5996c135.32 0 161 -68.6201 161 -147.98v-124.2c0 -112 -67 -149 -161 -149
h-138.8c-109 0.660156 -188 74.0801 -188 385zM129.82 362.841c0 -115.08 9.44043 -306.839 131 -306.839h138.8c54.7402 0 105 13.0596 105 95.2793v120.92c0 75.96 -48.7998 90.6396 -105 90.6396h-269.8z" />
    <glyph glyph-name="seven" unicode="7" horiz-adv-x="542" 
d="M33.4004 675v57h451.86l23.2598 -39.5l-255.82 -692.5h-67.5996l251.2 675h-402.9z" />
    <glyph glyph-name="eight" unicode="8" horiz-adv-x="641" 
d="M83.8398 154l-0.000976562 98.3398c0 74.6797 50.4404 100.46 90.1006 109.04c-71.4805 19.6201 -90.1006 84.6201 -90.1006 137.62v65c0 134 73 173 176 173h135.8c107 0 162 -50 162 -173v-65c0.660156 -32.8799 -14.2197 -105.76 -80.7793 -117.02
c59.4404 -13.4004 81.4404 -80.1807 80.7803 -129.98v-98c0 -130 -99 -154 -163 -154h-134.8c-172 0 -176 113 -176 154zM140.839 151c0 -63.96 41.9199 -94 119 -94h134.8c49.1201 0 106 26.3799 106 94v105c0 73.6602 -56.96 89.5 -103 89.5h-148.8
c-46 0 -108 -20.7002 -108 -89.5v-105zM140.839 494c0 -78.5596 63.1201 -92.5 108 -92.5h148.8c81.1602 0 103 53.0996 103 92.5v68c0 86.2402 -34.4404 118 -105 118h-135.8c-79.2998 0 -119 -23.2402 -119 -118v-68z" />
    <glyph glyph-name="nine" unicode="9" horiz-adv-x="627" 
d="M67.1396 463.1l-0.000976562 124.199c0 112 67 149 161 149h138.8c109 -0.660156 188 -74.0801 188 -385c0 -262.62 -85.9404 -354 -172 -354c-101 0 -213.64 1.33984 -291.8 15.5996v41.4004h282.2c103.24 0 123.28 184.9 124.601 278.42
c-85 -10 -195.8 -17.5996 -269.8 -17.5996c-135.32 0 -161 68.6201 -161 147.98zM123.139 463.099c0 -75.96 48.7998 -90.6406 105 -90.6406h269.8c0 115.08 -9.44043 306.84 -131 306.84h-138.8c-54.7402 0 -105 -13.0596 -105 -95.2793v-120.92z" />
    <glyph glyph-name="colon" unicode=":" horiz-adv-x="239" 
d="M79.5596 19.2598v58.7002c0 12.6201 6.63965 20.5801 19.9199 20.5801h38.7197c14.5996 0 20.5801 -7.63965 20.5801 -20.5801v-58.7002c0 -14.5996 -8.95996 -19.2598 -20.5801 -19.2598h-38.7197c-11.6201 -0 -19.9199 7.63965 -19.9199 19.2598zM79.5596 451.7v59.04
c0 12.6201 6.63965 20.5801 19.9199 20.5801h38.7197c14.5996 0 20.5801 -7.63965 20.5801 -20.5801v-59.04c0 -14.5996 -8.95996 -18.9199 -20.5801 -18.9199h-38.7197c-11.6201 0 -19.9199 7.2998 -19.9199 18.9199z" />
    <glyph glyph-name="semicolon" unicode=";" horiz-adv-x="239" 
d="M79.5596 20.9199v56.7197c0 12.2998 7.95996 22.2402 20.5801 22.2402h37.0596c12.96 0 19.9199 -9.62012 19.9199 -22.2402v-97.4805c0 -76.2998 -73.5801 -61.3594 -73.5801 -61.3594v23.1602c24.9004 -0.660156 25.9004 16.2598 25.9004 25.5596v32.4805h-9.2998
c-11.6201 0 -20.5801 10.2803 -20.5801 20.9199zM80.8799 452.359v59.04c0 12.6201 6.63965 20.5801 19.9199 20.5801h38.7197c14.5996 0 20.5801 -7.63965 20.5801 -20.5801v-59.04c0 -14.5996 -8.95996 -18.9199 -20.5801 -18.9199h-38.7197
c-11.6201 0 -19.9199 7.2998 -19.9199 18.9199z" />
    <glyph glyph-name="less" unicode="&#x3c;" horiz-adv-x="476" 
d="M56.1201 324.54v59.5996l364.46 172.2v-61.9805l-288.92 -140.02l288.92 -150.36v-63.6396z" />
    <glyph glyph-name="equal" unicode="=" horiz-adv-x="471" 
d="M22.3799 212v57h427v-57h-427zM22.3799 438v57h427v-57h-427z" />
    <glyph glyph-name="greater" unicode="&#x3e;" horiz-adv-x="476" 
d="M56.1201 140.34v63.6396l288.92 150.36l-288.92 140.02v61.9805l364.46 -172.2v-59.5996z" />
    <glyph glyph-name="question" unicode="?" horiz-adv-x="537" 
d="M22.3799 681.34l-0.000976562 41.0605c93.8398 11.6396 167.68 19.8994 271.8 16.5996c153.7 1.01953 199 -80.2002 199 -185v-101c0 -135 -98.1396 -176.98 -251.159 -156.66v-101.34h-58.3398v148.4h129.76c67.7002 1.32031 123.4 31.04 123.4 109.6v101
c0 92.2803 -43.7402 127.34 -150.26 127.34h-264.2zM173.398 19.2607v58.7002c0 12.6201 6.63965 20.5801 19.9199 20.5801h40.3799c12.6201 0 18.9199 -8.95996 18.9199 -20.5801v-58.7002c0 -12.6201 -7.2998 -19.2598 -18.9199 -19.2598h-40.3799
c-11.6201 0 -19.9199 7.63965 -19.9199 19.2598z" />
    <glyph glyph-name="at" unicode="@" horiz-adv-x="851" 
d="M72.8203 0l0.000976562 348c0 36 2 164 168 164h209.9c71 0 153 -30 153 -140v-372h-42.4004l-11.6201 64c-2 0 -102.98 -73 -193.98 -73c-74 -2 -129 49 -128 117v53c0 80 46 133 129 133c74.46 0 191.32 -1 191.32 0c0 0 1 75.6602 0 76
c0 64.8398 -37.4805 85 -100.32 85h-206.9c-60.9199 0 -111 -19.1797 -111 -107v-348c0 -99.5195 61.4805 -120 111 -120h338.8c89.1396 0 120 40.4404 120 120v512c0 82.7803 -44.3799 131 -120 131h-398.9v35.7803c48 10 162 22.2197 288 21.2197h110.9
c106 -2 177 -63 177 -188v-512c0 -98 -39 -178 -177 -178h-338.8c-102 0 -168 62 -168 178zM284.722 114c0 -34.2598 33.0996 -66.6602 78 -66c59 -1 135.32 33.0596 185.32 57.0596v149.86l-186.32 -13.96c-40 -3.32031 -77.6602 -25.54 -77 -81.96
c-0.339844 -1 -0.339844 -44 0 -45z" />
    <glyph glyph-name="A" unicode="A" horiz-adv-x="666" 
d="M50.4404 0l270.699 732h60.4004l258.7 -732h-66.9199l-72.5195 220.66h-305.94l-75.5195 -220.66h-68.9004zM215.739 277.66h264.841l-129.9 371.6z" />
    <glyph glyph-name="B" unicode="B" horiz-adv-x="597" 
d="M89.5195 0v732.001h272.14c146.68 0 190 -97.1201 190 -187.62c0 -81.4805 -36.2998 -146.12 -104.58 -163.021c44 -10 108.24 -63.3604 108.24 -177.36c0 -102 -39.6602 -204 -193.66 -204h-272.14zM147.18 57.3408h214.48c58.54 0 136.66 19.1201 136.66 148.66
c0 80.1201 -49.9404 149.18 -136.66 148.5h-214.48v-297.16zM147.18 411.501l214.48 -0.000976562c81.1201 0 131.98 45.4404 133 132.881c1.36035 104.14 -62.2998 130.62 -133 130.62h-214.48v-263.5z" />
    <glyph glyph-name="C" unicode="C" horiz-adv-x="575" 
d="M61.46 368c0 232.64 43.2998 372 243.66 372c52 0 163.8 -11.6602 233.8 -24.6602v-43.7002c-1 0 -141.8 11.3604 -233.8 11.3604c-132.48 0 -186.66 -61.4199 -186.66 -317c0 -185.76 47.54 -315 187 -315c105 0 233.46 8.7002 233.46 8.7002v-43.7002
c-70 -13 -181.8 -22 -233.8 -22c-185 0 -243.66 159 -243.66 374z" />
    <glyph glyph-name="D" unicode="D" horiz-adv-x="661" 
d="M89.5195 0v732h265.54c225.34 0 259.66 -219 259.66 -369c0 -166 -69.3799 -363 -259.66 -363h-265.54zM146.52 58.9805h208.54c143.9 0 202.66 153.06 202.66 305.02c0 221.48 -75.7803 311 -202.66 311h-208.54v-616.02z" />
    <glyph glyph-name="E" unicode="E" horiz-adv-x="572" 
d="M89.5195 123v478.999c0 98 60.0225 132.712 126 130l309.54 -13.96v-43.04h-309.54c-55.4004 0 -69 -29.6797 -69 -73v-209.18l338.54 -8.2998v-43.7002l-338.54 -8.2998v-209.52c0.660156 -66.2598 41.1602 -69 79 -69h299.54v-42.3799l-299.54 -14.6201
c-66.0088 -3.42188 -136 13 -136 126z" />
    <glyph glyph-name="F" unicode="F" horiz-adv-x="572" 
d="M89.5195 0v601.999c0 98 60.0225 132.712 126 130l309.54 -13.96v-43.04h-309.54c-55.4004 0 -69 -29.6797 -69 -73v-209.18l338.54 -8.2998v-43.7002l-338.54 -8.2998v-332.52h-57z" />
    <glyph glyph-name="G" unicode="G" horiz-adv-x="616" 
d="M61.46 370c0 200 29.5596 370.001 228.56 370.001c52 0 182.3 -14 252.3 -27v-45.4004c-6 0 -155 15.4004 -252.3 15.4004c-143.56 0 -171.56 -107.9 -171.56 -315c0 -230.84 40.6602 -315.34 175.9 -316.66c76.6797 -0.660156 207.3 47.3594 207.3 47.3594v232.3
h-183.64v37.7598c40 11 91.6396 20.2402 172.64 20.2402c21 0 44 -1 68 -3v-386h-41.7197l-13.2803 50.7002c-35.2803 -19.2998 -119.3 -55.7002 -209.3 -55.7002c-207 -2 -232.9 164.7 -232.9 375z" />
    <glyph glyph-name="H" unicode="H" horiz-adv-x="646" 
d="M89.5195 0v732h57v-349.5h380.6v349.5h57v-732h-57v325.5h-380.6v-325.5h-57z" />
    <glyph glyph-name="I" unicode="I" horiz-adv-x="209" 
d="M89.5195 0v732h57v-732h-57z" />
    <glyph glyph-name="J" unicode="J" horiz-adv-x="355" 
d="M39.0801 21l4 40.3994c78.7598 -21.0596 192.14 -47.2998 192.8 103.601v567h57v-567c0 -47 -3.7002 -114.66 -52 -147c-49.5996 -33.3203 -149.8 -31 -201.8 3z" />
    <glyph glyph-name="K" unicode="K" horiz-adv-x="591" 
d="M89.5195 0v732h57v-336.5h105.8l233.74 336.5h69.2598l-250.64 -365l250.64 -367h-69.5996l-233.74 338.5h-104.46v-338.5h-58z" />
    <glyph glyph-name="L" unicode="L" horiz-adv-x="557" 
d="M89.5195 126v606h57v-606c0 -66.2598 41.5 -69 79 -69h295.8v-57h-295.8c-66 0 -136 13 -136 126z" />
    <glyph glyph-name="M" unicode="M" horiz-adv-x="799" 
d="M61.46 0l59.2217 732h79.5596l201.12 -636.88l195.8 636.88h79.5801l65.5195 -732h-57l-57.2402 633.7l-196.16 -633.7h-59.3398l-201.48 633.7l-52.5801 -633.7h-57z" />
    <glyph glyph-name="N" unicode="N" horiz-adv-x="674" 
d="M89.5195 0v732h58.6602l407 -625.28v625.28h57v-732h-57l-408 625.28v-625.28h-57.6602z" />
    <glyph glyph-name="O" unicode="O" horiz-adv-x="675" 
d="M72.8203 361c0 343 109.199 376 278.56 376c173 0 277.24 -33 277.24 -376c0 -323 -97.2402 -365 -277.24 -365s-278.56 32 -278.56 365zM129.819 361c0 -270.94 56.4209 -308 221.561 -308c161.1 0 220.239 43.0195 220.239 308c0 307.5 -76.0801 319 -220.24 319
c-138.1 0 -221.56 -7.08008 -221.56 -319z" />
    <glyph glyph-name="P" unicode="P" horiz-adv-x="582" 
d="M67.1396 0v732h292.5c79 0 175.34 -28.9199 175.34 -207.92c0 -207.3 -101.34 -217.58 -175.34 -217.58c-40 0 -230.5 13.5996 -235.5 16.5996v-323.1h-57zM124.14 363.5h235.501c61.1797 0 118.02 18.7402 117.34 160.58
c-1.32031 138.82 -68.4004 149.92 -117.341 149.92h-235.5v-310.5z" />
    <glyph glyph-name="Q" unicode="Q" horiz-adv-x="675" 
d="M72.8203 361c0 343 105.24 376 277.24 376c173 0 278.56 -33 278.56 -376c0 -323 -98.5596 -365 -278.56 -365s-277.24 32 -277.24 365zM129.82 361c0 -270.94 55.1006 -308 220.24 -308c161.1 0 221.56 43.0195 221.56 308c0 307.5 -77.4004 319 -221.561 319
c-138.1 0 -220.239 -7.08008 -220.239 -319zM327.541 -33h39.0811c51.1201 -56.9199 112.38 -55.2803 170.72 -34.6201v-60.96c-72 -27 -192.44 -2.37988 -209.801 95.5801z" />
    <glyph glyph-name="R" unicode="R" horiz-adv-x="586" 
d="M67.1396 0v732h299.76c89.5596 0 171.38 -42.7803 171.38 -213.2c0 -189.32 -94.9199 -206.34 -137.88 -209.66l156.38 -309.14h-61.2998l-156.72 307.16c-18.0195 0.339844 -212.92 11.6201 -214.62 12.6396v-319.8h-57zM124.14 368.12l242.76 -0.000976562
c57.2197 0 113.38 7.82031 113.38 150.681c0 138.82 -58.5 155.2 -113.38 155.2h-242.76v-305.88z" />
    <glyph glyph-name="S" unicode="S" horiz-adv-x="584" 
d="M72.8203 494l0.000976562 65.999c0 145 84.2998 178 196.3 178c53 0 198.74 -16.2803 240.48 -22.2998v-44.0195c-64 4 -240.48 9.32031 -240.48 9.32031c-81.9033 3.2666 -139.301 -13.8604 -139.301 -121v-66c0 -95.4199 46.4199 -106.5 117.3 -106.5h132.48
c133 0 158.04 -81.5 158.04 -163.5v-68c0 -142 -100.28 -164 -199.28 -164c-49 0 -198.9 13.5996 -244.9 21.5996v44.7002c41.3604 -4 151.9 -9.2998 244.9 -9.2998c57.6602 0 142.28 9.13965 142.28 107v68c0 66.5195 -24.1396 106.5 -101.04 106.5h-130.48
c-158.3 0 -176.3 81.54 -176.3 163.5z" />
    <glyph glyph-name="T" unicode="T" horiz-adv-x="586" 
d="M45.6797 675v57h511.4v-57h-230.2v-675h-57v675h-224.2z" />
    <glyph glyph-name="U" unicode="U" horiz-adv-x="679" 
d="M89.5195 320v412h57v-412c0 -271.28 85.4404 -268 208.9 -268c107.84 0 203.24 6.75977 203.24 268v412h57.6602v-412c0 -323 -139.9 -325 -260.9 -325c-136 0 -265.9 -6.63965 -265.9 325z" />
    <glyph glyph-name="V" unicode="V" horiz-adv-x="666" 
d="M50.4404 732h62.3008l227.26 -645.96l237.94 645.96h62.2998l-270.7 -732h-60.4004z" />
    <glyph glyph-name="W" unicode="W" horiz-adv-x="965" 
d="M50.4404 732h62.3018l226.6 -638.7l202.76 638.7h64.2803l-79.9004 -256.78l143.2 -385.88l207.74 642.66h61.6201l-237.5 -732h-60.4004l-144.82 381.48l-126.78 -381.48h-60.4004z" />
    <glyph glyph-name="X" unicode="X" horiz-adv-x="585" 
d="M50.4404 732h64l188.84 -319.58l192.16 319.58h64l-218.38 -363.72l213.38 -368.28h-64l-187.16 317.86l-185.84 -317.86h-64l212.4 368.28z" />
    <glyph glyph-name="Y" unicode="Y" horiz-adv-x="626" 
d="M50.4404 732h62.6416l202.26 -403.38l222.26 403.38h62.6396l-256.4 -472v-260h-57v260z" />
    <glyph glyph-name="Z" unicode="Z" horiz-adv-x="558" 
d="M39.0801 0v57l408.58 618h-408.58v57h482.8v-57l-408.58 -618h408.58v-57h-482.8z" />
    <glyph glyph-name="bracketleft" unicode="[" horiz-adv-x="323" 
d="M95.2002 -38v708c0 60 15 172 136 172h69.7998v-57h-69.7998c-47.5195 0 -79 -39.7002 -79 -115v-708c0 -66.7998 25.7002 -115 79 -115h69.7998v-57h-69.7998c-121 0 -136 112 -136 172z" />
    <glyph glyph-name="backslash" unicode="\" horiz-adv-x="384" 
d="M22.3799 770h58.5996l281 -842h-58.5996z" />
    <glyph glyph-name="bracketright" unicode="]" horiz-adv-x="323" 
d="M22.3799 -153h69.7998c53.2998 0 79 48.2002 79 115v708c0 75.2998 -31.4805 115 -79 115h-69.7998v57h69.7998c121 0 136 -112 136 -172v-708c0 -60 -15 -172 -136 -172h-69.7998v57z" />
    <glyph glyph-name="asciicircum" unicode="^" horiz-adv-x="397" 
d="M56.1201 531l122.1 130h53.6602l109.44 -130h-52.9805l-84.2803 85.96l-94.2998 -85.96h-53.6396zM231.88 661z" />
    <glyph glyph-name="underscore" unicode="_" horiz-adv-x="668" 
d="M22.3799 -1v57h623.8v-57h-623.8z" />
    <glyph glyph-name="grave" unicode="`" horiz-adv-x="228" 
d="M22.3799 664h71.54l111.76 -133h-50.2998z" />
    <glyph glyph-name="a" unicode="a" horiz-adv-x="519" 
d="M44.7598 126v61c0 81.7002 50.3398 133 133 133c0 0 228.8 -1 228.8 0c0 0 1 66 0 67c0 63.7197 -30.9805 98.6602 -98.3203 99c-72 0.339844 -151.52 -6.36035 -246.479 -15.7402v40.4004c66.2402 17.96 149.46 29.3398 248.8 30.3398c83 1 153 -44 153 -154v-387
h-41.4004l-15.5996 64c-2 0 -135.42 -70 -228.8 -70c-73 0 -133 47 -133 132zM101.76 131c0 -60.5801 36.9004 -79.6602 76 -80c80 -0.679688 228.8 54.0605 228.8 54.0605v171.9l-228.8 -13.96c-55.9199 -3.66016 -76 -38.1006 -76 -79.9609v-52.04z" />
    <glyph glyph-name="b" unicode="b" horiz-adv-x="553" 
d="M67.1396 0v785h55v-286c64 26 152 40 197 40c151 0 178.4 -140 178.4 -276c0 -122 -33.4004 -269 -178.4 -269c-68 0 -170 44.2998 -196 65l-16.5996 -59h-39.4004zM123.14 100.06c53.6602 -23.7002 117 -49.0596 196 -49.0596c71.7998 0 121.399 67.04 121.399 212
c0 177.28 -50.5996 219 -121.399 219c-77 0 -127 -9.36035 -196 -27.3604v-354.58z" />
    <glyph glyph-name="c" unicode="c" horiz-adv-x="500" 
d="M56.1201 266c0 232 72.6602 270 174.66 270c52 0 150.52 -12.6602 217.8 -26v-40.4004s-128.8 9.40039 -217.8 9.40039c-70.54 0 -117.66 -18.8203 -117.66 -217c0 -171.02 40.9004 -210 117.66 -210c92 0 225.14 14.4004 225.14 14.4004v-42.4004
c-81 -23 -142.14 -28 -225.14 -29c-99 0 -174.66 38 -174.66 271z" />
    <glyph glyph-name="d" unicode="d" horiz-adv-x="553" 
d="M56.1201 263c0 136 27.0596 276 178.06 276c45 0 132.68 -14 196.68 -40v286h55.3203v-785h-39.4004l-16.5996 59c-26 -20.7002 -128 -65 -196 -65c-145 0 -178.06 147 -178.06 269zM113.12 263c0 -147.34 49.2598 -212.001 121.06 -212.001
c79 0 142.34 25.3604 196 49.0605v354.58c-69 18 -119 27.3604 -196 27.3604c-70.7998 0 -121.06 -40.3604 -121.06 -219z" />
    <glyph glyph-name="e" unicode="e" horiz-adv-x="525" 
d="M56.1201 268c0 235.98 63.2412 267 221.801 267c123.64 0 202.659 -12 202.659 -188c0 -77.6797 -44.0596 -113.5 -136.659 -113.5h-230.8c0 -151.18 36.5996 -181.5 117.659 -181.5c92 0 164.8 2.40039 239.8 13.4004v-42.4004c-81 -23 -156.8 -28.3398 -239.8 -28
c-135.34 0.679688 -174.66 69.0801 -174.66 273zM113.121 289.5h230.8c48.0801 0 79.6602 11.9199 79.6602 57.5c0 120.3 -33.5996 131 -145 131c-121.84 0 -165.46 -10.8604 -165.46 -188.5z" />
    <glyph glyph-name="f" unicode="f" horiz-adv-x="394" 
d="M22.3799 474v42.3799l93.5996 14.6201v99c0 54 3 156 112.8 156c42.54 0 98.8203 -6.28027 143.4 -19.5801v-36.7598c-0.660156 0 -129.46 0.660156 -129.46 0.660156c-65.3604 0.660156 -69.7402 -42.1201 -69.7402 -100.32v-99h158.2v-57h-158.2v-474h-57v474h-93.5996
z" />
    <glyph glyph-name="g" unicode="g" horiz-adv-x="560" 
d="M53.4404 116.7c0 31.9805 20.8906 71.9404 67.8408 77.9004c-54.2002 28.6797 -67.8604 94.3594 -67.8604 149.399c0 128.7 60.9004 189 172.66 189h312v-41.7197l-91.2002 -15.2803c13.3799 -18.2803 41.2002 -44.7207 41.2002 -132.001c0 -60 -23 -186.84 -165 -186.84
h-156c-16 0 -57.3203 -4.33984 -57.3203 -39.1797c0 -30.7598 30.085 -41.4795 54.2598 -41.4795h210.62c86.6455 0 134.439 -54.6602 134.439 -136.3v-59.5996c0 -60 -19 -150.6 -150 -150.6h-150c-94 0 -158.64 51.7002 -158.64 154v88.0596l30.4805 78.5996
c-20.8604 16.4297 -27.4805 43.46 -27.4805 66.04zM107.781 -116c0 -86.2598 64.6006 -97 101.301 -97h150c62.7402 0 93 30.6201 93 93.6006v56.2998c0 51.0801 -17.2344 82.9404 -86.0205 82.9404h-200.7c-38.8203 0 -57.5801 15.1396 -57.5801 15.1396v-150.98z
M110.422 344c0 -68.3799 28.9395 -129.5 108.659 -129.5h99.3604c89.5195 0 113.96 73.3203 112.64 129.5c-1.98047 84.96 -29.54 132 -98.6797 132h-109.72c-91.5195 0 -112.26 -62.3799 -112.26 -132z" />
    <glyph glyph-name="h" unicode="h" 
d="M67.1396 0l-0.00195312 783.999h57v-315c59.9805 36.0195 121.801 71 202.801 71c106 0 164 -82 164 -170v-370h-57v370c0 72.1201 -42.4199 113 -107 113c-82.7197 0 -126.819 -20.3398 -202.799 -58.3594v-424.64h-57z" />
    <glyph glyph-name="i" unicode="i" horiz-adv-x="187" 
d="M56.1201 618.7v56.7197c0 12.6201 6.63965 20.5801 19.9199 20.5801h36.7402c12.6201 0 18.9199 -8.95996 18.9199 -20.5801v-56.7197c0 -12.6201 -7.2998 -19.2598 -18.9199 -19.2598h-36.7402c-11.6201 0 -19.9199 7.63965 -19.9199 19.2598zM64.0801 -0v531h57v-531
h-57z" />
    <glyph glyph-name="j" unicode="j" horiz-adv-x="210" 
d="M67.1396 618.7v56.7197c0 12.6201 6.63965 20.5801 19.9199 20.5801h36.7402c12.6201 0 19.2598 -8.95996 19.2598 -20.5801v-56.7197c0 -12.6201 -7.63965 -19.2598 -19.2598 -19.2598h-36.7402c-11.6201 0 -19.9199 7.63965 -19.9199 19.2598zM76.4395 -270v801h57
v-535c1 -86 -0.320312 -183.28 -20.9004 -266h-36.0996z" />
    <glyph glyph-name="k" unicode="k" horiz-adv-x="499" 
d="M67.1396 0v782h57v-448.5h46.7998l225.1 197.5h80.9004l-251.64 -226.34l251.3 -304.66h-72.6201l-233.04 276.5h-46.7998v-276.5h-57z" />
    <glyph glyph-name="l" unicode="l" horiz-adv-x="299" 
d="M67.1396 189v593.999h57v-594c0 -110.8 36.2598 -125.359 68.8994 -131.999c0 0 76.9004 -17.5996 83.9004 -17.5996v-39.4004h-80.8604c-79.3799 -0 -128.939 51.0596 -128.939 189z" />
    <glyph glyph-name="m" unicode="m" horiz-adv-x="909" 
d="M67.1396 0l0.000976562 531h39.0801l17.9199 -63.3203c59.9805 36.0195 118.5 70.3398 198.18 70.3398c66.0195 0 121.619 -30.7002 145.639 -79.3604c52 41.6396 135.54 79.3594 221.48 79.3594c96.7598 0 164 -73.4199 164 -170.66v-367.36h-57v367.36
c0 65.7998 -42.4199 113.66 -107 113.66c-80.7002 0 -140.2 -19.46 -207.9 -60.7598c3.40039 -8.16016 5.44043 -42.4004 5.44043 -51.5801v-368.68h-57v367.36c0 65.7998 -43.0801 113.66 -107.66 113.66c-80.7402 0 -122.2 -19.6797 -198.18 -57.6992v-423.32h-57z" />
    <glyph glyph-name="n" unicode="n" 
d="M67.1396 0l-0.00195312 530.999h39.0801l17.9199 -62c59.9805 36.0195 121.801 71 202.801 71c106 0 164 -82 164 -170v-370h-57v370c0 70.4199 -43.0801 113 -107 113c-82.7197 0 -126.819 -20.3398 -202.799 -58.3594v-424.64h-57z" />
    <glyph glyph-name="o" unicode="o" horiz-adv-x="569" 
d="M56.1201 258c0 217 59.6602 278 228.561 278c176.96 0 229.24 -75.1602 229.24 -278c0 -195.98 -53.9805 -263 -229.24 -263c-177.98 0 -228.561 73 -228.561 263zM113.12 258c0 -188.56 60.3994 -206 171.56 -206c114.8 0 172.24 21.8203 172.24 206
c0 199.18 -53.8799 221 -172.24 221c-114.72 0 -171.56 -16.0596 -171.56 -221z" />
    <glyph glyph-name="p" unicode="p" horiz-adv-x="553" 
d="M67.1396 -269.32l-0.000976562 800.32h39.4004l16.2803 -59c26 20.7002 128.32 65 196.32 65c145 0 178.4 -147 178.4 -269c0 -136 -27.4004 -276 -178.4 -276c-45 0 -132.66 14 -196.66 40v-301.32h-55.3398zM122.818 76.3604c69 -18 119.32 -27.3594 196.32 -27.3594
c70.7998 0 121.399 41.7197 121.399 219c0 144.96 -49.5996 212 -121.399 212c-79 0 -142.66 -25.3604 -196.32 -49.0605v-354.58z" />
    <glyph glyph-name="q" unicode="q" horiz-adv-x="556" 
d="M56.1201 268c0 168 59 269.001 184 269.001c106 0 201.42 -13.9004 249.1 -19.2607v-787.74h-57v299c-64 -26 -147.1 -39 -192.1 -39c-153 0 -184 120 -184 278zM113.12 268.001c0 -112.16 9.59961 -221 127 -221c74 0 109.1 6.04004 192.1 27.04v405.96h-192.1
c-111.42 0 -127 -123.84 -127 -212z" />
    <glyph glyph-name="r" unicode="r" horiz-adv-x="425" 
d="M67.1396 0v531h38.4004l18.5996 -67c61 35 120.08 73 204.8 73c29 0 59.2803 -1.66016 74 -8v-56c-16.0801 3.67969 -45 6.33984 -74 6.33984c-83.0596 0 -127.8 -24.7402 -204.8 -61.7402v-417.6h-57z" />
    <glyph glyph-name="s" unicode="s" horiz-adv-x="505" 
d="M44.7598 359.7v46.001c0 82 35 130.3 138 130.3c52 0 198.8 -8.62012 250.8 -13.6201v-42.3799h-250.8c-70.7998 0 -81 -27.3799 -81 -74.2998v-46c0 -65.54 31.0801 -67.2002 81 -67.2002h147.8c83.2598 0 130 -48.9004 130 -123.9v-49c0 -109 -66 -124.6 -130 -124.6
c-49 0 -225.8 11.9404 -263.8 15.9404v41.0596h263.8c15.9805 0 73 -3.62012 73 67.5996v49c0 39.7598 -19.8203 66.8994 -73 66.8994h-147.8c-94 0 -138 21.2002 -138 124.2z" />
    <glyph glyph-name="t" unicode="t" horiz-adv-x="368" 
d="M22.3799 475v42.3994l93.9004 14.5996l14.5996 148h42.4004v-148h161.8v-57h-161.8v-285.68c0 -110.8 36.2598 -125.359 68.8994 -131.999c0 0 76.9004 -17.5996 83.9004 -17.5996v-39.4004h-80.8604c-79.3799 0 -128.939 51.0596 -128.939 189v285.68h-93.9004z" />
    <glyph glyph-name="u" unicode="u" 
d="M56.1201 161.34l0.000976562 370h57v-370c0 -70.4199 43.0801 -113 107 -113c82.7197 0 126.819 20.3398 202.8 58.3604v424.64h57v-531h-39.0801l-17.9199 62c-59.9805 -36.0195 -121.801 -71 -202.801 -71c-106 0 -164 82 -164 170z" />
    <glyph glyph-name="v" unicode="v" horiz-adv-x="530" 
d="M22.3799 531h61.6182l179.94 -447.84l182.62 447.84h61.6201l-216.06 -531h-57.6797z" />
    <glyph glyph-name="w" unicode="w" horiz-adv-x="793" 
d="M22.3096 531h62.5195l169.87 -448.07l155.49 448.07h61.5195l-60.5996 -179.57l122.6 -268.5l175.2 448.07h61.8604l-205.97 -531h-58.1602l-123.61 274.52l-96.5703 -274.52h-62.1797z" />
    <glyph glyph-name="x" unicode="x" horiz-adv-x="509" 
d="M26.7197 0l192.002 266l-192 265h71.5996l154.88 -217.26l157.52 217.26h71.5996l-193.32 -266.98l188.04 -264.02h-66.3203l-156.2 215.94l-156.2 -215.94h-71.5996z" />
    <glyph glyph-name="y" unicode="y" horiz-adv-x="545" 
d="M23.3799 531h62.2998l135.46 -415c24.46 -72.6396 78.9004 -56.6797 77.9004 -56.6797l158.46 471.68h63.2803l-233.66 -699l-65.1396 -102h-34.4404l91.6201 270c-21 0.339844 -86.6602 4.37988 -118.98 110z" />
    <glyph glyph-name="z" unicode="z" horiz-adv-x="462" 
d="M33.4004 474l0.000976562 57h396v-57l-306.44 -416h306.44c1 -1 0 -57 0 -57h-380.66v57l309.06 416h-324.4z" />
    <glyph glyph-name="braceleft" unicode="{" horiz-adv-x="314" 
d="M22.3799 306.8v53.4014c33 3 90 6.41992 90 59.7998v236c0 96 46.7998 186 179.8 186v-57c-71.5 0 -122.8 -27.46 -122.8 -129v-236c0 -48 -37 -78.0195 -83.2998 -86c46.2998 -6.66016 82.2998 -41 82.2998 -83v-289c0 -81.6602 46.6602 -117.641 123.8 -115.001v-57
c-149 0 -180.8 94 -180.8 172v285c0 44.04 -49 62.7998 -89 59.7998z" />
    <glyph glyph-name="bar" unicode="|" horiz-adv-x="248" 
d="M96.2002 -72v842h57v-842h-57z" />
    <glyph glyph-name="braceright" unicode="}" horiz-adv-x="314" 
d="M22.3799 -153c77.1396 -2.63965 123.8 33.3398 123.8 115v289c0 42 36 76.3398 82.2998 83c-46.2998 7.98047 -83.2998 38 -83.2998 86v236c0 101.54 -51.2998 129 -122.8 129v57c133 0 179.8 -90 179.8 -186v-236c0 -53.3799 57 -56.7998 90 -59.7998v-53.4004
c-40 3 -89 -15.7598 -89 -59.7998v-285c0 -78 -31.7998 -172 -180.8 -172v57z" />
    <glyph glyph-name="asciitilde" unicode="~" horiz-adv-x="449" 
d="M56.1201 572c37.96 31.9805 65.0195 64.5986 113.26 64.5986c42.2998 0 75.5195 -47.9199 112.8 -47.9199c39 0 70.4004 27.4004 95.3809 44.4199l16.5596 -30.0996c-29.04 -27.7197 -62.6797 -68.5996 -111.939 -68.5996c-43.9805 0 -77.8203 47.9199 -114.78 47.9199
c-38.6602 0 -60.0605 -22.0195 -96.0605 -40.0996z" />
    <glyph glyph-name="exclamdown" unicode="&#xa1;" horiz-adv-x="268" 
d="M92.8604 385.68v56.3994c0 11.96 8.2998 17.9199 19.9199 18.5801h36.0801c10.2998 -0.660156 19.9199 -8.94043 19.9199 -20.5605v-53.7598c-0.660156 -10.6396 -4.66016 -22.2393 -19.2598 -22.2393h-36.7402c-13.2803 0 -19.9199 9.2998 -19.9199 21.5801z
M98.54 -270.001l5.65918 532.7h53.5801l6.98047 -532.7h-66.2197z" />
    <glyph glyph-name="cent" unicode="&#xa2;" horiz-adv-x="489" 
d="M44.7598 266c0 239.34 75.6787 274.62 191.339 271.32v91.2402h45.7197v-94.8799c50 -4.98047 110.04 -14.3203 155.74 -23.6807v-40.4004s-128.8 10.7197 -217.8 10.7197c-70.54 0 -118 -20.1396 -118 -218.319c0 -171.02 41.2402 -211.319 118 -211.319
c92 0 224.8 14.4004 224.8 14.4004v-42.4004c-59.7598 -17.3604 -107.02 -24.0205 -162.739 -26.6807v-87.2402h-45.7197v84.9199c-114.28 -1.32031 -191.34 29.7051 -191.34 272.32z" />
    <glyph glyph-name="sterling" unicode="&#xa3;" horiz-adv-x="597" 
d="M56.1201 0v43.7002l72 13.2998v279.8h-72v34.46l72 13.9404v119.8c0 214 97 227 228 227c57 0 185.8 -13.6201 185.8 -13.6201v-42.3799h-183.8c-126.08 0 -173 -8.78027 -173 -171v-119.8l277.46 -13.9404v-34.46h-277.46v-279.8h355.46v-57h-484.46z" />
    <glyph glyph-name="currency" unicode="&#xa4;" horiz-adv-x="461" 
d="M57.1201 456.82l29.4609 26.8232l42.7002 -43.7002c27.0195 21.7197 61.3994 34.4199 98.1191 34.4199c39.3604 0 74.3799 -13.3398 102.06 -35.7002l46.9805 45.9805l26.1602 -29.7998l-45.9805 -45.6396c19.7598 -25.7002 31.4795 -58.4404 31.4795 -94.2002
c0 -37.7197 -11.7002 -73.0996 -32.4199 -101.46l47.9004 -47.9004l-31.1201 -27.4805l-44.5801 45.2598c-27.0195 -23.4004 -62.0791 -37.7803 -100.479 -37.7803c-37.7598 0 -71.5 14.0596 -97.8604 36.8193l-44.2803 -44.2803l-27.1396 30.4404l42.96 42.6396
c-21.3604 28.6797 -33.3799 65.04 -33.3799 103.74c0 37.0596 12.3799 70.1191 33.7803 97.1387zM109.761 313.344c0 -66.8398 50.7998 -124.32 117.64 -124.32s118.64 57.4805 118.64 124.32c0 65.8398 -52.7998 117.64 -118.64 117.64
c-64.5 0 -117.64 -53.1396 -117.64 -117.64z" />
    <glyph glyph-name="yen" unicode="&#xa5;" horiz-adv-x="594" 
d="M22.3799 732h63.3213l201.58 -354.32l219.26 354.32h65.6396l-255.4 -411h189.5v-43.7002h-190.5v-65.2998h190.5v-43.7002h-190.5v-168.3h-57v168.3h-179.5v43.7002h179.5v65.2998h-179.5v43.7002h178.5z" />
    <glyph glyph-name="brokenbar" unicode="&#xa6;" horiz-adv-x="249" 
d="M96.2002 -72v328h57v-328h-57zM96.2002 429v341h57v-341h-57z" />
    <glyph glyph-name="section" unicode="&#xa7;" horiz-adv-x="554" 
d="M62.1201 353l-0.000976562 61.999c0 48.9805 9.67969 83.0205 47.7393 93.001c-36.7197 9.32031 -48.3994 47 -48.3994 82v70c0 98 66 124 130 124c49 0 225.8 -11.9404 263.8 -15.9404v-41.0596h-263.8c-50.3203 0 -72.3398 -21.2197 -73 -67v-70
c0 -46.5 32.04 -55.5 73 -55.5h168.8c113 0 134 -44.5 133 -118.5v-62c0 -32.0801 -2.67969 -83.6797 -45.3994 -89c41.7402 -7.36035 44.4004 -49 44.4004 -82v-73c0 -109 -74 -118 -138 -118c-49 0 -217.8 11.9404 -255.8 15.9404v41.0596h255.8
c46.9199 0 80.3398 9.44043 81 61v73c0 47.4404 -15.2803 55.5 -75 55.5h-168.8c-80 0 -129.34 12.5 -129.34 114.5zM118.459 352.999c0 -55.54 21.7197 -57.5 73 -57.5h168.8c72.2598 0 75 16.2197 75 58.5c1 1 0 62 0 62c0 45.2002 -7.44043 62.5 -75 62.5h-168.8
c-53.54 0 -73 -4.62012 -73 -64.5v-61z" />
    <glyph glyph-name="dieresis" unicode="&#xa8;" horiz-adv-x="445" 
d="M56.1201 582c0 21.8799 17.5596 38.7803 39.4395 38.7803s38.7803 -16.9004 38.7803 -38.7803s-16.9004 -39.7803 -38.7803 -39.7803s-39.4395 17.9004 -39.4395 39.7803zM310.78 582c0 21.8799 17.9004 38.7803 39.7803 38.7803s38.7803 -16.9004 38.7803 -38.7803
s-16.9004 -39.7803 -38.7803 -39.7803s-39.7803 17.9004 -39.7803 39.7803z" />
    <glyph glyph-name="copyright" unicode="&#xa9;" horiz-adv-x="829" 
d="M61.46 368c0 163 39.7598 364 231.76 364h265.24c196 0 209.1 -240 209.1 -364c0 -193 -58.0996 -368 -209.1 -368h-265.24c-184 0 -231.76 234 -231.76 368zM108.46 368c-0.679688 -147.76 56.4785 -320.34 184.759 -321h265.24
c89.9004 0.660156 162.101 107.82 162.101 321c0 144.14 -24.2998 317 -162.1 317h-265.24c-96.4805 0 -183.74 -65.1396 -184.76 -317zM237.458 365c0 161 63 218 144 218c41 0 122 -11.6201 178 -21.6201v-37.3799c-63 9 -145 12 -178 12c-62.1602 0 -97 -54.04 -97 -174
c0 -98.6201 20.4805 -168 97 -168c72 0 144.92 8.95996 184 16v-37.3799c-64 -18 -117 -25.6201 -184 -25.6201c-79 0 -144 41 -144 218z" />
    <glyph glyph-name="ordfeminine" unicode="&#xaa;" horiz-adv-x="362" 
d="M33.4004 275.82v42.7002h295.84v-42.7002h-295.84zM33.4004 463.001v45.999c0 54 38 90 100 90c0 0 147.48 -1 147.48 0c0 0 1 31 0 32c0 45.1602 -26.4004 64.2803 -76.9805 64.2803c-54 0 -90.9404 -4 -158.5 -10.0596v31.1201
c49.8799 9.36035 91.5 21.6602 166.5 22.6602c62.6797 1 115.34 -30 115.34 -103v-258h-29.7998l-15.9004 49c-2 0 -86.7598 -53 -148.14 -53c-52 0 -100 31 -100 89zM80.1006 472.6c0 -38.5 25.1396 -52.2393 59.2998 -52.2393c60 0 141.48 37.4404 141.48 37.4404v108.1
l-141.48 -7.95996c-34.04 -1.98047 -59.2998 -17.9404 -59.2998 -54.9404v-30.4004z" />
    <glyph glyph-name="guillemotleft" unicode="&#xab;" horiz-adv-x="548" 
d="M56.1201 354l205.32 203.341l40.4404 -40.0996l-166.22 -163.24l171.56 -167.9l-40.4404 -40.4404zM241.44 354.001l206.001 203.341l39.7598 -40.0996l-166.22 -163.24l171.56 -167.9l-40.4404 -40.4404z" />
    <glyph glyph-name="logicalnot" unicode="&#xac;" horiz-adv-x="528" 
d="M56.1201 264.5v57h416.46v-162.5h-57v105.5h-359.46z" />
    <glyph glyph-name="uni00AD" unicode="&#xad;" horiz-adv-x="358" 
d="M22.3799 261.5v57h314v-57h-314z" />
    <glyph glyph-name="registered" unicode="&#xae;" horiz-adv-x="829" 
d="M61.46 368c0 163 39.7598 364 231.76 364h265.24c196 0 209.1 -240 209.1 -364c0 -193 -58.0996 -368 -209.1 -368h-265.24c-184 0 -231.76 234 -231.76 368zM108.46 368c-0.679688 -147.76 56.4785 -320.34 184.759 -321h265.24
c89.9004 0.660156 162.101 107.82 162.101 321c0 144.14 -24.2998 317 -162.1 317h-265.24c-96.4805 0 -183.74 -65.1396 -184.76 -317zM269.158 153l0.000976562 426.999h177c66 0 130.6 -21.3203 130.6 -127.32c0 -115.66 -67.4404 -117.54 -101.101 -123.18
l97.7998 -176.5h-53.2998l-97.7998 177.48l-106.2 9.62012v-187.1h-47zM316.159 372.199h135.999c57.4404 0 77.6006 13.3398 77.6006 79.4795c0 70.8203 -38.6797 81.3203 -77.5996 81.3203h-136v-160.8z" />
    <glyph glyph-name="macron" unicode="&#xaf;" horiz-adv-x="390" 
d="M56.1201 531v46.6797h278.4v-46.6797h-278.4z" />
    <glyph glyph-name="degree" unicode="&#xb0;" horiz-adv-x="314" 
d="M56.1201 632c0 57 46 103 102 103s100.66 -46 100.66 -103s-44.6602 -102 -100.66 -102s-102 45 -102 102zM91.9004 632c0 -36.1201 30.0996 -65.2197 66.2197 -65.2197s64.8799 29.0996 64.8799 65.2197s-28.7598 66.2197 -64.8799 66.2197
s-66.2197 -30.0996 -66.2197 -66.2197z" />
    <glyph glyph-name="plusminus" unicode="&#xb1;" horiz-adv-x="529" 
d="M62.7998 104v57h405.8v-57h-405.8zM62.7998 395.16v57h173.74v174.4h57v-174.4h175.06v-57h-175.06v-174.4h-57v174.4h-173.74z" />
    <glyph glyph-name="twosuperior" unicode="&#xb2;" horiz-adv-x="395" 
d="M35.4004 823.96c-2 0 -1.00098 35.7598 -0.000976562 34.7598c66 8 111 12.2803 183 12.2803c98 0 130 -58 130 -136c0 -123.98 -183.22 -265.66 -223.859 -298.96h222.86v-47.04h-309v43.04c67 54 260.64 189.34 260.64 299.96c0 58.4404 -19.0195 91.96 -89.9395 91.96
h-173.7z" />
    <glyph glyph-name="threesuperior" unicode="&#xb3;" horiz-adv-x="416" 
d="M33.4004 819.62l0.000976562 31.7803c53.2598 16.2598 119.34 14.5996 195.34 14.5996c87 0 121 -54.6201 121 -114.62v-35c0 -50.4004 -35.5801 -81.7402 -60.5605 -89.0205c24.96 -12.5801 60.5596 -41.5996 60.5596 -95.3594v-28c0 -71 -27.3398 -119 -126.34 -119
c-74 0 -134.1 -0.639648 -186 15.6201l0.660156 30.7598c21.1201 0 177.34 0.660156 177.34 0.660156c63.5195 0 86.96 19.04 86.96 75.96v23c0 54.0596 -42.1797 75.1396 -82.96 76.1396l-142 4.66016v34.4199l142 5.98047c50.7803 2 84.2998 27.0596 84.2998 70.46
v26.4199c0 53.2197 -34.8799 70.54 -81.5801 70.54h-188.72z" />
    <glyph glyph-name="acute" unicode="&#xb4;" horiz-adv-x="228" 
d="M22.3799 531l111.76 133h71.54l-133 -133h-50.2998z" />
    <glyph glyph-name="uni00B5" unicode="&#xb5;" horiz-adv-x="602" 
d="M100.88 161.34l0.000976562 370h57v-370c0 -70.4199 43.0801 -113 107 -113c82.7197 0 126.819 20.3398 202.8 58.3594v424.64h57v-531h-39.0801l-17.9199 62c-59.9805 -36.0195 -121.801 -71 -202.801 -71c-46.2002 0 -82.3203 16.8203 -107 42.6807v-304.02h-57v431.34
z" />
    <glyph glyph-name="paragraph" unicode="&#xb6;" horiz-adv-x="577" 
d="M44.7598 499v92.999c0 95 79 140 156 140h354.8v-59h-69v-673h-57v675h-117.8v-945h-57v639.62c-6.33984 -3.01953 -25 -15.6191 -54 -14.6191c-103 0 -156 66 -156 144zM101.76 500.999c0 -77.9805 71 -89 99 -89h54v263h-54c-71.7998 0 -99 -44.0801 -99 -85v-89z" />
    <glyph glyph-name="periodcentered" unicode="&#xb7;" horiz-adv-x="269" 
d="M95.2002 361.48v41.7002c0 12.6201 6.63965 20.5801 19.9199 20.5801h38.7197c14.5996 0 20.5801 -7.63965 20.5801 -20.5801v-41.7002c0 -14.5996 -8.95996 -19.2598 -20.5801 -19.2598h-38.7197c-11.6201 0 -19.9199 7.63965 -19.9199 19.2598z" />
    <glyph glyph-name="cedilla" unicode="&#xb8;" horiz-adv-x="257" 
d="M56.1201 -146.2l45.8604 11.6006c36.5 10.6396 49.6797 35.7998 49 97.5996h50c0 -101.32 -19.9805 -136 -101 -136h-43.8604v26.7998z" />
    <glyph glyph-name="onesuperior" unicode="&#xb9;" horiz-adv-x="265" 
d="M18.04 774.6v35.4004l128 55h47.04v-476h-47.04v424.34z" />
    <glyph glyph-name="ordmasculine" unicode="&#xba;" horiz-adv-x="386" 
d="M33.4004 550c0 142 34.2402 187 161.24 187s158.56 -45 158.56 -187c0 -128 -31.5596 -177 -158.56 -177s-161.24 49 -161.24 177zM44.7402 277.8v42.7002h297.82v-42.7002h-297.82zM79.7598 550c0 -117.1 36.2393 -130.64 114.879 -130.64
c78.9004 0 110.881 9.16016 112.201 130.641c1.32031 127.42 -29.8994 140.64 -112.199 140.64c-81.9004 0 -114.881 -8.16016 -114.881 -140.641z" />
    <glyph glyph-name="guillemotright" unicode="&#xbb;" horiz-adv-x="548" 
d="M56.1201 186.1l171.561 167.899l-166.22 163.24l39.7598 40.0996l206 -203.34l-210.66 -208.34zM241.44 186.099l171.56 167.899l-166.22 163.24l40.4404 40.0996l205.32 -203.34l-210.66 -208.34z" />
    <glyph glyph-name="onequarter" unicode="&#xbc;" horiz-adv-x="893" 
d="M18.04 641.6v35.4004l128 55h47.04v-476h-47.04v424.34zM217.28 0l360.92 744.92h49.0195l-360.92 -744.92h-49.0195zM490.9 154.56l202.539 319.78h53.6602l-182.02 -289.66h199.66v121l21.54 48h25.5v-169h59v-37.04l-59 -12.3203v-135.64h-47.04v135.64h-257.96z" />
    <glyph glyph-name="onehalf" unicode="&#xbd;" horiz-adv-x="963" 
d="M18.04 641.6v35.4004l128 55h47.04v-476h-47.04v424.34zM209.56 0l360.92 744.92h49.0195l-360.92 -744.92h-49.0195zM605.38 435.3c-2 0 -1.00098 35.7598 -0.000976562 34.7598c66 8 111 12.2803 183 12.2803c98 0 130 -58 130 -136
c0 -123.98 -183.22 -265.66 -223.859 -298.96h222.86v-47.04h-309v43.04c67 54 260.64 189.34 260.64 299.96c0 58.4404 -19.0195 91.96 -89.9395 91.96h-173.7z" />
    <glyph glyph-name="threequarters" unicode="&#xbe;" horiz-adv-x="1012" 
d="M33.4004 686.62l0.000976562 31.7803c53.2598 16.2598 119.34 14.5996 195.34 14.5996c87 0 121 -54.6201 121 -114.62v-35c0 -50.4004 -35.5801 -81.7402 -60.5605 -89.0205c24.96 -12.5801 60.5596 -41.5996 60.5596 -95.3594v-28c0 -71 -27.3398 -119 -126.34 -119
c-74 0 -134.1 -0.639648 -186 15.6201l0.660156 30.7598c21.1201 0 177.34 0.660156 177.34 0.660156c63.5195 0 86.96 19.04 86.96 75.96v23c0 54.0596 -42.1797 75.1396 -82.96 76.1396l-142 4.66016v34.4199l142 5.98047c50.7803 2 84.2998 27.0596 84.2998 70.46
v26.4199c0 53.2197 -34.8799 70.54 -81.5801 70.54h-188.72zM322.741 0l360.92 744.92h49.0195l-360.92 -744.92h-49.0195zM575.221 155.22l201.88 319.12h51.0195l-182.02 -291.64h205.26v123.64l19.2402 48h25.1602v-171.64h59.3398v-34.4004l-59.3398 -12.3203v-135.64
h-44.4004v135.64h-260.26z" />
    <glyph glyph-name="questiondown" unicode="&#xbf;" horiz-adv-x="538" 
d="M44.4199 20.6396c-1.32031 123.12 96.8223 174.34 249.842 154.02c0 1.98047 1.32031 97.3809 0 101.341h59.6602l0.660156 -148.4c-38.2803 0.660156 -92.1406 1.32031 -130.421 0c-67.7002 -1.32031 -111.521 -42.9199 -114.16 -111.58
c0 0 -0.660156 -87.4805 -0.660156 -100.681c0 -74.46 38.46 -128.32 141.68 -126.34c33 0 265.52 0.660156 265.52 0.660156c-1.98047 0 0 -41.7197 -1.32031 -41.0596c-93.8398 -11.6396 -167.68 -19.8994 -271.8 -16.5996c-164.92 -1.67969 -199 91.0801 -199 186.64v102
zM285.643 394.68l0.000976562 54.7412c0 11.96 9.28027 20.5801 19.5801 21.2402h36.4199c11.6201 -0.660156 19.9199 -7.64062 19.9199 -19.2607v-56.7197c-0.660156 -11.96 -6.64062 -19.9199 -17.9404 -20.5801h-41.04
c-11.2998 2.63965 -16.2803 10.2793 -16.9404 20.5791z" />
    <glyph glyph-name="Agrave" unicode="&#xc0;" horiz-adv-x="666" 
d="M193.19 930h71.54l111.76 -133h-50.2998zM50.4404 0l270.699 732h60.4004l258.7 -732h-66.9199l-72.5205 220.66h-305.939l-75.5205 -220.66h-68.8994zM215.74 277.66h264.84l-129.9 371.6z" />
    <glyph glyph-name="Aacute" unicode="&#xc1;" horiz-adv-x="666" 
d="M326.19 797l111.76 133h71.54l-133 -133h-50.2998zM50.4404 0l270.699 732h60.4004l258.7 -732h-66.9199l-72.5205 220.66h-305.939l-75.5205 -220.66h-68.8994zM215.74 277.66h264.84l-129.9 371.6z" />
    <glyph glyph-name="Acircumflex" unicode="&#xc2;" horiz-adv-x="666" 
d="M208.74 797l122.1 130h53.6602l109.44 -130h-52.9805l-84.9404 85.96l-93.6396 -85.96h-53.6396zM50.4404 0l270.699 732h60.4004l258.7 -732h-66.9199l-72.5205 220.66h-305.939l-75.5205 -220.66h-68.8994zM215.74 277.66h264.84l-129.9 371.6z" />
    <glyph glyph-name="Atilde" unicode="&#xc3;" horiz-adv-x="666" 
d="M182.34 834.6c37.96 31.9805 73.6006 61.96 113.92 61.96c46.2598 -1.97949 84.1006 -47.2598 113.46 -47.9199c29.1006 -0.65918 65.1201 24.1006 94.0605 41.7803l16.5596 -30.0996c-33 -27.7207 -69.9395 -63.9805 -111.939 -62.6602
c-51.2402 1.97949 -78.4805 47.9199 -113.46 47.2598c-41.96 -0.660156 -60.7207 -22.0195 -97.3809 -40.0996zM50.4404 0l270.699 732h60.4004l258.7 -732h-66.9199l-72.5205 220.66h-305.939l-75.5205 -220.66h-68.8994zM215.74 277.66h264.84l-129.9 371.6z" />
    <glyph glyph-name="Adieresis" unicode="&#xc4;" horiz-adv-x="666" 
d="M184.73 836.78c0 21.8799 17.5596 38.7793 39.4395 38.7793s38.7803 -16.8994 38.7803 -38.7793s-16.9004 -39.7803 -38.7803 -39.7803s-39.4395 17.9004 -39.4395 39.7803zM439.39 836.78c0 21.8799 17.9004 38.7793 39.7803 38.7793s38.7803 -16.8994 38.7803 -38.7793
s-16.9004 -39.7803 -38.7803 -39.7803s-39.7803 17.9004 -39.7803 39.7803zM50.4404 0l270.699 732h60.4004l258.7 -732h-66.9199l-72.5205 220.66h-305.939l-75.5205 -220.66h-68.8994zM215.74 277.66h264.84l-129.9 371.6z" />
    <glyph glyph-name="Aring" unicode="&#xc5;" horiz-adv-x="666" 
d="M250.01 832.167c0 57 46 103 102 103s100.66 -46 100.66 -103s-44.6602 -102 -100.66 -102s-102 45 -102 102zM285.79 832.167c0 -36.1201 30.0996 -65.2197 66.2197 -65.2197s64.8799 29.0996 64.8799 65.2197s-28.7598 66.2197 -64.8799 66.2197
s-66.2197 -30.0996 -66.2197 -66.2197zM50.4404 0l270.699 732h60.4004l258.7 -732h-66.9199l-72.5205 220.66h-305.939l-75.5205 -220.66h-68.8994zM215.74 277.66h264.84l-129.9 371.6z" />
    <glyph glyph-name="AE" unicode="&#xc6;" horiz-adv-x="925" 
d="M33.4004 0l324.521 599.241c68.9404 128.7 125.62 134.46 217.8 132.76l302.32 -13.96v-43.7002h-302.32c-71.1201 0 -66.3604 -31.0996 -67.6807 -74.4199v-210.4l330 -8.2998v-43.7002l-330 -8.2998v-207.54c0 -66.2598 41.1602 -65.7002 79 -65.7002l290.34 -0.660156
v-45.0195l-290.34 -14.6201c-65.3203 -3.32031 -136 12.3193 -136 125.319v114.5h-226.32l-127.66 -235.5h-63.6602zM254.582 292.501h196.46v361.2z" />
    <glyph glyph-name="Ccedilla" unicode="&#xc7;" horiz-adv-x="575" 
d="M216.3 -145.2l45.8604 11.6006c36.5 10.6396 49.6797 35.7998 49 97.5996h50c0 -101.32 -19.9805 -136 -101 -136h-43.8604v26.7998zM61.46 368c0 232.64 43.2998 372 243.66 372c52 0 163.8 -11.6602 233.8 -24.6602v-43.7002c-1 0 -141.8 11.3604 -233.8 11.3604
c-132.48 0 -186.66 -61.4199 -186.66 -317c0 -185.76 47.54 -315 187 -315c105 0 233.46 8.7002 233.46 8.7002v-43.7002c-70 -13 -181.8 -22 -233.8 -22c-185 0 -243.66 159 -243.66 374z" />
    <glyph glyph-name="Egrave" unicode="&#xc8;" horiz-adv-x="572" 
d="M184.16 925h71.54l111.76 -133h-50.2998zM89.5195 123v479c0 98 60.0225 132.712 126 130l309.54 -13.96v-43.04h-309.54c-55.3994 0 -69 -29.6797 -69 -73v-209.18l338.54 -8.30078v-43.6992l-338.54 -8.30078v-209.52c0.660156 -66.2598 41.1602 -69 79 -69h299.54
v-42.3799l-299.54 -14.6201c-66.0088 -3.42188 -136 13 -136 126z" />
    <glyph glyph-name="Eacute" unicode="&#xc9;" horiz-adv-x="572" 
d="M302.3 792l111.76 133h71.54l-133 -133h-50.2998zM89.5195 123v479c0 98 60.0225 132.712 126 130l309.54 -13.96v-43.04h-309.54c-55.3994 0 -69 -29.6797 -69 -73v-209.18l338.54 -8.30078v-43.6992l-338.54 -8.30078v-209.52c0.660156 -66.2598 41.1602 -69 79 -69
h299.54v-42.3799l-299.54 -14.6201c-66.0088 -3.42188 -136 13 -136 126z" />
    <glyph glyph-name="Ecircumflex" unicode="&#xca;" horiz-adv-x="572" 
d="M180.2 797l122.1 130h53.6602l109.44 -130h-52.9805l-84.9395 85.96l-93.6406 -85.96h-53.6396zM89.5195 123v479c0 98 60.0225 132.712 126 130l309.54 -13.96v-43.04h-309.54c-55.3994 0 -69 -29.6797 -69 -73v-209.18l338.54 -8.30078v-43.6992l-338.54 -8.30078
v-209.52c0.660156 -66.2598 41.1602 -69 79 -69h299.54v-42.3799l-299.54 -14.6201c-66.0088 -3.42188 -136 13 -136 126z" />
    <glyph glyph-name="Edieresis" unicode="&#xcb;" horiz-adv-x="572" 
d="M152.6 843c0 21.8799 17.5605 38.7803 39.4404 38.7803s38.7803 -16.9004 38.7803 -38.7803s-16.9004 -39.7803 -38.7803 -39.7803s-39.4404 17.9004 -39.4404 39.7803zM407.26 843c0 21.8799 17.9004 38.7803 39.7803 38.7803s38.7803 -16.9004 38.7803 -38.7803
s-16.9004 -39.7803 -38.7803 -39.7803s-39.7803 17.9004 -39.7803 39.7803zM89.5195 123v479c0 98 60.0225 132.712 126 130l309.54 -13.96v-43.04h-309.54c-55.3994 0 -69 -29.6797 -69 -73v-209.18l338.54 -8.30078v-43.6992l-338.54 -8.30078v-209.52
c0.660156 -66.2598 41.1602 -69 79 -69h299.54v-42.3799l-299.54 -14.6201c-66.0088 -3.42188 -136 13 -136 126z" />
    <glyph glyph-name="Igrave" unicode="&#xcc;" horiz-adv-x="209" 
d="M-40.1299 930h71.54l111.76 -133h-50.2998zM89.5195 0v732h57v-732h-57z" />
    <glyph glyph-name="Iacute" unicode="&#xcd;" horiz-adv-x="209" 
d="M92.8701 797l111.76 133h71.54l-133 -133h-50.2998zM89.5195 0v732h57v-732h-57z" />
    <glyph glyph-name="Icircumflex" unicode="&#xce;" horiz-adv-x="209" 
d="M-24.5801 797l122.1 130h53.6602l109.44 -130h-52.9805l-84.9395 85.96l-93.6406 -85.96h-53.6396zM89.5195 0v732h57v-732h-57z" />
    <glyph glyph-name="Idieresis" unicode="&#xcf;" horiz-adv-x="209" 
d="M-48.5898 836.78c0 21.8799 17.5596 38.7793 39.4395 38.7793c21.8809 0 38.7803 -16.8994 38.7803 -38.7793s-16.8994 -39.7803 -38.7803 -39.7803c-21.8799 0 -39.4395 17.9004 -39.4395 39.7803zM206.07 836.78c0 21.8799 17.8994 38.7793 39.7793 38.7793
c21.8809 0 38.7803 -16.8994 38.7803 -38.7793s-16.8994 -39.7803 -38.7803 -39.7803c-21.8799 0 -39.7793 17.9004 -39.7793 39.7803zM89.5195 0v732h57v-732h-57z" />
    <glyph glyph-name="Eth" unicode="&#xd0;" horiz-adv-x="661" 
d="M24.5195 352.8v40.4004h65v338.14c0 0.660156 223.2 0.660156 262.8 0.660156c225.34 0 259 -219 259 -369c0 -166 -68.7197 -363 -259 -363h-262.8v352.8h-65zM146.52 58.9805l205.799 0.000976562c143.9 0 200.021 153.06 200.021 305.02
c0 218.84 -78.4199 307.7 -200.02 307.7l-205.8 -0.660156v-277.84h145.8v-40.4004h-145.8v-293.82z" />
    <glyph glyph-name="Ntilde" unicode="&#xd1;" horiz-adv-x="674" 
d="M181.85 834.6c37.96 31.9805 73.6006 61.96 113.92 61.96c46.2607 -1.97949 84.1006 -47.2598 113.461 -47.9199c29.0996 -0.65918 65.1191 24.1006 94.0596 41.7803l16.5596 -30.0996c-33 -27.7207 -69.9395 -63.9805 -111.939 -62.6602
c-51.2402 1.97949 -78.4805 47.9199 -113.46 47.2598c-41.96 -0.660156 -60.7197 -22.0195 -97.3799 -40.0996zM89.5195 0v732h58.6602l407 -625.28v625.28h57v-732h-57l-408 625.28v-625.28h-57.6602z" />
    <glyph glyph-name="Ograve" unicode="&#xd2;" horiz-adv-x="675" 
d="M193.23 930h71.5391l111.761 -133h-50.2998zM72.8203 361c0 343 109.199 376 278.56 376c173 0 277.24 -33 277.24 -376c0 -323 -97.2402 -365 -277.24 -365s-278.56 32 -278.56 365zM129.82 361c0 -270.94 56.4199 -308 221.56 -308
c161.101 0 220.24 43.0195 220.24 308c0 307.5 -76.0801 319 -220.24 319c-138.1 0 -221.56 -7.08008 -221.56 -319z" />
    <glyph glyph-name="Oacute" unicode="&#xd3;" horiz-adv-x="675" 
d="M326.23 797l111.76 133h71.54l-133 -133h-50.2998zM72.8203 361c0 343 109.199 376 278.56 376c173 0 277.24 -33 277.24 -376c0 -323 -97.2402 -365 -277.24 -365s-278.56 32 -278.56 365zM129.82 361c0 -270.94 56.4199 -308 221.56 -308
c161.101 0 220.24 43.0195 220.24 308c0 307.5 -76.0801 319 -220.24 319c-138.1 0 -221.56 -7.08008 -221.56 -319z" />
    <glyph glyph-name="Ocircumflex" unicode="&#xd4;" horiz-adv-x="675" 
d="M208.78 797l122.1 130h53.6602l109.44 -130h-52.9805l-84.9404 85.96l-93.6396 -85.96h-53.6396zM72.8203 361c0 343 109.199 376 278.56 376c173 0 277.24 -33 277.24 -376c0 -323 -97.2402 -365 -277.24 -365s-278.56 32 -278.56 365zM129.82 361
c0 -270.94 56.4199 -308 221.56 -308c161.101 0 220.24 43.0195 220.24 308c0 307.5 -76.0801 319 -220.24 319c-138.1 0 -221.56 -7.08008 -221.56 -319z" />
    <glyph glyph-name="Otilde" unicode="&#xd5;" horiz-adv-x="675" 
d="M182.38 834.6c37.96 31.9805 73.6006 61.96 113.92 61.96c46.2598 -1.97949 84.1006 -47.2598 113.46 -47.9199c29.1006 -0.65918 65.1201 24.1006 94.0605 41.7803l16.5596 -30.0996c-33 -27.7207 -69.9395 -63.9805 -111.939 -62.6602
c-51.2402 1.97949 -78.4805 47.9199 -113.46 47.2598c-41.9609 -0.660156 -60.7207 -22.0195 -97.3809 -40.0996zM72.8203 361c0 343 109.199 376 278.56 376c173 0 277.24 -33 277.24 -376c0 -323 -97.2402 -365 -277.24 -365s-278.56 32 -278.56 365zM129.82 361
c0 -270.94 56.4199 -308 221.56 -308c161.101 0 220.24 43.0195 220.24 308c0 307.5 -76.0801 319 -220.24 319c-138.1 0 -221.56 -7.08008 -221.56 -319z" />
    <glyph glyph-name="Odieresis" unicode="&#xd6;" horiz-adv-x="675" 
d="M184.77 836.78c0 21.8799 17.5605 38.7793 39.4404 38.7793s38.7803 -16.8994 38.7803 -38.7793s-16.9004 -39.7803 -38.7803 -39.7803s-39.4404 17.9004 -39.4404 39.7803zM439.43 836.78c0 21.8799 17.9004 38.7793 39.7803 38.7793s38.7803 -16.8994 38.7803 -38.7793
s-16.9004 -39.7803 -38.7803 -39.7803s-39.7803 17.9004 -39.7803 39.7803zM72.8203 361c0 343 109.199 376 278.56 376c173 0 277.24 -33 277.24 -376c0 -323 -97.2402 -365 -277.24 -365s-278.56 32 -278.56 365zM129.82 361c0 -270.94 56.4199 -308 221.56 -308
c161.101 0 220.24 43.0195 220.24 308c0 307.5 -76.0801 319 -220.24 319c-138.1 0 -221.56 -7.08008 -221.56 -319z" />
    <glyph glyph-name="multiply" unicode="&#xd7;" horiz-adv-x="451" 
d="M62.7998 232.62l123.38 122.72l-123.38 123.38l40.0996 40.7598l123.38 -123.38l124.04 123.38l40.0996 -40.0996l-124.04 -124.04l123.38 -122.72l-40.0996 -40.7598l-123.38 123.38l-122.72 -122.72z" />
    <glyph glyph-name="Oslash" unicode="&#xd8;" horiz-adv-x="675" 
d="M72.8203 361c0 343 105.897 375.999 277.897 375.999c76.0801 0 138.78 -6.01953 185.101 -43.1191l24.7402 38.1201h46.3799l-42.6396 -65.96c41.6602 -53.6602 64.3203 -146 64.3203 -305.04c0 -323 -97.9004 -365 -277.9 -365
c-80.0596 0 -143.079 6.33984 -189.06 42.4199l-25.0596 -38.4199h-46.3799l42.6201 66.9199c-39.6797 52.3203 -60.0195 141 -60.0195 294.08zM129.817 360.999c0 -120.92 11.3789 -194.359 38.4785 -239.399l336.36 523.88
c-36.3799 32.1396 -88.1396 34.5195 -153.939 34.5195c-138.1 0 -220.899 -7.08008 -220.899 -319zM194.137 89.7998c35.04 -29.4404 85.1201 -36.7998 156.58 -36.7998c161.1 0 220.899 43.0195 220.899 308c0 129.54 -13.3799 206.3 -40.46 252.34z" />
    <glyph glyph-name="Ugrave" unicode="&#xd9;" horiz-adv-x="679" 
d="M194.77 930h71.54l111.761 -133h-50.3008zM89.5195 320v412h57v-412c0 -271.28 85.4404 -268 208.9 -268c107.84 0 203.24 6.75977 203.24 268v412h57.6602v-412c0 -323 -139.9 -325 -260.9 -325c-136 0 -265.9 -6.63965 -265.9 325z" />
    <glyph glyph-name="Uacute" unicode="&#xda;" horiz-adv-x="679" 
d="M327.77 797l111.761 133h71.54l-133 -133h-50.3008zM89.5195 320v412h57v-412c0 -271.28 85.4404 -268 208.9 -268c107.84 0 203.24 6.75977 203.24 268v412h57.6602v-412c0 -323 -139.9 -325 -260.9 -325c-136 0 -265.9 -6.63965 -265.9 325z" />
    <glyph glyph-name="Ucircumflex" unicode="&#xdb;" horiz-adv-x="679" 
d="M210.32 797l122.1 130h53.6602l109.439 -130h-52.9795l-84.9404 85.96l-93.6396 -85.96h-53.6396zM89.5195 320v412h57v-412c0 -271.28 85.4404 -268 208.9 -268c107.84 0 203.24 6.75977 203.24 268v412h57.6602v-412c0 -323 -139.9 -325 -260.9 -325
c-136 0 -265.9 -6.63965 -265.9 325z" />
    <glyph glyph-name="Udieresis" unicode="&#xdc;" horiz-adv-x="679" 
d="M186.31 836.78c0 21.8799 17.5605 38.7793 39.4404 38.7793s38.7803 -16.8994 38.7803 -38.7793s-16.9004 -39.7803 -38.7803 -39.7803s-39.4404 17.9004 -39.4404 39.7803zM440.97 836.78c0 21.8799 17.9004 38.7793 39.7803 38.7793s38.7803 -16.8994 38.7803 -38.7793
s-16.9004 -39.7803 -38.7803 -39.7803s-39.7803 17.9004 -39.7803 39.7803zM89.5195 320v412h57v-412c0 -271.28 85.4404 -268 208.9 -268c107.84 0 203.24 6.75977 203.24 268v412h57.6602v-412c0 -323 -139.9 -325 -260.9 -325c-136 0 -265.9 -6.63965 -265.9 325z" />
    <glyph glyph-name="Yacute" unicode="&#xdd;" horiz-adv-x="626" 
d="M300.19 797l111.76 133h71.54l-133 -133h-50.2998zM50.4404 732h62.6396l202.26 -403.38l222.26 403.38h62.6406l-256.4 -472v-260h-57v260z" />
    <glyph glyph-name="Thorn" unicode="&#xde;" horiz-adv-x="555" 
d="M67.1396 0v729.001h57v-141h203.8c79 -0.660156 176 -34 176 -213c0 -204 -102 -226 -176 -226c-48.5801 0.339844 -107.42 -1.60059 -203.8 15.9395v-164.94h-57zM124.14 206.001h203.801c66.2803 -0.660156 118.34 29.8398 118.34 171
c-1.32031 141.88 -72.8008 153 -118.341 153.34h-203.8v-324.34z" />
    <glyph glyph-name="germandbls" unicode="&#xdf;" horiz-adv-x="568" 
d="M67.1396 0l-0.000976562 565.997c0 116 75.9004 211 217.9 211c295 0 247.1 -240.56 138.1 -316.56c-62.4404 -50.0596 -102.2 -68.3594 -102.2 -112.439c0 -82.9805 225.66 -19.6807 226 -169.001v-47c0.660156 -102.88 -84.1201 -140 -158 -140
c-68 0 -136.02 12.6201 -173 17.6406v44.3604c39.3203 -0.679688 106.641 -5 175.641 -5c65.1602 0 97.04 41.9805 98.3604 83v47c0.679688 93.3203 -226 22.0205 -226 169.001c0 60.9404 25.0801 83.8809 125.08 156.521c32.3398 23.6602 56.7998 61.4404 60.2002 105.44
c7.48047 82.1201 -70.7197 110.04 -164.18 110.04c-91.2402 0 -160.9 -46.54 -160.9 -154v-566h-57z" />
    <glyph glyph-name="agrave" unicode="&#xe0;" horiz-adv-x="519" 
d="M109.88 734h71.54l111.76 -133h-50.2998zM44.7598 126v61c0 81.7002 50.3398 133 133 133c0 0 228.8 -1 228.8 0c0 0 1 66 0 67c0 63.7197 -30.9795 98.6602 -98.3193 99c-72 0.339844 -151.521 -6.36035 -246.48 -15.7402v40.4004
c66.2402 17.96 149.46 29.3398 248.8 30.3398c83 1 153 -44 153 -154v-387h-41.3994l-15.6006 64c-2 0 -135.42 -70 -228.8 -70c-73 0 -133 47 -133 132zM101.76 131c0 -60.5801 36.9004 -79.6602 76 -80c80 -0.679688 228.8 54.0596 228.8 54.0596v171.9l-228.8 -13.96
c-55.9199 -3.66016 -76 -38.0996 -76 -79.96v-52.04z" />
    <glyph glyph-name="aacute" unicode="&#xe1;" horiz-adv-x="519" 
d="M237.54 601l111.76 133h71.54l-133 -133h-50.2998zM44.7598 126v61c0 81.7002 50.3398 133 133 133c0 0 228.8 -1 228.8 0c0 0 1 66 0 67c0 63.7197 -30.9795 98.6602 -98.3193 99c-72 0.339844 -151.521 -6.36035 -246.48 -15.7402v40.4004
c66.2402 17.96 149.46 29.3398 248.8 30.3398c83 1 153 -44 153 -154v-387h-41.3994l-15.6006 64c-2 0 -135.42 -70 -228.8 -70c-73 0 -133 47 -133 132zM101.76 131c0 -60.5801 36.9004 -79.6602 76 -80c80 -0.679688 228.8 54.0596 228.8 54.0596v171.9l-228.8 -13.96
c-55.9199 -3.66016 -76 -38.0996 -76 -79.96v-52.04z" />
    <glyph glyph-name="acircumflex" unicode="&#xe2;" horiz-adv-x="519" 
d="M122.44 601l122.1 130h53.6602l109.439 -130h-52.9795l-84.9404 85.96l-93.6396 -85.96h-53.6396zM44.7598 126v61c0 81.7002 50.3398 133 133 133c0 0 228.8 -1 228.8 0c0 0 1 66 0 67c0 63.7197 -30.9795 98.6602 -98.3193 99
c-72 0.339844 -151.521 -6.36035 -246.48 -15.7402v40.4004c66.2402 17.96 149.46 29.3398 248.8 30.3398c83 1 153 -44 153 -154v-387h-41.3994l-15.6006 64c-2 0 -135.42 -70 -228.8 -70c-73 0 -133 47 -133 132zM101.76 131c0 -60.5801 36.9004 -79.6602 76 -80
c80 -0.679688 228.8 54.0596 228.8 54.0596v171.9l-228.8 -13.96c-55.9199 -3.66016 -76 -38.0996 -76 -79.96v-52.04z" />
    <glyph glyph-name="atilde" unicode="&#xe3;" horiz-adv-x="519" 
d="M91.04 642c37.96 31.9805 73.5996 61.96 113.92 61.96c46.2598 -1.97949 84.0996 -47.2598 113.46 -47.9199c29.0996 -0.660156 65.1201 24.0996 94.0605 41.7803l16.5596 -30.1006c-33 -27.7197 -69.9404 -63.9795 -111.94 -62.6602
c-51.2393 1.98047 -78.4795 47.9209 -113.46 47.2607c-41.96 -0.660156 -60.7197 -22.0205 -97.3799 -40.1006zM44.7598 126v61c0 81.7002 50.3398 133 133 133c0 0 228.8 -1 228.8 0c0 0 1 66 0 67c0 63.7197 -30.9795 98.6602 -98.3193 99
c-72 0.339844 -151.521 -6.36035 -246.48 -15.7402v40.4004c66.2402 17.96 149.46 29.3398 248.8 30.3398c83 1 153 -44 153 -154v-387h-41.3994l-15.6006 64c-2 0 -135.42 -70 -228.8 -70c-73 0 -133 47 -133 132zM101.76 131c0 -60.5801 36.9004 -79.6602 76 -80
c80 -0.679688 228.8 54.0596 228.8 54.0596v171.9l-228.8 -13.96c-55.9199 -3.66016 -76 -38.0996 -76 -79.96v-52.04z" />
    <glyph glyph-name="adieresis" unicode="&#xe4;" horiz-adv-x="519" 
d="M97.1699 652.011c0 21.8799 17.5596 38.7803 39.4395 38.7803s38.7803 -16.9004 38.7803 -38.7803s-16.9004 -39.7803 -38.7803 -39.7803s-39.4395 17.9004 -39.4395 39.7803zM351.83 652.011c0 21.8799 17.8994 38.7803 39.7793 38.7803
s38.7803 -16.9004 38.7803 -38.7803s-16.9004 -39.7803 -38.7803 -39.7803s-39.7793 17.9004 -39.7793 39.7803zM44.7598 126v61c0 81.7002 50.3398 133 133 133c0 0 228.8 -1 228.8 0c0 0 1 66 0 67c0 63.7197 -30.9795 98.6602 -98.3193 99
c-72 0.339844 -151.521 -6.36035 -246.48 -15.7402v40.4004c66.2402 17.96 149.46 29.3398 248.8 30.3398c83 1 153 -44 153 -154v-387h-41.3994l-15.6006 64c-2 0 -135.42 -70 -228.8 -70c-73 0 -133 47 -133 132zM101.76 131c0 -60.5801 36.9004 -79.6602 76 -80
c80 -0.679688 228.8 54.0596 228.8 54.0596v171.9l-228.8 -13.96c-55.9199 -3.66016 -76 -38.0996 -76 -79.96v-52.04z" />
    <glyph glyph-name="aring" unicode="&#xe5;" horiz-adv-x="519" 
d="M161.68 673c0 57 46 103 102 103s100.66 -46 100.66 -103s-44.6602 -102 -100.66 -102s-102 45 -102 102zM197.46 673c0 -36.1201 30.0996 -65.2197 66.2197 -65.2197s64.8799 29.0996 64.8799 65.2197s-28.7598 66.2197 -64.8799 66.2197
s-66.2197 -30.0996 -66.2197 -66.2197zM44.7598 126v61c0 81.7002 50.3398 133 133 133c0 0 228.8 -1 228.8 0c0 0 1 66 0 67c0 63.7197 -30.9795 98.6602 -98.3193 99c-72 0.339844 -151.521 -6.36035 -246.48 -15.7402v40.4004
c66.2402 17.96 149.46 29.3398 248.8 30.3398c83 1 153 -44 153 -154v-387h-41.3994l-15.6006 64c-2 0 -135.42 -70 -228.8 -70c-73 0 -133 47 -133 132zM101.76 131c0 -60.5801 36.9004 -79.6602 76 -80c80 -0.679688 228.8 54.0596 228.8 54.0596v171.9l-228.8 -13.96
c-55.9199 -3.66016 -76 -38.0996 -76 -79.96v-52.04z" />
    <glyph glyph-name="ae" unicode="&#xe6;" horiz-adv-x="877" 
d="M44.7598 129.96l0.000976562 36.2588c0 81.7002 50.3398 133 133 133c0 0 228.8 -1 228.8 0c0 0 1 90.7402 0 91.7402c0 63.7197 -30.9805 98.6602 -98.3203 99c-72 0.339844 -149.54 -6.36035 -246.48 -15.7402v40.4004c62.9404 19.2803 149.46 29.3398 248.8 30.3398
c58.7803 1 109.54 -21.7598 134.14 -74.3193c31.2197 56.2402 92.8994 67.9805 184.659 67.9805c123.64 0 203 -7.58008 203 -183.58c0 -77.6797 -44.4004 -113.5 -137 -113.5h-230.8c-0.679688 -147.1 13.1406 -185.239 118.001 -185.919
c92 -0.339844 164.8 2.40039 239.8 13.4004v-42.4004c-81 -23 -156.8 -28 -239.8 -28c-101.62 0 -129.22 35.1396 -156.38 69.6592c-2 0 -155.04 -70.3203 -248.42 -70.3203c-73 0 -133 47 -133 132zM101.761 134.959c0 -60.5801 36.9004 -79.6602 76 -80
c80 -0.679688 228.8 56.4404 228.8 56.4404v147.38l-228.8 -12.5996c-55.9199 -3.32031 -76 -38.1006 -76 -79.9609v-31.2598zM464.561 297.539h230.8c50.46 0 80 11.9199 80 57.5c0 120.3 -31.5596 126.58 -145 126.58c-124.9 0 -165.12 -13.5801 -165.8 -184.08z" />
    <glyph glyph-name="ccedilla" unicode="&#xe7;" horiz-adv-x="500" 
d="M56.1201 266c0 232 72.6602 271.319 174.66 271.319c52 0 150.52 -13.9805 217.8 -27.3203v-40.4004s-128.8 10.7197 -217.8 10.7197c-70.54 0 -117.66 -20.1396 -117.66 -218.319c0 -171.02 40.9004 -211.319 117.66 -211.319c92 0 225.14 14.4004 225.14 14.4004
v-42.4004c-81 -23 -142.14 -28 -225.14 -29c-99 0 -174.66 39.3203 -174.66 272.32zM169.561 -145.521l46.2002 11.6006c36.5 10.6396 49.6797 35.7998 49 97.5996h50c0 -101.32 -19.9805 -136 -101 -136h-44.2002v26.7998z" />
    <glyph glyph-name="egrave" unicode="&#xe8;" horiz-adv-x="525" 
d="M124.87 727.3h71.54l111.76 -133h-50.2998zM56.1201 268c0 235.98 63.2402 267 221.8 267c123.64 0 202.66 -12 202.66 -188c0 -77.6797 -44.0605 -113.5 -136.66 -113.5h-230.8c0 -151.18 36.5996 -181.5 117.66 -181.5c92 0 164.8 2.40039 239.8 13.4004v-42.4004
c-81 -23 -156.8 -28.3398 -239.8 -28c-135.34 0.679688 -174.66 69.0801 -174.66 273zM113.12 289.5h230.8c48.0801 0 79.6602 11.9199 79.6602 57.5c0 120.3 -33.5996 131 -145 131c-121.84 0 -165.46 -10.8604 -165.46 -188.5z" />
    <glyph glyph-name="eacute" unicode="&#xe9;" horiz-adv-x="525" 
d="M249.23 594.3l111.76 133h71.54l-133 -133h-50.2998zM56.1201 268c0 235.98 63.2402 267 221.8 267c123.64 0 202.66 -12 202.66 -188c0 -77.6797 -44.0605 -113.5 -136.66 -113.5h-230.8c0 -151.18 36.5996 -181.5 117.66 -181.5c92 0 164.8 2.40039 239.8 13.4004
v-42.4004c-81 -23 -156.8 -28.3398 -239.8 -28c-135.34 0.679688 -174.66 69.0801 -174.66 273zM113.12 289.5h230.8c48.0801 0 79.6602 11.9199 79.6602 57.5c0 120.3 -33.5996 131 -145 131c-121.84 0 -165.46 -10.8604 -165.46 -188.5z" />
    <glyph glyph-name="ecircumflex" unicode="&#xea;" horiz-adv-x="525" 
d="M130.38 594.3l122.101 130h53.6592l109.44 -130h-52.9805l-84.9395 85.96l-93.6406 -85.96h-53.6396zM56.1201 268c0 235.98 63.2402 267 221.8 267c123.64 0 202.66 -12 202.66 -188c0 -77.6797 -44.0605 -113.5 -136.66 -113.5h-230.8
c0 -151.18 36.5996 -181.5 117.66 -181.5c92 0 164.8 2.40039 239.8 13.4004v-42.4004c-81 -23 -156.8 -28.3398 -239.8 -28c-135.34 0.679688 -174.66 69.0801 -174.66 273zM113.12 289.5h230.8c48.0801 0 79.6602 11.9199 79.6602 57.5c0 120.3 -33.5996 131 -145 131
c-121.84 0 -165.46 -10.8604 -165.46 -188.5z" />
    <glyph glyph-name="edieresis" unicode="&#xeb;" horiz-adv-x="525" 
d="M106.6 645.3c0 21.8799 17.5605 38.7803 39.4404 38.7803s38.7803 -16.9004 38.7803 -38.7803s-16.9004 -39.7803 -38.7803 -39.7803s-39.4404 17.9004 -39.4404 39.7803zM361.26 645.3c0 21.8799 17.9004 38.7803 39.7803 38.7803s38.7803 -16.9004 38.7803 -38.7803
s-16.9004 -39.7803 -38.7803 -39.7803s-39.7803 17.9004 -39.7803 39.7803zM56.1201 268c0 235.98 63.2402 267 221.8 267c123.64 0 202.66 -12 202.66 -188c0 -77.6797 -44.0605 -113.5 -136.66 -113.5h-230.8c0 -151.18 36.5996 -181.5 117.66 -181.5
c92 0 164.8 2.40039 239.8 13.4004v-42.4004c-81 -23 -156.8 -28.3398 -239.8 -28c-135.34 0.679688 -174.66 69.0801 -174.66 273zM113.12 289.5h230.8c48.0801 0 79.6602 11.9199 79.6602 57.5c0 120.3 -33.5996 131 -145 131c-121.84 0 -165.46 -10.8604 -165.46 -188.5z
" />
    <glyph glyph-name="igrave" unicode="&#xec;" horiz-adv-x="191" 
d="M-62.5098 729h71.54l111.76 -133h-50.2998zM67.1396 0v531h57v-531h-57z" />
    <glyph glyph-name="iacute" unicode="&#xed;" horiz-adv-x="191" 
d="M70.4902 596l111.76 133h71.54l-133 -133h-50.2998zM67.1396 0v531h57v-531h-57z" />
    <glyph glyph-name="icircumflex" unicode="&#xee;" horiz-adv-x="191" 
d="M-46.96 596l122.1 130h53.6602l109.44 -130h-52.9805l-84.9395 85.96l-93.6406 -85.96h-53.6396zM67.1396 0v531h57v-531h-57z" />
    <glyph glyph-name="idieresis" unicode="&#xef;" horiz-adv-x="191" 
d="M-70.9697 635.78c0 21.8799 17.5596 38.7793 39.4395 38.7793s38.7803 -16.8994 38.7803 -38.7793s-16.9004 -39.7803 -38.7803 -39.7803s-39.4395 17.9004 -39.4395 39.7803zM183.69 635.78c0 21.8799 17.8994 38.7793 39.7793 38.7793
s38.7803 -16.8994 38.7803 -38.7793s-16.9004 -39.7803 -38.7803 -39.7803s-39.7793 17.9004 -39.7793 39.7803zM67.1396 0v531h57v-531h-57z" />
    <glyph glyph-name="eth" unicode="&#xf0;" horiz-adv-x="538" 
d="M44.7598 264c0 170 43 267 178 267h89.7998c33.54 0 81.5 -15.9805 93.7998 -32.3408c-12.9805 50.0801 -36.3203 114.38 -83.5205 161.58l-150.44 -60.04l-17.54 44.3604l124.3 49.7803c-44.0195 28.4404 -96.3994 39.6006 -150.399 38.6201v50.04
c93.3604 0 158.7 -23.4199 210.7 -65.7998l121.4 48.3604l18.54 -44.3604l-101.54 -40.0801c98.9805 -116.2 114.7 -302.42 114.7 -417.12c0 -199 -73 -264 -180 -264h-89.7998c-137 0 -178 85 -178 264zM101.76 264c0 -186.48 49.7402 -205 121 -205h89.7998
c98.9404 0 123 82.5801 123 205c0 136.4 -18.9404 210 -123 210h-89.7998c-73.8203 0 -121 -33.0801 -121 -210z" />
    <glyph glyph-name="ntilde" unicode="&#xf1;" 
d="M110.04 637.6c37.96 31.9805 73.5996 61.96 113.92 61.96c46.2598 -1.97949 84.0996 -47.2598 113.46 -47.9199c29.0996 -0.65918 65.1201 24.1006 94.0605 41.7803l16.5596 -30.0996c-33 -27.7207 -69.9404 -63.9805 -111.94 -62.6602
c-51.2393 1.97949 -78.4795 47.9199 -113.46 47.2598c-41.96 -0.660156 -60.7197 -22.0195 -97.3799 -40.0996zM67.1396 0v531h39.0801l17.9199 -62c59.9805 36.0195 121.801 71 202.801 71c106 0 164 -82 164 -170v-370h-57v370c0 70.4199 -43.0801 113 -107 113
c-82.7207 0 -126.82 -20.3398 -202.801 -58.3604v-424.64h-57z" />
    <glyph glyph-name="ograve" unicode="&#xf2;" horiz-adv-x="569" 
d="M133.13 729h71.54l111.76 -133h-50.2998zM56.1201 258c0 217 59.6602 278 228.56 278c176.96 0 229.24 -75.1602 229.24 -278c0 -195.98 -53.9795 -263 -229.24 -263c-177.979 0 -228.56 73 -228.56 263zM113.12 258c0 -188.56 60.3994 -206 171.56 -206
c114.801 0 172.24 21.8203 172.24 206c0 199.18 -53.8799 221 -172.24 221c-114.72 0 -171.56 -16.0596 -171.56 -221z" />
    <glyph glyph-name="oacute" unicode="&#xf3;" horiz-adv-x="569" 
d="M259.53 596l111.76 133h71.54l-133 -133h-50.2998zM56.1201 258c0 217 59.6602 278 228.56 278c176.96 0 229.24 -75.1602 229.24 -278c0 -195.98 -53.9795 -263 -229.24 -263c-177.979 0 -228.56 73 -228.56 263zM113.12 258c0 -188.56 60.3994 -206 171.56 -206
c114.801 0 172.24 21.8203 172.24 206c0 199.18 -53.8799 221 -172.24 221c-114.72 0 -171.56 -16.0596 -171.56 -221z" />
    <glyph glyph-name="ocircumflex" unicode="&#xf4;" horiz-adv-x="569" 
d="M145.38 596l122.101 130h53.6592l109.44 -130h-52.9805l-84.9395 85.96l-93.6406 -85.96h-53.6396zM56.1201 258c0 217 59.6602 278 228.56 278c176.96 0 229.24 -75.1602 229.24 -278c0 -195.98 -53.9795 -263 -229.24 -263c-177.979 0 -228.56 73 -228.56 263z
M113.12 258c0 -188.56 60.3994 -206 171.56 -206c114.801 0 172.24 21.8203 172.24 206c0 199.18 -53.8799 221 -172.24 221c-114.72 0 -171.56 -16.0596 -171.56 -221z" />
    <glyph glyph-name="otilde" unicode="&#xf5;" horiz-adv-x="569" 
d="M121.62 633.6c37.96 31.9805 73.5996 61.96 113.92 61.96c46.2598 -1.97949 84.0996 -47.2598 113.46 -47.9199c29.0996 -0.65918 65.1201 24.1006 94.0596 41.7803l16.5605 -30.0996c-33 -27.7207 -69.9404 -63.9805 -111.94 -62.6602
c-51.2393 1.97949 -78.4795 47.9199 -113.46 47.2598c-41.96 -0.660156 -60.7197 -22.0195 -97.3799 -40.0996zM56.1201 258c0 217 59.6602 278 228.56 278c176.96 0 229.24 -75.1602 229.24 -278c0 -195.98 -53.9795 -263 -229.24 -263c-177.979 0 -228.56 73 -228.56 263z
M113.12 258c0 -188.56 60.3994 -206 171.56 -206c114.801 0 172.24 21.8203 172.24 206c0 199.18 -53.8799 221 -172.24 221c-114.72 0 -171.56 -16.0596 -171.56 -221z" />
    <glyph glyph-name="odieresis" unicode="&#xf6;" horiz-adv-x="569" 
d="M118.73 635.78c0 21.8799 17.5596 38.7793 39.4395 38.7793s38.7803 -16.8994 38.7803 -38.7793s-16.9004 -39.7803 -38.7803 -39.7803s-39.4395 17.9004 -39.4395 39.7803zM373.39 635.78c0 21.8799 17.9004 38.7793 39.7803 38.7793s38.7803 -16.8994 38.7803 -38.7793
s-16.9004 -39.7803 -38.7803 -39.7803s-39.7803 17.9004 -39.7803 39.7803zM56.1201 258c0 217 59.6602 278 228.56 278c176.96 0 229.24 -75.1602 229.24 -278c0 -195.98 -53.9795 -263 -229.24 -263c-177.979 0 -228.56 73 -228.56 263zM113.12 258
c0 -188.56 60.3994 -206 171.56 -206c114.801 0 172.24 21.8203 172.24 206c0 199.18 -53.8799 221 -172.24 221c-114.72 0 -171.56 -16.0596 -171.56 -221z" />
    <glyph glyph-name="divide" unicode="&#xf7;" horiz-adv-x="527" 
d="M56.1201 324.5v57h416v-57h-416zM229 168.24v49.9199c0 12.6201 6.63965 20.5801 19.9199 20.5801h36.7402c12.6201 0 19.2598 -8.95996 19.2598 -20.5801v-49.9199c0 -12.6201 -7.63965 -19.2598 -19.2598 -19.2598h-36.7402
c-11.6201 0 -19.9199 7.63965 -19.9199 19.2598zM229 479.48v50.2598c0 12.6201 6.63965 20.5801 19.9199 20.5801h36.7402c12.6201 0 19.2598 -8.95996 19.2598 -20.5801v-50.2598c0 -12.6201 -7.63965 -18.9199 -19.2598 -18.9199h-36.7402
c-11.6201 0 -19.9199 7.2998 -19.9199 18.9199z" />
    <glyph glyph-name="oslash" unicode="&#xf8;" horiz-adv-x="569" 
d="M56.1201 258c0 217 59.6572 278 228.558 278c63.7402 0 111.101 -9.71973 145.761 -32.1396l20.4404 27.1396h49.6797l-39 -52.6602c38.3604 -44.0195 52.3604 -115.039 52.3604 -220.339c0 -195.98 -53.9805 -263 -229.24 -263
c-70.0596 0 -119.739 11.3604 -155.06 36.4199l-23.0596 -31.4199h-46.3799l41.6201 57.2598c-34.0195 42 -45.6797 107.02 -45.6797 200.739zM113.117 258c0 -72.2197 9.04102 -119.32 26.4609 -149.7l257.06 348.84c-27.4004 18.1602 -64.8408 21.8604 -111.961 21.8604
c-114.72 0 -171.56 -16.4004 -171.56 -221zM164.418 78.4795c28.3799 -22.7803 69.46 -26.4795 120.26 -26.4795c114.8 0 172.24 20.46 172.24 206c0 86.8203 -10.4004 139.92 -31.4805 172.3z" />
    <glyph glyph-name="ugrave" unicode="&#xf9;" 
d="M116.47 729h71.54l111.76 -133h-50.2998zM56.1201 161.34v370h57v-370c0 -70.4199 43.0801 -113 107 -113c82.7197 0 126.82 20.3398 202.8 58.3604v424.64h57v-531h-39.0801l-17.9199 62c-59.9795 -36.0195 -121.8 -71 -202.8 -71c-106 0 -164 82 -164 170z" />
    <glyph glyph-name="uacute" unicode="&#xfa;" 
d="M242.87 596l111.76 133h71.54l-133 -133h-50.2998zM56.1201 161.34v370h57v-370c0 -70.4199 43.0801 -113 107 -113c82.7197 0 126.82 20.3398 202.8 58.3604v424.64h57v-531h-39.0801l-17.9199 62c-59.9795 -36.0195 -121.8 -71 -202.8 -71c-106 0 -164 82 -164 170z
" />
    <glyph glyph-name="ucircumflex" unicode="&#xfb;" 
d="M125.42 596l122.1 130h53.6602l109.44 -130h-52.9805l-84.9395 85.96l-93.6406 -85.96h-53.6396zM56.1201 161.34v370h57v-370c0 -70.4199 43.0801 -113 107 -113c82.7197 0 126.82 20.3398 202.8 58.3604v424.64h57v-531h-39.0801l-17.9199 62
c-59.9795 -36.0195 -121.8 -71 -202.8 -71c-106 0 -164 82 -164 170z" />
    <glyph glyph-name="udieresis" unicode="&#xfc;" 
d="M101.41 635.78c0 21.8799 17.5596 38.7793 39.4395 38.7793c21.8809 0 38.7803 -16.8994 38.7803 -38.7793s-16.8994 -39.7803 -38.7803 -39.7803c-21.8799 0 -39.4395 17.9004 -39.4395 39.7803zM356.07 635.78c0 21.8799 17.8994 38.7793 39.7793 38.7793
c21.8809 0 38.7803 -16.8994 38.7803 -38.7793s-16.8994 -39.7803 -38.7803 -39.7803c-21.8799 0 -39.7793 17.9004 -39.7793 39.7803zM56.1201 161.34v370h57v-370c0 -70.4199 43.0801 -113 107 -113c82.7197 0 126.82 20.3398 202.8 58.3604v424.64h57v-531h-39.0801
l-17.9199 62c-59.9795 -36.0195 -121.8 -71 -202.8 -71c-106 0 -164 82 -164 170z" />
    <glyph glyph-name="yacute" unicode="&#xfd;" horiz-adv-x="545" 
d="M246.93 596l111.761 133h71.54l-133 -133h-50.3008zM23.3799 531h62.2998l135.46 -415c24.46 -72.6396 78.9004 -56.6797 77.9004 -56.6797l158.46 471.68h63.2803l-233.66 -699l-65.1396 -102h-34.4404l91.6201 270c-21 0.339844 -86.6602 4.37988 -118.98 110z" />
    <glyph glyph-name="thorn" unicode="&#xfe;" horiz-adv-x="556" 
d="M78.1602 -270v1052h57v-311c26 19 134.14 69 202.14 69c136 0 174.66 -137 174.66 -273c0 -134 -20.6602 -277 -174.66 -277c-45 0 -138.14 13 -202.14 39v-299h-57zM135.16 73.3604c82 -23 138.26 -24.3799 202.14 -26.3604c76.9805 0 117.66 53.5996 117.66 222
c0 141.66 -46.8203 214 -117.66 214c-67.04 -2.63965 -140.14 -29.0596 -202.14 -53.0596v-356.58z" />
    <glyph glyph-name="ydieresis" unicode="&#xff;" horiz-adv-x="545" 
d="M105.47 635.78c0 21.8799 17.5605 38.7793 39.4404 38.7793s38.7803 -16.8994 38.7803 -38.7793s-16.9004 -39.7803 -38.7803 -39.7803s-39.4404 17.9004 -39.4404 39.7803zM360.13 635.78c0 21.8799 17.9004 38.7793 39.7803 38.7793s38.7803 -16.8994 38.7803 -38.7793
s-16.9004 -39.7803 -38.7803 -39.7803s-39.7803 17.9004 -39.7803 39.7803zM23.3799 531h62.2998l135.46 -415c24.46 -72.6396 78.9004 -56.6797 77.9004 -56.6797l158.46 471.68h63.2803l-233.66 -699l-65.1396 -102h-34.4404l91.6201 270
c-21 0.339844 -86.6602 4.37988 -118.98 110z" />
    <glyph glyph-name="bullet" unicode="&#x2022;" horiz-adv-x="315" 
d="M95.2002 349.5v63c0 21 11 35 33 35h57c25 0 35 -13 35 -35v-63c0 -24 -15 -32 -35 -32h-57c-20 0 -33 12 -33 32z" />
    <glyph glyph-name="quoteleft" unicode="&#x2018;" horiz-adv-x="235" 
d="M74.832 567.88l0.000976562 100.701c0 85.2998 81.5605 68.3594 81.5605 68.3594v-25.4805c-27.9004 1 -28.9004 -18.5996 -28.9004 -28.8994v-31.0596h10.2998c12.6201 0 23.5801 -7.32031 23.5801 -23.2607v-60.3604c0 -16.9404 -8.2998 -25.2402 -23.5801 -25.2402
h-41.04c-16.9404 0 -21.9209 11.6201 -21.9209 25.2402z" />
    <glyph glyph-name="quoteright" unicode="&#x2019;" horiz-adv-x="235" 
d="M74.6279 652.66l0.338867 60.6992c0.0585938 16.9404 8.2998 25.2402 23.5801 25.2402h40.7002c16.9404 0 22.2891 -11.6201 22.2598 -25.2402l-0.339844 -101.04c0 -85.2998 -81.5596 -68.6797 -81.5596 -68.6797v25.4805c27.9004 -1 28.9004 18.9199 28.9004 29.2197
v30.7402h-10.2998c-12.6201 0 -23.5801 7.63965 -23.5801 23.5801z" />
    <glyph glyph-name="quotesinglbase" unicode="&#x201a;" horiz-adv-x="235" 
d="M74.832 22.9199l-0.000976562 60.3594c0 16.9404 8.2998 25.5801 23.5801 25.5801h40.7002c16.9404 0 22.2607 -11.96 22.2607 -25.5801v-100.7c0 -85.96 -81.5605 -69.0195 -81.5605 -69.0195v25.4805c27.9004 -1 28.9004 19.2598 28.9004 29.5596v30.7402h-10.2998
c-12.6201 0 -23.5801 7.63965 -23.5801 23.5801z" />
    <glyph glyph-name="quotedblright" unicode="&#x201d;" horiz-adv-x="362" 
d="M68.376 652.66l-0.000976562 60.6992c0 16.9404 7.63965 25.2402 22.9199 25.2402h40.7002c16.9404 0 22.9209 -11.6201 22.9209 -25.2402v-101.04c0 -85.2998 -82.2197 -68.6797 -82.2197 -68.6797v25.4805c27.8994 -1 28.5596 18.9199 28.5596 29.2197v30.7402
h-9.95996c-12.6201 0 -22.9199 7.63965 -22.9199 23.5801zM207.935 652.659l-0.00195312 60.6992c0 16.9404 8.2998 25.2402 23.5801 25.2402h41.04c16.9404 0 21.9209 -11.6201 21.9209 -25.2402v-101.04c0 -85.2998 -81.5596 -68.6797 -81.5596 -68.6797v25.4805
c27.9004 -1 28.9004 18.9199 28.9004 29.2197v30.7402h-10.2998c-12.6201 0 -23.5801 7.63965 -23.5801 23.5801z" />
    <glyph glyph-name="quotedblbase" unicode="&#x201e;" horiz-adv-x="362" 
d="M68.376 23.5996l-0.000976562 60.3594c0 16.9404 7.63965 25.5801 22.9199 25.5801h40.7002c16.9404 0 22.9209 -11.96 22.9209 -25.5801v-100.7c0 -85.96 -82.2197 -69.0195 -82.2197 -69.0195v25.4805c27.8994 -1 28.5596 19.2598 28.5596 29.5596v30.7402h-9.95996
c-12.6201 0 -22.9199 7.63965 -22.9199 23.5801zM207.935 23.5986l-0.00195312 60.3594c0 16.9404 8.2998 25.5801 23.5801 25.5801h41.04c16.9404 0 21.9209 -11.96 21.9209 -25.5801v-100.7c0 -85.96 -81.5596 -69.0195 -81.5596 -69.0195v25.4805
c27.9004 -1 28.9004 19.2598 28.9004 29.5596v30.7402h-10.2998c-12.6201 0 -23.5801 7.63965 -23.5801 23.5801z" />
    <glyph glyph-name="exclamdown.alt" horiz-adv-x="265" 
d="M91.8604 653.04v58.7002c0 12.6201 7.63965 19.2598 19.2598 19.2598h40.04c11.6201 0 19.9199 -7.63965 19.9199 -19.2598v-58.7002c0 -12.6201 -6.63965 -20.5801 -19.9199 -20.5801h-40.04c-12.6201 0 -19.2598 8.95996 -19.2598 20.5801zM98.8604 0l6.31934 535
h53.5801l6.32031 -535h-66.2197z" />
    <glyph glyph-name="zerosuperior" unicode="&#x2070;" horiz-adv-x="482" 
d="M67.1396 498v255c0 84 46 110 117 110h117c83 0 113 -43 113 -110v-255c0 -96 -49 -110 -113 -110h-117c-59 0 -117 10 -117 110zM114.84 502c0 -53.5996 17.501 -66.96 73.3008 -66.96h109c62.2197 0 70.6201 21.0801 70.6201 66.96v247
c0 44.5195 -13.7803 66.96 -70.6201 66.96h-109c-58.4805 0 -73.3008 -22.0195 -73.3008 -66.96v-247z" />
    <glyph glyph-name="foursuperior" unicode="&#x2074;" horiz-adv-x="414" 
d="M18.04 543.88l201.879 319.12h53.6602l-182.02 -289h200.32v121l21.54 48h25.5v-169h59v-37.04l-59 -12.3203v-135.64h-47.04v135.64h-257.96z" />
    <glyph glyph-name="fivesuperior" unicode="&#x2075;" horiz-adv-x="430" 
d="M61.46 395.62l-0.000976562 36.4209h211c43.8398 0 65.96 25.0596 65.96 69.96v56c0 31.5195 -1.05957 70.1592 -64.5996 70.1592h-113.3c-32.1396 0 -58.2793 -21.4805 -58.6191 -57.1602h-40.4404l15 292h295v-47.04h-251.28l-9.36035 -169.96
c29.3203 39.8799 116.641 29.2002 165.641 29.2002c77 0 109 -42.2002 109 -113.2v-64c0 -82 -46 -114 -109 -114c-81 0 -145.34 -0.320312 -215 11.6201z" />
    <glyph glyph-name="sixsuperior" unicode="&#x2076;" horiz-adv-x="450" 
d="M61.1201 638.66c2 197 58.9795 226.68 122.659 230c67 3.98047 153.44 -2.63965 205.341 -9.95996v-37.0801h-203.02c-67.5 0 -76.9404 -94.9404 -77.9404 -173.061c55 6 143.96 11.6201 191.96 11.6201c88 0 105 -42.5195 105 -93.5195v-73c0 -72 -44 -105 -105 -105
h-107c-72 0 -134 37 -132 250zM108.159 613.141c0 -81.6201 15.9404 -177.44 82.9805 -177.44h106c41.5 0 60.9404 20.4404 60.9404 63.2402v64.7402c0 43.1396 -22.7803 49.46 -60.9404 49.46h-188.98z" />
    <glyph glyph-name="sevensuperior" unicode="&#x2077;" horiz-adv-x="370" 
d="M16.7002 817.96v47.04h321.72l14.6201 -25.5596l-182.34 -450.44h-52.3203l174.4 428.96h-276.08z" />
    <glyph glyph-name="eightsuperior" unicode="&#x2078;" horiz-adv-x="480" 
d="M73.8203 491l-0.000976562 58c0 48 34.7803 67.7402 61.1201 73.3604c-46.4199 12.6396 -61.1201 54.6396 -61.1201 88.6396v40c0 92 49 117 116 117h110c70 0 108 -31 108 -117v-40c0.660156 -20.7998 -8.47949 -68.7402 -55.8193 -76.7002
c34.3203 -6 55.8203 -51.5195 55.8203 -85.2998v-58c0 -84 -50 -104 -105 -104h-120c-92 0 -109 50 -109 104zM120.859 495c0 -43.2197 15.0996 -60.3008 65.96 -60.3008h112c38.54 0 61.96 14.7402 61.96 60.2998v50c0 42.4404 -28.5596 59.8203 -57.5596 59.8203h-118.4
c-38.1602 0 -63.96 -18.46 -63.96 -59.1396v-50.6797zM120.859 714.999c0 -47.0596 30.7393 -62.4795 60.5596 -62.4795h117.8c44.6201 0 61.5605 29.96 61.5605 62.4795v32c0 60.2402 -22.4404 73.96 -69.96 73.96h-97c-52.8203 0 -72.96 -16.4004 -72.96 -73.96v-32z" />
    <glyph glyph-name="ninesuperior" unicode="&#x2079;" horiz-adv-x="450" 
d="M50.4404 691v73c0 72 44 105 105 105h107c72 0 134 -37 132 -250c-2 -197 -56.3398 -226.02 -122 -230c-66.3398 -3.98047 -146.18 -1.32031 -206 9.95996v37.0801h202.36c67.5 0 77.5996 94.9404 78.5996 173.061c-55 -6 -143.96 -11.6201 -191.96 -11.6201
c-88 0 -105 42.5195 -105 93.5195zM97.4805 693.98c0 -43.1396 22.7803 -49.46 60.9404 -49.46h188.98c0 81.6201 -13.96 177.44 -81 177.44h-107.98c-41.5 0 -60.9404 -20.4404 -60.9404 -63.2402v-64.7402z" />
    <glyph glyph-name="zeroinferior" unicode="&#x2080;" horiz-adv-x="482" 
d="M67.1396 -90v255c0 84 46 110 117 110h117c83 0 113 -43 113 -110v-255c0 -96 -49 -110 -113 -110h-117c-59 0 -117 10 -117 110zM114.84 -86c0 -53.5996 17.501 -66.96 73.3008 -66.96h109c62.2197 0 70.6201 21.0801 70.6201 66.96v247
c0 44.5195 -13.7803 66.96 -70.6201 66.96h-109c-58.4805 0 -73.3008 -22.0195 -73.3008 -66.96v-247z" />
    <glyph glyph-name="oneinferior" unicode="&#x2081;" horiz-adv-x="265" 
d="M18.04 186.6v35.4004l128 55h47.04v-476h-47.04v424.34z" />
    <glyph glyph-name="twoinferior" unicode="&#x2082;" horiz-adv-x="395" 
d="M35.4004 235.96c-2 0 -1.00098 35.7598 -0.000976562 34.7598c66 8 111 12.2803 183 12.2803c98 0 130 -58 130 -136c0 -123.98 -183.22 -265.66 -223.859 -298.96h222.86v-47.04h-309v43.04c67 54 260.64 189.34 260.64 299.96c0 58.4404 -19.0195 91.96 -89.9395 91.96
h-173.7z" />
    <glyph glyph-name="threeinferior" unicode="&#x2083;" horiz-adv-x="416" 
d="M33.4004 231.62l0.000976562 31.7803c53.2598 16.2598 119.34 14.5996 195.34 14.5996c87 0 121 -54.6201 121 -114.62v-35c0 -50.4004 -35.5801 -81.7402 -60.5605 -89.0205c24.96 -12.5801 60.5596 -41.5996 60.5596 -95.3594v-28c0 -71 -27.3398 -119 -126.34 -119
c-74 0 -134.1 -0.639648 -186 15.6201l0.660156 30.7598c21.1201 0 177.34 0.660156 177.34 0.660156c63.5195 0 86.96 19.04 86.96 75.96v23c0 54.0596 -42.1797 75.1396 -82.96 76.1396l-142 4.66016v34.4199l142 5.98047c50.7803 2 84.2998 27.0596 84.2998 70.46
v26.4199c0 53.2197 -34.8799 70.54 -81.5801 70.54h-188.72z" />
    <glyph glyph-name="fourinferior" unicode="&#x2084;" horiz-adv-x="414" 
d="M18.04 -44.1201l201.879 319.12h53.6602l-182.02 -289h200.32v121l21.54 48h25.5v-169h59v-37.04l-59 -12.3203v-135.64h-47.04v135.64h-257.96z" />
    <glyph glyph-name="fiveinferior" unicode="&#x2085;" horiz-adv-x="430" 
d="M61.46 -17l14.999 292.001h295v-47.04h-251.28l-9.36035 -169.96c29.3203 39.8799 116.641 29.2002 165.641 29.2002c77 0 109 -42.2002 109 -113.2v-64c0 -82 -46 -114 -109 -114c-81 0 -145.34 -0.320312 -215 11.6201v36.4199h211
c43.8398 0 65.96 25.0596 65.96 69.96v56c0 31.5195 -1.05957 70.1592 -64.5996 70.1592h-113.3c-32.1396 0 -58.2793 -21.4805 -58.6191 -57.1602h-40.4404z" />
    <glyph glyph-name="sixinferior" unicode="&#x2086;" horiz-adv-x="450" 
d="M61.1201 50.6602c2 197 58.9805 226.68 122.66 230c66.3398 3.32031 149.479 0 205.34 -9.95996v-37.0801h-203.02c-67.5 0 -76.9404 -94.9404 -77.9404 -173.061c55 6 143.96 11.6201 191.96 11.6201c88 0 105 -42.5195 105 -93.5195v-73c0 -72 -44 -105 -105 -105h-107
c-72 0 -134 37 -132 250zM108.16 25.1406c0 -81.6201 15.9404 -177.44 82.9805 -177.44h106c41.5 0 60.9404 20.4404 60.9404 63.2402v64.7402c0 43.1396 -22.7803 49.46 -60.9404 49.46h-188.98z" />
    <glyph glyph-name="seveninferior" unicode="&#x2087;" horiz-adv-x="370" 
d="M16.7002 229.96v47.04h321.72l14.6201 -25.5596l-182.34 -450.44h-52.3203l174.4 428.96h-276.08z" />
    <glyph glyph-name="eightinferior" unicode="&#x2088;" horiz-adv-x="480" 
d="M73.8203 -39c0 48 34.7793 67.7402 61.1191 73.3604c-46.4199 12.6396 -61.1201 54.6396 -61.1201 88.6396v40c0 92 49 117 116 117h110c70 0 108 -31 108 -117v-40c0.660156 -20.7998 -8.47949 -68.7402 -55.8193 -76.7002
c34.3203 -6 55.8203 -51.5195 55.8203 -85.2998v-58c0 -84 -50 -104 -105 -104h-120c-92 0 -109 50 -109 104v58zM120.859 -42.3203v-50.6807c0 -43.2197 15.0996 -60.2998 65.96 -60.2998h112c38.54 0 61.96 14.7402 61.96 60.2998v50
c0 42.4404 -28.5596 59.8203 -57.5596 59.8203h-118.4c-38.1602 0 -63.96 -18.46 -63.96 -59.1396zM120.859 126.999c0 -47.0596 30.7393 -62.4795 60.5596 -62.4795h117.8c44.6201 0 61.5605 29.96 61.5605 62.4795v32c0 60.2402 -22.4404 73.96 -69.96 73.96h-97
c-52.8203 0 -72.96 -16.4004 -72.96 -73.96v-32z" />
    <glyph glyph-name="nineinferior" unicode="&#x2089;" horiz-adv-x="450" 
d="M50.4404 103v73c0 72 44 105 105 105h107c72 0 134 -37 132 -250c-2 -197 -56.3398 -226.02 -122 -230c-66.3398 -3.98047 -148.16 -0.660156 -206 9.95996v37.0801h202.36c67.5 0 77.5996 94.9404 78.5996 173.061c-55 -6 -143.96 -11.6201 -191.96 -11.6201
c-88 0 -105 42.5195 -105 93.5195zM97.4805 105.98c0 -43.1396 22.7803 -49.46 60.9404 -49.46h188.98c0 81.6201 -13.96 177.44 -81 177.44h-107.98c-41.5 0 -60.9404 -20.4404 -60.9404 -63.2402v-64.7402z" />
    <glyph glyph-name="zero.oldstyle" horiz-adv-x="649" 
d="M78.1602 162v307c0 108 77 162 172 162h153.8c122 0 167.34 -71 167.34 -162v-307c0 -119 -68.3398 -162 -167.34 -162h-153.8c-91 0 -172 42 -172 162zM135.16 162c0 -75.5 52.7207 -105 115.001 -105h153.8c77.5996 0 110.34 40.46 110.34 105v307
c0 60.96 -28.8604 105 -110.341 105h-153.8c-76.46 0 -115 -43.4004 -115 -105v-307z" />
    <glyph glyph-name="one.oldstyle" horiz-adv-x="353" 
d="M33.4004 507.6v39.4004l168 85h57v-632h-57v567.38z" />
    <glyph glyph-name="two.oldstyle" horiz-adv-x="597" 
d="M45.7598 581.34l-0.000976562 40.0605c82.0195 11.96 177.46 21.5996 292.46 16.5996c140 0 203 -74 203 -187c0 -168.96 -312.8 -364 -371.479 -394h366.48v-57h-484.8v52.7002c115.1 63.1797 432.14 250.58 432.14 400.3c0 89.6602 -52.2998 130.32 -149.74 128.34
h-288.06z" />
    <glyph glyph-name="three.oldstyle" horiz-adv-x="618" 
d="M56.1201 579.96l-0.00195312 35.1191c78.4805 24.2002 190.801 23.8799 307.801 21.8799c113.06 -2 171 -73 171 -165v-69c0 -83.8799 -48.0996 -124.42 -84.6992 -135.66c37.9404 -18.8604 84.7002 -58.8203 84.7002 -144.34v-59c0 -109 -56.3398 -168 -178.34 -168
c-114 0 -223.12 -0.959961 -294.46 22.2197l0.660156 35.7803h289.84c61.8398 0 122.96 18.0801 122.96 110v59c0 85.4805 -63.9805 112.841 -119 114.841l-232.46 7v43.04l232.46 8.63965c72.0596 2.32031 121 37.3203 121 106.48v69c0 76.5596 -56.7598 108 -118.96 108
h-302.5z" />
    <glyph glyph-name="four.oldstyle" horiz-adv-x="593" 
d="M22.3799 128.08l316.24 503.581h67.2598l-297.74 -476.86h315.96v216.86l27.8203 75h29.1797v-291.86h90v-43.7002l-90 -15.9404v-193.5h-57v193.5h-375.2z" />
    <glyph glyph-name="five.oldstyle" horiz-adv-x="637" 
d="M85.1797 -44.04h304c69.3398 0 106.66 48.6602 106.66 111.7v104.9c0 38.7803 -5.41992 111 -107 111h-153.66c-46.1396 0 -96.6201 -33.9199 -96.6201 -92h-51.7197l22 440.1h422.34v-57h-369.64l-13.7002 -276.34c11.96 16.3203 45.4004 39.6006 91 42.2402
c60.46 4.62012 119.34 0 150.34 0c118 0 163.66 -69 163.66 -166v-108.9c0 -137 -101.66 -170 -163.66 -170c-124 0 -191.08 0.660156 -304 19.2402v41.0596z" />
    <glyph glyph-name="six.oldstyle" horiz-adv-x="627" 
d="M82.8203 384c0 262.62 85.9404 354.001 172 354.001c101 0 208.36 -4.63965 291.801 -15.5996v-41.4004h-282.2c-103.24 0 -123.28 -184.9 -124.601 -278.42c85 10 195.8 17.5996 269.8 17.5996c135.32 0 161 -68.6201 161 -147.98v-124.2c0 -112 -67 -149 -161 -149
h-138.8c-109 0.660156 -188 74.0801 -188 385zM139.821 362.841c0 -115.08 9.44043 -306.84 131 -306.84h138.8c54.7402 0 105 13.0596 105 95.2803v120.92c0 75.96 -48.7998 90.6396 -105 90.6396h-269.8z" />
    <glyph glyph-name="seven.oldstyle" horiz-adv-x="542" 
d="M33.4004 574.66v57h451.86l23.2598 -39.5l-255.82 -692.5h-67.5996l251.2 675h-402.9z" />
    <glyph glyph-name="eight.oldstyle" horiz-adv-x="641" 
d="M83.8398 154l-0.000976562 98.3398c0 74.6797 50.4404 100.46 90.1006 109.04c-71.4805 19.6201 -90.1006 84.6201 -90.1006 137.62v65c0 134 73 173 176 173h135.8c107 0 162 -50 162 -173v-65c0.660156 -32.8799 -14.2197 -105.76 -80.7793 -117.02
c59.4404 -13.4004 81.4404 -80.1807 80.7803 -129.98v-98c0 -130 -99 -154 -163 -154h-134.8c-172 0 -176 113 -176 154zM140.839 151c0 -63.96 41.9199 -94 119 -94h134.8c49.1201 0 106 26.3799 106 94v105c0 73.6602 -56.96 89.5 -103 89.5h-148.8
c-46 0 -108 -20.7002 -108 -89.5v-105zM140.839 494c0 -78.5596 63.1201 -92.5 108 -92.5h148.8c81.1602 0 103 53.0996 103 92.5v68c0 86.2402 -34.4404 118 -105 118h-135.8c-79.2998 0 -119 -23.2402 -119 -118v-68z" />
    <glyph glyph-name="nine.oldstyle" horiz-adv-x="627" 
d="M67.1396 358.8l-0.000976562 124.199c0 112 67 149 161 149h138.8c109 -0.660156 188 -74.0801 188 -385c0 -262.62 -85.9404 -354 -172 -354c-101 0 -207.04 1.33984 -291.8 15.5996v41.4004h282.2c103.24 0 123.28 184.9 124.601 278.42
c-85 -10 -195.8 -17.5996 -269.8 -17.5996c-135.32 0 -161 68.6201 -161 147.98zM123.139 358.799c0 -75.96 48.7998 -90.6406 105 -90.6406h269.8c0 115.08 -9.44043 306.84 -131 306.84h-138.8c-54.7402 0 -105 -13.0596 -105 -95.2793v-120.92z" />
    <glyph glyph-name="Euro" unicode="&#x20ac;" horiz-adv-x="605" 
d="M22.3799 260.78l-0.000976562 35.7783l88 5.63965v114.6l-88 6.2998v32.7998l88 7.2998c0 72 -10 276.8 234 276.8c52 0 164.8 -13.5996 234.8 -26.5996v-43.7002s-152.46 13.6396 -234.8 13.2998c-161.92 -0.339844 -177.34 -96 -177 -219.8l251 -5.63965v-35.1201
l-251 -5.63965v-114.6l251 -5.98047v-35.7803s-254 -3.63965 -251 -5.63965c-1.01953 -134.34 69.0605 -202.78 177.001 -203.8c101.08 -1.01953 238.8 15.3008 238.8 15.3008v-42.0596c-81 -21.6396 -155.12 -30.2393 -238.8 -30.2393c-77 0 -234 34.7998 -234 260.8z" />
    <glyph glyph-name="endash" unicode="&#x2013;" horiz-adv-x="517" 
d="M22.3799 258.5v58h473v-58h-473z" />
    <glyph glyph-name="emdash" unicode="&#x2014;" horiz-adv-x="740" 
d="M22.3799 260.5v58h696v-58h-696z" />
    <glyph glyph-name="breve" unicode="&#x2d8;" horiz-adv-x="340" 
d="M56.1201 644h35.7803c0 -45.1201 38.0801 -78.5605 78.2197 -78.2207c45.1396 0.339844 80.2197 30.7803 80.2197 78.2207h35.7803c0 -76 -61 -114 -116 -114s-114 42 -114 114z" />
    <glyph glyph-name="ogonek" unicode="&#x2db;" horiz-adv-x="235" 
d="M137.1 0h29.8193c-92.5195 -60.1797 -83.8193 -136.34 12.8604 -136.64v-44.3604c-115 -16 -192.34 116.32 -42.6797 181z" />
    <glyph glyph-name="caron" unicode="&#x2c7;" horiz-adv-x="397" 
d="M56.1201 661h52.959l91.2197 -85.96l88.04 85.96h52.9805l-113.52 -130h-54.3398zM227.799 531z" />
    <glyph glyph-name="hungarumlaut" unicode="&#x2dd;" horiz-adv-x="367" 
d="M22.3799 531l111.76 133h71.54l-133 -133h-50.2998zM158.739 531l111.76 133h71.54l-133 -133h-50.2998z" />
    <glyph glyph-name="dotaccent" unicode="&#x2d9;" horiz-adv-x="187" 
d="M54.0801 563.48v56.7197c0 12.6201 6.63965 20.5801 19.9199 20.5801h36.7402c12.6201 0 19.2598 -8.95996 19.2598 -20.5801v-56.7197c0 -12.6201 -7.63965 -19.2598 -19.2598 -19.2598h-36.7402c-11.6201 0 -19.9199 7.63965 -19.9199 19.2598z" />
    <glyph glyph-name="Aogonek" unicode="&#x104;" horiz-adv-x="666" 
d="M594.08 0.0263672h29.8203c-92.5205 -60.1797 -83.8203 -136.34 12.8594 -136.64v-44.3604c-115 -16 -192.34 116.32 -42.6797 181zM50.4404 0l270.699 732h60.4004l258.7 -732h-66.9199l-72.5205 220.66h-305.939l-75.5205 -220.66h-68.8994zM215.74 277.66h264.84
l-129.9 371.6z" />
    <glyph glyph-name="Lcaron" unicode="&#x13d;" horiz-adv-x="557" 
d="M89.5195 126v606h57v-606c0 -66.2598 41.5 -69 79 -69h295.8v-57h-295.8c-66.0049 0 -136 13 -136 126zM226.239 705l-0.000976562 67h57.3398v-67l-8.63965 -134h-39.0596z" />
    <glyph glyph-name="Sacute" unicode="&#x15a;" horiz-adv-x="584" 
d="M282.54 798l111.76 133h71.54l-133 -133h-50.2998zM72.8203 494v66c0 145 84.2998 178 196.3 178c53 0 198.74 -16.2803 240.479 -22.2998v-44.0205c-64 4 -240.479 9.32031 -240.479 9.32031c-81.9033 3.2666 -139.3 -13.8604 -139.3 -121v-66
c0 -95.4199 46.4199 -106.5 117.3 -106.5h132.479c133 0 158.04 -81.5 158.04 -163.5v-68c0 -142 -100.279 -164 -199.279 -164c-49 0 -198.9 13.5996 -244.9 21.5996v44.7002c41.3604 -4 151.9 -9.2998 244.9 -9.2998c57.6592 0 142.279 9.13965 142.279 107v68
c0 66.5195 -24.1396 106.5 -101.04 106.5h-130.479c-158.3 0 -176.3 81.54 -176.3 163.5z" />
    <glyph glyph-name="Scaron" unicode="&#x160;" horiz-adv-x="584" 
d="M168.18 928h52.96l91.2207 -85.96l88.04 85.96h52.9795l-113.52 -130h-54.3408zM72.8203 494v66c0 145 84.2998 178 196.3 178c53 0 198.74 -16.2803 240.479 -22.2998v-44.0205c-64 4 -240.479 9.32031 -240.479 9.32031c-81.9033 3.2666 -139.3 -13.8604 -139.3 -121
v-66c0 -95.4199 46.4199 -106.5 117.3 -106.5h132.479c133 0 158.04 -81.5 158.04 -163.5v-68c0 -142 -100.279 -164 -199.279 -164c-49 0 -198.9 13.5996 -244.9 21.5996v44.7002c41.3604 -4 151.9 -9.2998 244.9 -9.2998c57.6592 0 142.279 9.13965 142.279 107v68
c0 66.5195 -24.1396 106.5 -101.04 106.5h-130.479c-158.3 0 -176.3 81.54 -176.3 163.5z" />
    <glyph glyph-name="Scedilla" unicode="&#x15e;" horiz-adv-x="584" 
d="M200.08 -154.2l45.8604 11.6006c36.5 10.6396 49.6797 35.7998 49 97.5996h50c0 -101.32 -19.9805 -136 -101 -136h-43.8604v26.7998zM72.8203 494v66c0 145 84.2998 178 196.3 178c53 0 198.74 -16.2803 240.479 -22.2998v-44.0205
c-64 4 -240.479 9.32031 -240.479 9.32031c-81.9033 3.2666 -139.3 -13.8604 -139.3 -121v-66c0 -95.4199 46.4199 -106.5 117.3 -106.5h132.479c133 0 158.04 -81.5 158.04 -163.5v-68c0 -142 -100.279 -164 -199.279 -164c-49 0 -198.9 13.5996 -244.9 21.5996v44.7002
c41.3604 -4 151.9 -9.2998 244.9 -9.2998c57.6592 0 142.279 9.13965 142.279 107v68c0 66.5195 -24.1396 106.5 -101.04 106.5h-130.479c-158.3 0 -176.3 81.54 -176.3 163.5z" />
    <glyph glyph-name="Tcaron" unicode="&#x164;" horiz-adv-x="586" 
d="M152.18 927h52.96l91.2207 -85.96l88.04 85.96h52.9795l-113.52 -130h-54.3408zM45.6797 675v57h511.4v-57h-230.2v-675h-57v675h-224.2z" />
    <glyph glyph-name="Zacute" unicode="&#x179;" horiz-adv-x="558" 
d="M262.13 797l111.76 133h71.54l-133 -133h-50.2998zM39.0801 0v57l408.58 618h-408.58v57h482.8v-57l-408.58 -618h408.58v-57h-482.8z" />
    <glyph glyph-name="Zcaron" unicode="&#x17d;" horiz-adv-x="558" 
d="M137.88 927h52.96l91.2197 -85.96l88.04 85.96h52.9805l-113.521 -130h-54.3398zM39.0801 0v57l408.58 618h-408.58v57h482.8v-57l-408.58 -618h408.58v-57h-482.8z" />
    <glyph glyph-name="Zdotaccent" unicode="&#x17b;" horiz-adv-x="558" 
d="M242.52 816.26v56.7207c0 12.6191 6.64062 20.5791 19.9209 20.5791h36.7393c12.6201 0 19.2607 -8.95996 19.2607 -20.5791v-56.7207c0 -12.6201 -7.64062 -19.2598 -19.2607 -19.2598h-36.7393c-11.6201 0 -19.9209 7.63965 -19.9209 19.2598zM39.0801 0v57l408.58 618
h-408.58v57h482.8v-57l-408.58 -618h408.58v-57h-482.8z" />
    <glyph glyph-name="aogonek" unicode="&#x105;" horiz-adv-x="533" 
d="M435.448 0h29.8193c-92.5195 -60.1797 -83.8193 -136.34 12.8604 -136.64v-44.3604c-115 -16 -192.34 116.32 -42.6797 181zM51.2197 126v61c0 81.7002 50.3398 133 133 133c0 0 228.8 -1 228.8 0c0 0 1 66 0 67c0 63.7197 -30.9795 98.6602 -98.3193 99
c-72 0.339844 -151.521 -6.36035 -246.48 -15.7402v40.4004c66.2402 17.96 149.46 29.3398 248.8 30.3398c83 1 153 -44 153 -154v-387h-41.3994l-15.6006 64c-2 0 -135.42 -70 -228.8 -70c-73 0 -133 47 -133 132zM108.22 131c0 -60.5801 36.9004 -79.6602 76 -80
c80 -0.679688 228.8 54.0596 228.8 54.0596v171.9l-228.8 -13.96c-55.9199 -3.66016 -76 -38.0996 -76 -79.96v-52.04z" />
    <glyph glyph-name="lcaron" unicode="&#x13e;" horiz-adv-x="299" 
d="M67.1396 189l-0.00195312 594h57v-594c0 -103.32 22.1602 -121.36 68.9004 -132c0 0 76.9004 -17.5996 83.9004 -17.5996v-39.4004h-82.5596c-88.2197 0 -127.239 48 -127.239 189zM208.298 714.34l-0.000976562 67h57.3398v-67l-8.63965 -134h-39.0596z" />
    <glyph glyph-name="sacute" unicode="&#x15b;" horiz-adv-x="505" 
d="M227.92 601l111.76 133h71.54l-133 -133h-50.2998zM44.7598 359.7v46c0 82 35 130.3 138 130.3c52 0 198.8 -8.62012 250.8 -13.6201v-42.3799h-250.8c-70.7998 0 -81 -27.3799 -81 -74.2998v-46c0 -65.54 31.0801 -67.2002 81 -67.2002h147.8
c83.2607 0 130 -48.9004 130 -123.9v-49c0 -109 -66 -124.6 -130 -124.6c-49 0 -225.8 11.9404 -263.8 15.9404v41.0596h263.8c15.9805 0 73 -3.62012 73 67.5996v49c0 39.7607 -19.8193 66.9004 -73 66.9004h-147.8c-94 0 -138 21.2002 -138 124.2z" />
    <glyph glyph-name="scaron" unicode="&#x161;" horiz-adv-x="505" 
d="M115.1 731h52.96l91.2207 -85.96l88.04 85.96h52.9795l-113.52 -130h-54.3398zM44.7598 359.7v46c0 82 35 130.3 138 130.3c52 0 198.8 -8.62012 250.8 -13.6201v-42.3799h-250.8c-70.7998 0 -81 -27.3799 -81 -74.2998v-46c0 -65.54 31.0801 -67.2002 81 -67.2002h147.8
c83.2607 0 130 -48.9004 130 -123.9v-49c0 -109 -66 -124.6 -130 -124.6c-49 0 -225.8 11.9404 -263.8 15.9404v41.0596h263.8c15.9805 0 73 -3.62012 73 67.5996v49c0 39.7607 -19.8193 66.9004 -73 66.9004h-147.8c-94 0 -138 21.2002 -138 124.2z" />
    <glyph glyph-name="scedilla" unicode="&#x15f;" horiz-adv-x="505" 
d="M147.98 -148.2l45.8594 11.6006c36.5 10.6396 49.6797 35.7998 49 97.5996h50c0 -101.32 -19.9795 -136 -101 -136h-43.8594v26.7998zM44.7598 359.7v46c0 82 35 130.3 138 130.3c52 0 198.8 -8.62012 250.8 -13.6201v-42.3799h-250.8
c-70.7998 0 -81 -27.3799 -81 -74.2998v-46c0 -65.54 31.0801 -67.2002 81 -67.2002h147.8c83.2607 0 130 -48.9004 130 -123.9v-49c0 -109 -66 -124.6 -130 -124.6c-49 0 -225.8 11.9404 -263.8 15.9404v41.0596h263.8c15.9805 0 73 -3.62012 73 67.5996v49
c0 39.7607 -19.8193 66.9004 -73 66.9004h-147.8c-94 0 -138 21.2002 -138 124.2z" />
    <glyph glyph-name="tcaron" unicode="&#x165;" horiz-adv-x="357" 
d="M22.3799 475v42.4004l93.9004 14.5996l14.5996 148h42.4004v-148h161.8v-57h-161.8v-285c0 -110.46 33.2002 -124.68 68.9004 -132c0 0 76.9004 -17.5996 83.9004 -17.5996v-39.4004h-82.9004c-76.6602 0 -126.9 48 -126.9 189v285h-93.9004zM242.74 776.54
l49.499 22.7783l8.5 -44.2197l-7.25977 -111.22l-37.0195 -45.5596l-10.6797 88.4404z" />
    <glyph glyph-name="zacute" unicode="&#x17a;" horiz-adv-x="462" 
d="M206.59 594.3l111.76 133h71.54l-133 -133h-50.2998zM33.4004 474v57h396v-57l-306.44 -416h306.44c1 -1 0 -57 0 -57h-380.66v57l309.06 416h-324.399z" />
    <glyph glyph-name="zcaron" unicode="&#x17e;" horiz-adv-x="462" 
d="M96.2803 726h52.96l91.2197 -85.96l88.04 85.96h52.9805l-113.521 -130h-54.3398zM33.4004 474v57h396v-57l-306.44 -416h306.44c1 -1 0 -57 0 -57h-380.66v57l309.06 416h-324.399z" />
    <glyph glyph-name="zdotaccent" unicode="&#x17c;" horiz-adv-x="462" 
d="M193.44 615.26v56.7207c0 12.6191 6.63965 20.5791 19.9199 20.5791h36.7393c12.6201 0 19.2607 -8.95996 19.2607 -20.5791v-56.7207c0 -12.6201 -7.64062 -19.2598 -19.2607 -19.2598h-36.7393c-11.6201 0 -19.9199 7.63965 -19.9199 19.2598zM33.4004 474v57h396v-57
l-306.44 -416h306.44c1 -1 0 -57 0 -57h-380.66v57l309.06 416h-324.399z" />
    <glyph glyph-name="Racute" unicode="&#x154;" horiz-adv-x="586" 
d="M264.5 792l111.76 133h71.54l-133 -133h-50.2998zM67.1396 0v732h299.761c89.5596 0 171.38 -42.7803 171.38 -213.2c0 -189.319 -94.9199 -206.34 -137.88 -209.66l156.38 -309.14h-61.2998l-156.721 307.16c-18.0195 0.339844 -212.92 11.6201 -214.62 12.6396v-319.8
h-57zM124.14 368.12h242.761c57.2197 0 113.38 7.82031 113.38 150.68c0 138.82 -58.5 155.2 -113.38 155.2h-242.761v-305.88z" />
    <glyph glyph-name="Abreve" unicode="&#x102;" horiz-adv-x="666" 
d="M239.06 911h35.7803c0 -45.1201 38.0801 -78.5596 78.2197 -78.2197c45.1406 0.339844 80.2207 30.7793 80.2207 78.2197h35.7793c0 -76 -61 -114 -116 -114s-114 42 -114 114zM50.4404 0l270.699 732h60.4004l258.7 -732h-66.9199l-72.5205 220.66h-305.939
l-75.5205 -220.66h-68.8994zM215.74 277.66h264.84l-129.9 371.6z" />
    <glyph glyph-name="Lacute" unicode="&#x139;" horiz-adv-x="557" 
d="M94.2305 795.3l111.76 133h71.54l-133 -133h-50.2998zM89.5195 126v606h57v-606c0 -66.2598 41.5 -69 79 -69h295.801v-57h-295.801c-66 0 -136 13 -136 126z" />
    <glyph glyph-name="Cacute" unicode="&#x106;" horiz-adv-x="575" 
d="M302.15 800l111.76 133h71.54l-133 -133h-50.2998zM61.46 368c0 232.64 43.2998 372 243.66 372c52 0 163.8 -11.6602 233.8 -24.6602v-43.7002c-1 0 -141.8 11.3604 -233.8 11.3604c-132.48 0 -186.66 -61.4199 -186.66 -317c0 -185.76 47.54 -315 187 -315
c105 0 233.46 8.7002 233.46 8.7002v-43.7002c-70 -13 -181.8 -22 -233.8 -22c-185 0 -243.66 159 -243.66 374z" />
    <glyph glyph-name="Ccaron" unicode="&#x10c;" horiz-adv-x="575" 
d="M193.1 930h52.96l91.2207 -85.96l88.04 85.96h52.9795l-113.52 -130h-54.3398zM61.46 368c0 232.64 43.2998 372 243.66 372c52 0 163.8 -11.6602 233.8 -24.6602v-43.7002c-1 0 -141.8 11.3604 -233.8 11.3604c-132.48 0 -186.66 -61.4199 -186.66 -317
c0 -185.76 47.54 -315 187 -315c105 0 233.46 8.7002 233.46 8.7002v-43.7002c-70 -13 -181.8 -22 -233.8 -22c-185 0 -243.66 159 -243.66 374z" />
    <glyph glyph-name="Eogonek" unicode="&#x118;" horiz-adv-x="572" 
d="M495.13 11.751h29.8203c-92.5205 -60.1797 -83.8203 -136.34 12.8594 -136.64v-44.3604c-115 -16 -192.34 116.32 -42.6797 181zM89.5195 123v479c0 98 60.0225 132.712 126 130l309.54 -13.96v-43.04h-309.54c-55.3994 0 -69 -29.6797 -69 -73v-209.18l338.54 -8.30078
v-43.6992l-338.54 -8.30078v-209.52c0.660156 -66.2598 41.1602 -69 79 -69h299.54v-42.3799l-299.54 -14.6201c-66.0088 -3.42188 -136 13 -136 126z" />
    <glyph glyph-name="Ecaron" unicode="&#x11a;" horiz-adv-x="572" 
d="M181.24 922h52.96l91.2197 -85.96l88.04 85.96h52.9805l-113.521 -130h-54.3398zM89.5195 123v479c0 98 60.0225 132.712 126 130l309.54 -13.96v-43.04h-309.54c-55.3994 0 -69 -29.6797 -69 -73v-209.18l338.54 -8.30078v-43.6992l-338.54 -8.30078v-209.52
c0.660156 -66.2598 41.1602 -69 79 -69h299.54v-42.3799l-299.54 -14.6201c-66.0088 -3.42188 -136 13 -136 126z" />
    <glyph glyph-name="Dcaron" unicode="&#x10e;" horiz-adv-x="661" 
d="M188.66 922h52.96l91.2197 -85.96l88.04 85.96h52.9805l-113.521 -130h-54.3398zM89.5195 0v732h265.54c225.341 0 259.66 -219 259.66 -369c0 -166 -69.3799 -363 -259.66 -363h-265.54zM146.52 58.9805h208.54c143.9 0 202.66 153.06 202.66 305.02
c0 221.48 -75.7793 311 -202.66 311h-208.54v-616.02z" />
    <glyph glyph-name="Nacute" unicode="&#x143;" horiz-adv-x="674" 
d="M334.68 797l111.761 133h71.54l-133 -133h-50.3008zM89.5195 0v732h58.6602l407 -625.28v625.28h57v-732h-57l-408 625.28v-625.28h-57.6602z" />
    <glyph glyph-name="Ncaron" unicode="&#x147;" horiz-adv-x="674" 
d="M214.85 927h52.96l91.2207 -85.96l88.04 85.96h52.9795l-113.52 -130h-54.3398zM89.5195 0v732h58.6602l407 -625.28v625.28h57v-732h-57l-408 625.28v-625.28h-57.6602z" />
    <glyph glyph-name="Ohungarumlaut" unicode="&#x150;" horiz-adv-x="675" 
d="M258.05 797l111.76 133h71.54l-133 -133h-50.2998zM394.41 797l111.76 133h71.54l-133 -133h-50.2998zM72.8203 361c0 343 109.199 376 278.56 376c173 0 277.24 -33 277.24 -376c0 -323 -97.2402 -365 -277.24 -365s-278.56 32 -278.56 365zM129.82 361
c0 -270.94 56.4199 -308 221.56 -308c161.101 0 220.24 43.0195 220.24 308c0 307.5 -76.0801 319 -220.24 319c-138.1 0 -221.56 -7.08008 -221.56 -319z" />
    <glyph glyph-name="Rcaron" unicode="&#x158;" horiz-adv-x="586" 
d="M148.14 925.3h52.96l91.2207 -85.96l88.04 85.96h52.9795l-113.52 -130h-54.3398zM67.1396 0v732h299.761c89.5596 0 171.38 -42.7803 171.38 -213.2c0 -189.319 -94.9199 -206.34 -137.88 -209.66l156.38 -309.14h-61.2998l-156.721 307.16
c-18.0195 0.339844 -212.92 11.6201 -214.62 12.6396v-319.8h-57zM124.14 368.12h242.761c57.2197 0 113.38 7.82031 113.38 150.68c0 138.82 -58.5 155.2 -113.38 155.2h-242.761v-305.88z" />
    <glyph glyph-name="Uring" unicode="&#x16e;" horiz-adv-x="679" 
d="M251.59 899c0 57 46 103 102 103s100.66 -46 100.66 -103s-44.6602 -102 -100.66 -102s-102 45 -102 102zM287.37 899c0 -36.1201 30.0996 -65.2197 66.2197 -65.2197s64.8799 29.0996 64.8799 65.2197s-28.7598 66.2197 -64.8799 66.2197
s-66.2197 -30.0996 -66.2197 -66.2197zM89.5195 320v412h57v-412c0 -271.28 85.4404 -268 208.9 -268c107.84 0 203.24 6.75977 203.24 268v412h57.6602v-412c0 -323 -139.9 -325 -260.9 -325c-136 0 -265.9 -6.63965 -265.9 325z" />
    <glyph glyph-name="Uhungarumlaut" unicode="&#x170;" horiz-adv-x="679" 
d="M259.59 797l111.76 133h71.54l-133 -133h-50.2998zM395.95 797l111.76 133h71.54l-133 -133h-50.2998zM89.5195 320v412h57v-412c0 -271.28 85.4404 -268 208.9 -268c107.84 0 203.24 6.75977 203.24 268v412h57.6602v-412c0 -323 -139.9 -325 -260.9 -325
c-136 0 -265.9 -6.63965 -265.9 325z" />
    <glyph glyph-name="Tcommaaccent" unicode="&#x162;" horiz-adv-x="586" 
d="M177.36 -156.84l45.8594 11.5996c36.5 10.6406 49.6807 35.7998 49 97.6006h50c0 -101.32 -19.9795 -136 -101 -136h-43.8594v26.7998zM45.6797 675v57h511.4v-57h-230.2v-675h-57v675h-224.2z" />
    <glyph glyph-name="racute" unicode="&#x155;" horiz-adv-x="425" 
d="M222.76 597.66l111.76 133h71.54l-133 -133h-50.2998zM67.1396 0v531h38.4004l18.5996 -67c61 35 120.08 73 204.801 73c29 0 59.2793 -1.66016 74 -8v-56c-16.0801 3.67969 -45 6.33984 -74 6.33984c-83.0605 0 -127.801 -24.7402 -204.801 -61.7402v-417.6h-57z" />
    <glyph glyph-name="abreve" unicode="&#x103;" horiz-adv-x="519" 
d="M157.098 715.006h35.7803c0 -45.1201 38.0801 -78.5605 78.2197 -78.2207c45.1406 0.34082 80.2207 30.7803 80.2207 78.2207h35.7793c0 -76 -61 -114 -116 -114s-114 42 -114 114zM44.7598 126v61c0 81.7002 50.3398 133 133 133c0 0 228.8 -1 228.8 0c0 0 1 66 0 67
c0 63.7197 -30.9795 98.6602 -98.3193 99c-72 0.339844 -151.521 -6.36035 -246.48 -15.7402v40.4004c66.2402 17.96 149.46 29.3398 248.8 30.3398c83 1 153 -44 153 -154v-387h-41.3994l-15.6006 64c-2 0 -135.42 -70 -228.8 -70c-73 0 -133 47 -133 132zM101.76 131
c0 -60.5801 36.9004 -79.6602 76 -80c80 -0.679688 228.8 54.0596 228.8 54.0596v171.9l-228.8 -13.96c-55.9199 -3.66016 -76 -38.0996 -76 -79.96v-52.04z" />
    <glyph glyph-name="lacute" unicode="&#x13a;" horiz-adv-x="299" 
d="M91.2803 843l111.76 133h71.54l-133 -133h-50.2998zM67.1396 189v594h57v-594c0 -110.8 36.2607 -125.36 68.9004 -132c0 0 76.9004 -17.5996 83.9004 -17.5996v-39.4004h-80.8604c-79.3799 0 -128.94 51.0596 -128.94 189z" />
    <glyph glyph-name="cacute" unicode="&#x107;" horiz-adv-x="500" 
d="M244.54 597.32l111.76 133h71.54l-133 -133h-50.2998zM56.1201 266c0 232 72.6602 270 174.66 270c52 0 150.52 -12.6602 217.8 -26v-40.4004s-128.8 9.40039 -217.8 9.40039c-70.54 0 -117.66 -18.8203 -117.66 -217c0 -171.02 40.8994 -210 117.66 -210
c92 0 225.14 14.4004 225.14 14.4004v-42.4004c-81 -23 -142.14 -28 -225.14 -29c-99 0 -174.66 38 -174.66 271z" />
    <glyph glyph-name="ccaron" unicode="&#x10d;" horiz-adv-x="500" 
d="M131.18 727.32h52.96l91.2207 -85.96l88.04 85.96h52.9795l-113.52 -130h-54.3408zM56.1201 266c0 232 72.6602 270 174.66 270c52 0 150.52 -12.6602 217.8 -26v-40.4004s-128.8 9.40039 -217.8 9.40039c-70.54 0 -117.66 -18.8203 -117.66 -217
c0 -171.02 40.8994 -210 117.66 -210c92 0 225.14 14.4004 225.14 14.4004v-42.4004c-81 -23 -142.14 -28 -225.14 -29c-99 0 -174.66 38 -174.66 271z" />
    <glyph glyph-name="eogonek" unicode="&#x119;" horiz-adv-x="525" 
d="M440.76 23h29.8203c-92.5205 -60.1797 -83.8203 -136.34 12.8604 -136.64v-44.3604c-115 -16 -192.341 116.32 -42.6807 181zM56.1201 268c0 235.98 63.2402 267 221.8 267c123.64 0 202.66 -12 202.66 -188c0 -77.6797 -44.0605 -113.5 -136.66 -113.5h-230.8
c0 -151.18 36.5996 -181.5 117.66 -181.5c92 0 164.8 2.40039 239.8 13.4004v-42.4004c-81 -23 -156.8 -28.3398 -239.8 -28c-135.34 0.679688 -174.66 69.0801 -174.66 273zM113.12 289.5h230.8c48.0801 0 79.6602 11.9199 79.6602 57.5c0 120.3 -33.5996 131 -145 131
c-121.84 0 -165.46 -10.8604 -165.46 -188.5z" />
    <glyph glyph-name="ecaron" unicode="&#x11b;" horiz-adv-x="525" 
d="M137.82 722.7h52.96l91.2197 -85.96l88.04 85.96h52.9795l-113.52 -130h-54.3398zM56.1201 268c0 235.98 63.2402 267 221.8 267c123.64 0 202.66 -12 202.66 -188c0 -77.6797 -44.0605 -113.5 -136.66 -113.5h-230.8c0 -151.18 36.5996 -181.5 117.66 -181.5
c92 0 164.8 2.40039 239.8 13.4004v-42.4004c-81 -23 -156.8 -28.3398 -239.8 -28c-135.34 0.679688 -174.66 69.0801 -174.66 273zM113.12 289.5h230.8c48.0801 0 79.6602 11.9199 79.6602 57.5c0 120.3 -33.5996 131 -145 131c-121.84 0 -165.46 -10.8604 -165.46 -188.5z
" />
    <glyph glyph-name="dcaron" unicode="&#x10f;" horiz-adv-x="553" 
d="M56.1201 263c0 136 27.0596 276 178.06 276c45 0 132.68 -14 196.68 -40v286h55.3203v-785h-39.4004l-16.5996 59c-26 -20.7002 -128 -65 -196 -65c-145 0 -178.06 147 -178.06 269zM113.12 263c0 -147.34 49.2598 -212.001 121.06 -212.001
c79 0 142.34 25.3604 196 49.0605v354.58c-69 18 -119 27.3604 -196 27.3604c-70.7998 0 -121.06 -40.3604 -121.06 -219zM538.96 757.899l49.499 22.7783l8.5 -44.2197l-7.25977 -111.22l-37.0195 -45.5596l-10.6797 88.4404z" />
    <glyph glyph-name="nacute" unicode="&#x144;" 
d="M251.58 600l111.76 133h71.54l-133 -133h-50.2998zM67.1396 0v531h39.0801l17.9199 -62c59.9805 36.0195 121.801 71 202.801 71c106 0 164 -82 164 -170v-370h-57v370c0 70.4199 -43.0801 113 -107 113c-82.7207 0 -126.82 -20.3398 -202.801 -58.3604v-424.64h-57z" />
    <glyph glyph-name="ncaron" unicode="&#x148;" 
d="M143.7 730h52.96l91.2197 -85.96l88.04 85.96h52.9805l-113.521 -130h-54.3398zM67.1396 0v531h39.0801l17.9199 -62c59.9805 36.0195 121.801 71 202.801 71c106 0 164 -82 164 -170v-370h-57v370c0 70.4199 -43.0801 113 -107 113
c-82.7207 0 -126.82 -20.3398 -202.801 -58.3604v-424.64h-57z" />
    <glyph glyph-name="ohungarumlaut" unicode="&#x151;" horiz-adv-x="569" 
d="M191.35 596l111.761 133h71.54l-133 -133h-50.3008zM327.71 596l111.76 133h71.54l-133 -133h-50.2998zM56.1201 258c0 217 59.6602 278 228.56 278c176.96 0 229.24 -75.1602 229.24 -278c0 -195.98 -53.9795 -263 -229.24 -263c-177.979 0 -228.56 73 -228.56 263z
M113.12 258c0 -188.56 60.3994 -206 171.56 -206c114.801 0 172.24 21.8203 172.24 206c0 199.18 -53.8799 221 -172.24 221c-114.72 0 -171.56 -16.0596 -171.56 -221z" />
    <glyph glyph-name="rcaron" unicode="&#x159;" horiz-adv-x="425" 
d="M92.4404 727h52.96l91.2197 -85.96l88.04 85.96h52.9795l-113.52 -130h-54.3398zM67.1396 0v531h38.4004l18.5996 -67c61 35 120.08 73 204.801 73c29 0 59.2793 -1.66016 74 -8v-56c-16.0801 3.67969 -45 6.33984 -74 6.33984
c-83.0605 0 -127.801 -24.7402 -204.801 -61.7402v-417.6h-57z" />
    <glyph glyph-name="uring" unicode="&#x16f;" 
d="M166.69 698c0 57 46 103 102 103s100.659 -46 100.659 -103s-44.6592 -102 -100.659 -102s-102 45 -102 102zM202.47 698c0 -36.1201 30.1006 -65.2197 66.2207 -65.2197c36.1191 0 64.8799 29.0996 64.8799 65.2197s-28.7607 66.2197 -64.8799 66.2197
c-36.1201 0 -66.2207 -30.0996 -66.2207 -66.2197zM56.1201 161.34v370h57v-370c0 -70.4199 43.0801 -113 107 -113c82.7197 0 126.82 20.3398 202.8 58.3604v424.64h57v-531h-39.0801l-17.9199 62c-59.9795 -36.0195 -121.8 -71 -202.8 -71c-106 0 -164 82 -164 170z" />
    <glyph glyph-name="uhungarumlaut" unicode="&#x171;" 
d="M174.69 596l111.76 133h71.54l-133 -133h-50.2998zM311.05 596l111.76 133h71.54l-133 -133h-50.2998zM56.1201 161.34v370h57v-370c0 -70.4199 43.0801 -113 107 -113c82.7197 0 126.82 20.3398 202.8 58.3604v424.64h57v-531h-39.0801l-17.9199 62
c-59.9795 -36.0195 -121.8 -71 -202.8 -71c-106 0 -164 82 -164 170z" />
    <glyph glyph-name="tcommaaccent" unicode="&#x163;" horiz-adv-x="368" 
d="M88.5996 -160.2l45.8604 11.6006c36.5 10.6396 49.6797 35.7998 49 97.5996h50c0 -101.32 -19.9795 -136 -101 -136h-43.8604v26.7998zM22.3799 475v42.4004l93.9004 14.5996l14.5996 148h42.4004v-148h161.8v-57h-161.8v-285.68
c0 -110.801 36.2598 -125.36 68.8994 -132c0 0 76.9004 -17.6006 83.9004 -17.6006v-39.3994h-80.8604c-79.3799 0 -128.939 51.0596 -128.939 189v285.68h-93.9004z" />
    <glyph glyph-name="Lslash" unicode="&#x141;" horiz-adv-x="557" 
d="M6.86035 333.6v47.4014l82.6602 36v315h57v-290.48l133.2 57.2803l-0.660156 -46.4004l-132.54 -57.9404v-268.46c0 -66.2598 41.5 -69 79 -69h295.8v-57h-295.8c-66.0049 0 -136 13 -136 126v243.6z" />
    <glyph glyph-name="lslash" unicode="&#x142;" horiz-adv-x="319" 
d="M10.3398 379.2v47.4004l76.5996 34.6797v321.72h57v-296.18l139.6 64.3799l-1 -46.4004l-138.6 -64.7197v-251.08c0 -103.32 28.0996 -124 68.8994 -132c0 0 76.9004 -17.5996 83.9004 -17.5996v-39.4004h-82.5596c-77 0 -127.24 48 -127.24 189v225.88z" />
    <glyph glyph-name="Dcroat" unicode="&#x110;" horiz-adv-x="661" 
d="M24.5195 352.8v40.4004h65v338.14c0 0.660156 223.2 0.660156 262.801 0.660156c225.34 0 259 -219 259 -369c0 -166 -68.7207 -363 -259 -363h-262.801v352.8h-65zM146.52 58.9805h205.801c143.899 0 200.02 153.06 200.02 305.02
c0 218.84 -78.4199 307.7 -200.02 307.7l-205.801 -0.660156v-277.84h145.801v-40.4004h-145.801v-293.819z" />
    <glyph glyph-name="dcroat" unicode="&#x111;" horiz-adv-x="553" 
d="M56.1201 263c0 136 27.4004 276 178.4 276c45 0 132.34 -14 196.34 -40v125.5h-125.4v40.4004h125.4v120.1h55.6602v-120.1h75.7402v-40.4004h-75.7402v-624.5h-39.4004l-16.5996 59c-26 -20.7002 -128 -65 -196 -65c-145 0 -178.4 147 -178.4 269zM113.12 263
c0 -144.96 49.5996 -212.001 121.399 -212.001c79 0 142.34 25.3604 196 49.0605v354.58c-69 18 -119 27.3604 -196 27.3604c-70.7998 0 -121.399 -41.7197 -121.399 -219z" />
    <glyph glyph-name="questiondown.alt" horiz-adv-x="537" 
d="M44.7598 178.66l0.00195312 101.338c0 135 98.1396 176.98 251.159 156.66c0 1.98047 1.32031 97.3809 0 101.341h58.3398v-148.4c-38.2803 0.660156 -91.4805 1.32031 -129.761 0c-67.7002 -1.32031 -123.4 -31.04 -123.4 -109.6v-101.34
c0 -92.2803 43.7402 -127.66 150.26 -127.66l264.2 0.660156v-41.0596c-93.8398 -11.6396 -167.68 -19.8994 -271.8 -16.5996c-153.7 -1.01953 -199 79.8604 -199 184.66zM287.302 654.698v58.7002c0 12.6201 7.2998 19.2598 18.9199 19.2598h40.3799
c11.6201 0 19.9199 -7.63965 19.9199 -19.2598v-58.7002c0 -12.6201 -6.63965 -20.5801 -19.9199 -20.5801h-40.3799c-12.6201 0 -18.9199 8.95996 -18.9199 20.5801z" />
    <glyph glyph-name="at.alt" horiz-adv-x="853" 
d="M72.8203 433.48c0 36 2.66113 164 168.661 164h209.9c71 0 153 -30 153 -140v-372h-42.4004l-11.6201 64c-2 0 -102.98 -73 -193.98 -73c-74 -2 -129 49 -128 117v53c0 80 46 133 129 133c74.46 0 191.32 -1 191.32 0c0 0 1 75.6602 0 76
c0 64.8398 -37.4805 85 -100.32 85h-206.9c-60.9199 0 -111 -19.1797 -111 -107v-348c0 -99.5195 61.4805 -120 111 -120h338.8c89.1396 0 120 40.4404 120 120v512c0 82.7803 -44.3799 131 -120 131h-398.9v35.7803c48 10 162 22.2197 288 21.2197l110.9 -0.660156
c106 -2 177 -62.3398 177 -187.34v-512c0 -98 -39 -178 -177 -178h-338.8c-102 0 -168 62 -168 178zM285.381 199.48c0 -34.2598 33.0996 -66.6602 78 -66c59 -1 135.32 33.0596 185.32 57.0596v149.86l-186.32 -13.96c-40 -3.32031 -77.6602 -25.54 -77 -81.96
c0 -1 -0.339844 -44 0 -45z" />
    <glyph glyph-name="oe" unicode="&#x153;" horiz-adv-x="924" 
d="M56.1201 258c0 217 59.6582 278.001 228.559 278.001c105.16 0 165.82 -28.1602 197.08 -92.7598c30.2402 78.04 92.2002 91.7598 195.641 91.7598c123.64 0 202.659 -12 202.659 -188c0 -77.6797 -44.0596 -113.5 -136.659 -113.5h-230.14
c-2.63965 -143.26 34.6201 -181.5 117 -181.5c92 0 164.8 2.40039 239.8 13.4004v-42.4004c-81 -23 -156.8 -28.3398 -239.8 -28c-79.5 0.339844 -125.18 25.7998 -149.14 88.0996c-31.2598 -63.3203 -91.9199 -88.1006 -196.439 -88.1006
c-177.98 0 -228.561 73 -228.561 263zM113.118 258.001c0 -188.56 60.3994 -206.001 171.56 -206.001c134.6 0 170.92 37.6602 170.92 212.601c0 180.7 -48.5996 214.4 -170.92 214.4c-114.72 0 -171.56 -16.0596 -171.56 -221zM513.257 289.5h230.14
c48.0801 0 79.6602 11.9199 79.6602 57.5c0 120.3 -33.5996 131 -145 131c-122.5 0 -168.76 -17.46 -164.8 -188.5z" />
    <glyph glyph-name="OE" unicode="&#x152;" horiz-adv-x="1054" 
d="M129.82 361c0 -270.94 55.7598 -308.001 220.899 -308.001c167.56 0 220.56 48.1201 220.56 311.061c0 300.7 -74.0195 315.94 -220.56 315.94c-138.1 0 -220.899 -7.08008 -220.899 -319zM72.8203 360.999c0 343 108.54 375.999 277.9 375.999
c103.18 0 181.56 -12.04 227.159 -97.7998c12.54 69.3398 62.2803 95.7998 119.4 92.7998l300 -13.96v-43.04h-300c-55.4004 0 -69 -29.6797 -69 -73c0 0 0 -184.02 0.339844 -209.18l328.66 -8.2998v-43.7002l-328.66 -8.2998c0 -25.5 -0.339844 -209.52 -0.339844 -209.52
c0.660156 -66.2598 41.1602 -69 79 -69h290v-42.3799l-290 -14.6201c-60.1396 -3 -117.52 10.7402 -130.72 92.7998c-44.5996 -79.0801 -120.64 -93.7998 -225.84 -93.7998c-180 0 -277.9 32 -277.9 365z" />
    <glyph glyph-name="Ydieresis" unicode="&#x178;" horiz-adv-x="626" 
d="M158.73 836.78c0 21.8799 17.5596 38.7793 39.4395 38.7793s38.7803 -16.8994 38.7803 -38.7793s-16.9004 -39.7803 -38.7803 -39.7803s-39.4395 17.9004 -39.4395 39.7803zM413.39 836.78c0 21.8799 17.9004 38.7793 39.7803 38.7793s38.7803 -16.8994 38.7803 -38.7793
s-16.9004 -39.7803 -38.7803 -39.7803s-39.7803 17.9004 -39.7803 39.7803zM50.4404 732h62.6396l202.26 -403.38l222.26 403.38h62.6406l-256.4 -472v-260h-57v260z" />
    <glyph glyph-name="g.salt" horiz-adv-x="557" 
d="M56.1201 268c0 168 59 269 184 269c106 0 203.46 -15.5996 250.46 -19.5996v-621.4c0 -124 -89.3398 -175 -158.66 -168l-247.8 24v37.0996l247.8 -5.09961c53.6797 -1.36035 101.66 33.04 101.66 112v133c-64 -26 -148.46 -39 -193.46 -39c-153 0 -184 120 -184 278z
M113.12 268c0 -117.26 12.3203 -221 127 -221c74 0 110.46 7.40039 193.46 28.4004v404.6h-193.46c-109.04 0 -127 -119.76 -127 -212z" />
    <glyph glyph-name="guilsinglleft" unicode="&#x2039;" horiz-adv-x="355" 
d="M56.1201 354l206.001 203l39.7598 -39.7598l-166.9 -163.24l172.24 -167.9l-40.4404 -40.0996z" />
    <glyph glyph-name="guilsinglright" unicode="&#x203a;" horiz-adv-x="355" 
d="M56.1201 186.1l171.56 167.9l-166.9 163.24l40.4404 39.7598l206 -203l-211.34 -208z" />
    <glyph glyph-name="perthousand" unicode="&#x2030;" horiz-adv-x="1380" 
d="M47.0996 474v133c0 85 28 125 129 125h101c98 0 127 -40 127 -125v-133c0 -85 -28 -125 -129 -125h-101c-98 0 -127 40 -127 125zM95.0996 474c0 -61.5801 21.46 -77 79 -77h101c64.46 0 81 17.04 81 77v133c0 58.8604 -18.7402 77 -79 77h-101
c-65.1396 0 -81 -17.04 -81 -77v-133zM232.1 0l438 732h54l-438 -732h-54zM550.899 127.34v133c0 85 28 125 129 125h101c98 0 127 -40 127 -125v-133c0 -85 -28 -125 -129 -125h-101c-98 0 -127 40 -127 125zM598.899 127.34c0 -61.5801 21.46 -77 79 -77h101
c64.46 0 81 17.04 81 77v133c0 58.8604 -18.7402 77 -79 77h-101c-65.1396 0 -81 -17.04 -81 -77v-133zM976.56 127.34v133c0 85 28 125 129 125h101c98 0 127 -40 127 -125v-133c0 -85 -28 -125 -129 -125h-101c-98 0 -127 40 -127 125zM1024.56 127.34
c0 -61.5801 21.46 -77 79 -77h101c64.46 0 81 17.04 81 77v133c0 58.8604 -18.7402 77 -79 77h-101c-65.1396 0 -81 -17.04 -81 -77v-133z" />
    <glyph glyph-name="dagger" unicode="&#x2020;" horiz-adv-x="388" 
d="M22.3799 496.82v43.7002l142.18 7.95996l6.98047 221.52h46.3398l6.98047 -221.52l141.52 -7.95996v-43.7002l-141.52 -8.2998l-7.98047 -560.52h-46.3398l-5.98047 560.52z" />
    <glyph glyph-name="daggerdbl" unicode="&#x2021;" horiz-adv-x="411" 
d="M22.3799 180.8l0.000976562 43.7002l143.52 7.95996l-1.33984 256.06l-142.18 8.2998v43.7002l142.18 7.95996l7.63965 221.52h45.6797l6.98047 -221.52l141.52 -7.95996v-43.7002l-141.52 -8.2998l-3 -256.06l144.52 -7.95996v-43.7002l-145.84 -8.2998l-3.66016 -244.5
h-46.3398l-3.32031 244.5z" />
    <glyph glyph-name="trademark" unicode="&#x2122;" horiz-adv-x="696" 
d="M22.3799 685v47h259v-47h-105.5v-302h-47v302h-106.5zM320.38 383l27 349h45.3203l110.68 -267.6l98.0195 267.6h46.9805l31 -349h-46.3203l-21.0801 241.1l-88.0801 -241.1h-38.7197l-100.08 242.1l-18.0596 -242.1h-46.6602z" />
    <glyph glyph-name="notequal" unicode="&#x2260;" horiz-adv-x="471" 
d="M22.3799 212v60.2998h142.58l98.7803 162.4h-241.36v60.2998h277.8l46 75h46.3799l-46 -75h102.82v-60.2998h-139.26l-98.7803 -162.4h238.04v-60.2998h-274.82l-52 -86h-46.3799l52 86h-105.8z" />
    <glyph glyph-name="infinity" unicode="&#x221e;" horiz-adv-x="797" 
d="M56.1201 341c0 87 21.2012 172.999 159.201 172.999c76 0 145.46 -62.2998 183.46 -120.3c36.6396 56.9805 108.14 120.301 184.14 120.301c138 0 159.2 -89.4004 159.2 -173c0 -92 -32.2002 -172 -159.2 -172c-81.4199 0 -144.2 51.0801 -184.8 123.3
c-41.2803 -75.6201 -103.36 -123.3 -182.801 -123.3c-127 0 -159.2 80 -159.2 172zM113.121 340.999c0 -70.9805 20.4404 -114.999 102.2 -114.999c75.1201 0 126.96 67.0195 158.26 115.68c-37.4404 57.1396 -101.9 115.319 -158.261 115.319
c-90.0596 0 -102.199 -42.6396 -102.199 -116zM423.981 341.68c36.4004 -58.1797 88.5791 -115.681 158.939 -115.681c83.54 0 102.2 49.7998 102.2 115c0 66.5596 -10.4004 116 -102.2 116c-56.3604 0 -123.88 -60.5596 -158.939 -115.319z" />
    <glyph glyph-name="lessequal" unicode="&#x2264;" horiz-adv-x="487" 
d="M56.1201 112.16v57h376.68v-57h-376.68zM56.1201 404.54v59.5996l364.46 172.2v-61.9805l-288.92 -140.02l288.92 -150.36v-63.6396z" />
    <glyph glyph-name="greaterequal" unicode="&#x2265;" horiz-adv-x="487" 
d="M56.1201 112.16v57h376.68v-57h-376.68zM67.6602 220.34v63.6396l288.92 150.36l-288.92 140.02v61.9805l365.14 -172.2v-59.5996z" />
    <glyph glyph-name="circumflex" unicode="&#x2c6;" horiz-adv-x="397" 
d="M56.1201 531l122.1 130h53.6602l109.44 -130h-52.9805l-84.9404 85.96l-93.6396 -85.96h-53.6396zM231.88 661z" />
    <glyph glyph-name="tilde" unicode="&#x2dc;" horiz-adv-x="449" 
d="M56.1201 572c37.96 31.9805 73.6016 61.96 113.922 61.96c46.2598 -1.98047 84.0996 -47.2607 113.46 -47.9209c29.0996 -0.660156 65.1191 24.0996 94.0596 41.7793l16.5596 -30.0996c-33 -27.7197 -69.9404 -63.9795 -111.94 -62.6592
c-51.2402 1.98047 -78.4805 47.9209 -113.461 47.2607c-41.96 -0.660156 -60.7197 -22.0205 -97.3799 -40.1006z" />
    <glyph glyph-name="ring" unicode="&#x2da;" horiz-adv-x="314" 
d="M56.1201 632c0 57 46 103 102 103s100.66 -46 100.66 -103s-44.6602 -102 -100.66 -102s-102 45 -102 102zM91.9004 632c0 -36.1201 30.0996 -65.2197 66.2197 -65.2197s64.8799 29.0996 64.8799 65.2197s-28.7598 66.2197 -64.8799 66.2197
s-66.2197 -30.0996 -66.2197 -66.2197z" />
    <glyph glyph-name="ellipsis" unicode="&#x2026;" horiz-adv-x="813" 
d="M637.16 19.2598v58.7002c0 12.6201 6.63965 20.5801 19.9199 20.5801h38.7197c14.6006 0 20.5801 -7.63965 20.5801 -20.5801v-58.7002c0 -14.5996 -8.95996 -19.2598 -20.5801 -19.2598h-38.7197c-11.6201 0 -19.9199 7.63965 -19.9199 19.2598zM365.16 19.2598v58.7002
c0 12.6201 6.63965 20.5801 19.9199 20.5801h38.7197c14.6006 0 20.5801 -7.63965 20.5801 -20.5801v-58.7002c0 -14.5996 -8.95996 -19.2598 -20.5801 -19.2598h-38.7197c-11.6201 0 -19.9199 7.63965 -19.9199 19.2598zM93.1602 19.2598v58.7002
c0 12.6201 6.63965 20.5801 19.9199 20.5801h38.7197c14.6006 0 20.5801 -7.63965 20.5801 -20.5801v-58.7002c0 -14.5996 -8.95996 -19.2598 -20.5801 -19.2598h-38.7197c-11.6201 0 -19.9199 7.63965 -19.9199 19.2598z" />
    <glyph glyph-name="fraction" unicode="&#x2044;" horiz-adv-x="208" 
d="M-100.88 0l360.92 744.92h49.0195l-360.92 -744.92h-49.0195z" />
    <glyph glyph-name="dotlessi" unicode="&#x131;" horiz-adv-x="191" 
d="M67.1396 0v531h57v-531h-57z" />
    <glyph glyph-name="ampersand.salt" horiz-adv-x="943" 
d="M49.0996 286v89.001c0 137 77 157 211 157h447.8l15.2803 148h41.7197v-149.32h155v-39.0801l-155 -16.5996v-288c0 -156.14 -130 -187 -233 -187h-153.8c-111 0 -188 20.6797 -188 161.819c-60 0 -141 29.1797 -141 124.18zM106.1 286.001
c0 -54.54 45.8613 -68.1602 84.001 -68.5c0 118.64 50.2002 174.5 161.2 174.5h129c61 0 133.6 -3.28027 133.6 -115.9c0 -96.6797 -38.7002 -114.939 -133.601 -114.939h-233.2c0.660156 -101.3 59.9805 -102.18 131 -104.16h153.8c90.8203 0 176 28.5996 176 130v288
h-447.8c-106.86 0 -154 -5.74023 -154 -100v-89zM247.101 217.501l233.201 0.000976562c58.54 0 76.5996 3.09961 76.5996 58.5996c0 50.8799 -13.4805 58.8994 -76.6006 58.8994h-129c-63.4199 0 -104.2 -13.2002 -104.2 -117.5z" />
    <glyph glyph-name="a.superior" horiz-adv-x="369" 
d="M34.7402 463v45.999c0 54 38 90 100 90c0 0 144.76 0 144.76 1c0 0 1 30 0 31c0 45.1602 -26.4004 63.6006 -73.5801 63.6006c-54 0 -93.0195 -1.66016 -159.18 -7v31.7998c54.2402 13.2803 90.46 17.2803 164.8 19.6006c62 1 115 -30 115 -103v-258h-30.4805
l-15.5596 52.4004c-2 0 -84.7197 -56.4004 -145.76 -56.4004c-52 0 -100 31 -100 89zM81.7803 471.239c0 -36.7998 26.8398 -50.2002 56.9199 -50.2002c60 0 140.8 42.4805 140.8 42.4805v104.02l-141.14 -10.96c-37.7803 -2.66016 -56.5801 -22.0205 -56.5801 -51.54
v-33.7998z" />
    <glyph glyph-name="b.superior" horiz-adv-x="392" 
d="M42.4199 378l0.000976562 524.001h47.04v-193c48 20 100.76 30 134.76 30c114 0 128.6 -94 128.6 -185c0 -82 -20.96 -180 -129.96 -180c-57.46 0 -113.74 37.7197 -133.4 52.3994l-16.5596 -48.4004h-30.4805zM89.4609 458.881
c36.9199 -15.7002 70.1006 -37.8398 129.101 -37.8398c57.8398 0 87.2197 42.1396 87.2197 132.96c0 111.14 -27.6602 137.96 -86.54 137.96c-58 0 -80.8398 -8.37988 -129.78 -19.3799v-213.7z" />
    <glyph glyph-name="c.superior" horiz-adv-x="360" 
d="M34.7402 555c0 155 54.001 182.001 131.001 182.001c39 0 100.5 -9.98047 151.8 -20.3203v-34.4404s-88.6797 7.71973 -147.52 7.71973c-52.4805 0 -88.2402 -8.7998 -88.2402 -136.96c0 -103.8 25.0596 -132.96 88.5791 -132.96
c72.0596 0 152.18 10.0596 152.18 10.0596v-35.0996c-53.1797 -15.9805 -94.7998 -21 -156.8 -22c-74 0 -131 26 -131 182z" />
    <glyph glyph-name="d.superior" horiz-adv-x="390" 
d="M34.7402 554.66c0 91 13.9414 184.999 127.941 184.999c34 0 87.4199 -10 135.42 -30v193.66h45.7197v-525.32h-30.4805l-15.9004 48.4004c-19.6602 -14.6797 -75.9404 -52.3994 -133.4 -52.3994c-109 0 -129.3 98.6602 -129.3 180.66zM81.7812 554.659
c0 -90.8203 29.3809 -133.62 87.2207 -133.62c59 0 91.5195 22.1396 128.439 37.8398v214.36c-48.9404 11.6602 -71.1201 19.3799 -129.12 19.3799c-58.8799 0 -86.54 -26.8203 -86.54 -137.96z" />
    <glyph glyph-name="e.superior" horiz-adv-x="390" 
d="M34.7402 557c0 118.3 29.54 177.642 161.64 177.642c81.2197 0 155.16 -7.98047 155.16 -127.301c0 -51.96 -34.5996 -77.8604 -106.02 -77.8604h-163.74c0 -93.0996 27.5801 -109.439 90.96 -109.439c69 0 114.46 0.719727 170.8 9.73926v-33.7803
c-61 -17 -114.8 -23 -176.8 -23c-91 0 -132 38 -132 184zM81.7803 576.521l160.76 -0.000976562c37.0801 0 61.96 7.62012 61.96 35.1006c0 62.2002 -24.04 75.9805 -108.12 75.9805c-76.7598 0 -114.6 -15.2803 -114.6 -111.08z" />
    <glyph glyph-name="f.superior" horiz-adv-x="327" 
d="M29.0596 679.48v35.0596l74.6602 10.3203v73.1396c0 36 6.33984 105 96.3398 105c37 0 63.5801 -5.2998 98.2002 -13.2598v-32.46c-0.660156 0 -83.8799 1.32031 -83.8799 1.32031c-55.8203 0.660156 -63.6201 -25.04 -63.6201 -65.9004v-66.5195h115.5v-46.7002h-116.82
v-301.48h-47.04v301.48h-73.3398z" />
    <glyph glyph-name="g.superior" horiz-adv-x="415" 
d="M37.1201 291v41.998l20.2002 51.8203c-17.2998 14 -21.2598 36.9004 -21.2598 54.9004c0 23.3604 14.7402 54.6201 56.2002 57.9404c-33.2803 15.5996 -52.8203 61.1797 -52.8203 105.34c0 86 48 129 121 129h220.8v-27.7998l-62.9004 -17.5801
c11.4199 -7.66016 32.9004 -41.6797 32.9004 -83.6201c0 -53 -25 -130.52 -122 -130.52h-102.8c-11 0 -42 -3 -42.6797 -28.4805c-0.339844 -20.04 10 -27.7998 31.7998 -30.4795l147.68 -17c59 -7 98 -39.5195 98 -93.5195v-8c0 -41 -12 -109 -101 -109h-114.12
c-64 0 -109 34 -109 105zM83.1602 299.998c0 -56.7598 31.6807 -67.96 71.9404 -67.96h96.8398c46.1201 0 63.5801 20.7598 63.5801 62.96v5c0 38.7998 -31.4805 48.7803 -67.4805 53.4404l-133.16 15.6797c-7.13965 0.679688 -31.7197 5.71973 -31.7197 5.71973v-74.8398z
M87.1416 602.998c-0.660156 -41.8398 20.5596 -84.4795 79.8994 -84.4795h58.2002c57.0195 0 78.2998 42.8398 78.2998 84.4795c0 45.1602 -23.7598 83.2803 -72.5195 83.2803h-62.0195c-66.2002 0 -81.2002 -41.9199 -81.8604 -83.2803z" />
    <glyph glyph-name="h.superior" horiz-adv-x="398" 
d="M42.4199 378v523h47.04v-216c41.5801 25.3203 84.7598 54 145.76 54c80.6797 0 119.6 -55 119.6 -114v-247h-47.04v239.74c0 49.46 -35.4199 74.2197 -77.2002 74.2197c-56.7197 0 -88.8994 -16.4199 -141.119 -39.7402v-274.22h-47.04z" />
    <glyph glyph-name="i.superior" horiz-adv-x="136" 
d="M38.0801 794.98l-0.000976562 39.6006c0 9.98047 5.32031 16.6201 15.96 16.6201h27.4199c9.98047 0 15.3008 -6.98047 15.3008 -16.6201v-39.5996c0 -9.98047 -5.66016 -14.9609 -15.2998 -14.9609h-27.4199c-9.63965 0 -15.96 5.32031 -15.96 14.96zM42.7393 378.001
v356h47.04v-356h-47.04z" />
    <glyph glyph-name="j.superior" horiz-adv-x="139" 
d="M39.0801 797.62l-0.000976562 39.5996c0 9.98047 5.32031 16.6201 15.96 16.6201h27.7598c9.98047 0 14.9609 -6.98047 14.9609 -16.6201v-39.5996c0 -9.98047 -5.32031 -15.6201 -14.96 -15.6201h-27.7598c-9.63965 0 -15.96 5.98047 -15.96 15.6201zM43.0791 196v537
h48.7002v-358c1 -58 -3.33984 -120.4 -16.2803 -179h-32.4199z" />
    <glyph glyph-name="k.superior" horiz-adv-x="373" 
d="M42.4199 378l-0.000976562 520.999h47.04v-301.14h37.9004l146.66 132.82h66.9004l-170.82 -155.02l171.88 -197.66h-61.6201l-148.38 172.82h-42.5195v-172.82h-47.04z" />
    <glyph glyph-name="l.superior" horiz-adv-x="238" 
d="M41.4199 504v396.001h47.04v-390.72c0 -66.8604 16.5 -79.5605 53.9404 -86.8809c0 0 61.7197 -11.96 65.0195 -11.96v-32.4404h-67c-72.0195 0 -99 36.7598 -99 126z" />
    <glyph glyph-name="m.superior" horiz-adv-x="660" 
d="M42.4199 378v354.002h34.5l12.54 -48.3203c41.5801 25.3203 84.0996 53.3398 142.46 53.3398c49.6797 0 89.5996 -21.6602 106.26 -56.2803c37.2998 29.2803 93.9795 56.2803 158.26 56.2803c71.4404 0 120.921 -49.0596 120.921 -114v-245.02h-47.04v237.76
c0 46.8398 -34.7598 74.2197 -76.54 74.2197c-56.6797 0 -96.1396 -13.7598 -141.04 -38.3799c2.37988 -5.44043 3.39941 -27.4004 3.39941 -33.8604v-239.74h-47.04v237.76c0 46.8398 -36.0801 74.2197 -77.8604 74.2197c-57.3799 0 -89.5596 -16.4199 -141.779 -39.7402
v-272.24h-47.04z" />
    <glyph glyph-name="n.superior" horiz-adv-x="398" 
d="M42.4199 378v354h31.8604l14.5195 -46.3398c41.5801 25.3203 85.4199 53.3398 146.42 53.3398c80.6797 0 119.6 -55 119.6 -114v-247h-47.04v240.4c0 49.46 -34.7598 74.2197 -76.54 74.2197c-57.3799 0 -89.5596 -17.0801 -141.779 -40.4004v-274.22h-47.04z" />
    <glyph glyph-name="o.superior" horiz-adv-x="395" 
d="M34.7402 550c0 119 32.9004 185 161.9 185c126 0 157.9 -65 157.9 -185c0 -110 -31.9004 -175 -157.9 -175c-128 0 -161.9 63 -161.9 175zM81.7803 550c0 -108.82 37 -127.961 114.86 -127.961c81.3203 0 110.86 26.3398 110.86 127.96
c0 113.48 -29.6602 137.961 -112.86 137.961c-85.9199 0 -112.86 -31.8799 -112.86 -137.96z" />
    <glyph glyph-name="p.superior" horiz-adv-x="390" 
d="M42.4199 194.34l-0.00195312 538.981h30.4805l14.5801 -47.7402c18.3398 14.6797 81.2197 52.3994 136.7 52.3994c104.38 0 126.66 -99.3203 126.66 -181.98c0 -91.6602 -16.5801 -186.32 -125.3 -186.32c-32.6797 0 -92.04 10 -138.06 30v-205.34h-45.0596z
M87.4775 436.102c45.6396 -11.6602 77.7197 -19.3809 132.42 -19.3809c56.2402 0 83.9004 26.8203 83.9004 139.28c0 91.4805 -29.3799 134.94 -84.5801 134.94c-55.7002 0 -97.46 -22.7998 -131.74 -38.5v-216.34z" />
    <glyph glyph-name="q.superior" horiz-adv-x="393" 
d="M34.7402 556c0 114 45 183 139 183c80 0 138.4 -11.6201 173.4 -14.6201v-530.38h-47.04v203c-48 -20 -92.3604 -30 -126.36 -30c-115 0 -139 96 -139 189zM81.7803 556c0 -69.7197 10.9199 -142.3 98.96 -142.3c56 0 57.3604 5.04004 119.36 19.04v259.56h-119.36
c-82.3799 0 -98.96 -73.8799 -98.96 -136.3z" />
    <glyph glyph-name="r.superior" horiz-adv-x="332" 
d="M42.4199 378l0.000976562 353.999h32.4199l14.6201 -51c42.2598 24.9805 85.7197 55 146.76 55c22 0 47 -2 56 -6v-45.04c-9 2 -34 4 -56 4c-59.3799 0 -91.8203 -16.0596 -146.761 -40.3994v-270.56h-47.04z" />
    <glyph glyph-name="s.superior" horiz-adv-x="375" 
d="M34.7402 616v34.999c0 57 25 91 95 91c36 0 149.8 -9 185.8 -13v-35.0596l-176.82 1.01953c-52.5195 0.339844 -56.9395 -20.0801 -56.9395 -51.96v-24c0 -41.4805 17.9805 -42.4805 54.54 -42.4805h112.22c59 0 88 -32.5195 88 -85.5195v-37c0 -72.9805 -45 -87 -89 -87
c-34 0 -169.8 13 -195.8 16v33.7402l184.8 -1.7002c11.2197 -0.339844 52.96 -8.93945 52.96 47.9609v25c0 29.8203 -12.4199 41.4805 -49.5596 41.4805h-112.2c-63 0 -93 15.5195 -93 86.5195z" />
    <glyph glyph-name="t.superior" horiz-adv-x="310" 
d="M30.0596 686.96v34.4004l74 10.6396l13.96 101h33.0801v-99h112v-47.04h-112v-179.68c0 -66.4004 10.7598 -78.2402 54.96 -85.2402c0 0 56.3398 -9.95996 57 -9.95996v-33.0801h-59c-71 0 -100 32 -100 124v183.96h-74z" />
    <glyph glyph-name="u.superior" horiz-adv-x="394" 
d="M40.4199 491.34l-0.000976562 243.041h47.04v-240.4c0 -46.8203 35.4199 -73.5605 76.54 -73.5605c55.4004 0 84.2803 15.0996 136.5 38.4199v275.54h47.04v-354h-32.5195l-14.5195 46.3398c-41.5801 -25.3203 -78.8203 -53.3398 -139.82 -53.3398
c-80.6797 0 -120.26 58.96 -120.26 117.96z" />
    <glyph glyph-name="v.superior" horiz-adv-x="416" 
d="M28.0596 732h53l128.9 -284.8l124.56 284.8h52.3398l-157 -354h-40.7998z" />
    <glyph glyph-name="w.superior" horiz-adv-x="616" 
d="M28.0596 732l53 0.000976562l128.9 -284.8l124.56 284.8h52.3398l-52.6602 -118.32l75.5801 -166.48l124.56 284.8h52.3398l-157 -354h-40.7998l-81.1797 176.06l-77.8398 -176.06h-40.7998z" />
    <glyph glyph-name="x.superior" horiz-adv-x="393" 
d="M29.0596 378l139.641 178.66l-139.3 175.34h57.3203l109.82 -137.24l105.52 137.24h58.6396l-136 -175.34l138.32 -178.66h-57.9805l-107.84 141.88l-110.16 -141.88h-57.9805z" />
    <glyph glyph-name="y.superior" horiz-adv-x="429" 
d="M28.0596 733h52.0215l109.38 -271.78c9.37988 -22.46 21.4795 -37.5 41.4795 -37.5l116.12 309.28h52.0195l-173.36 -469l-51.8604 -68h-31.7598l70.96 180c-32.6797 4.36035 -56.3398 37 -68.3398 66z" />
    <glyph glyph-name="z.superior" horiz-adv-x="375" 
d="M34.7402 686.32v45.6797h299.8v-39.6797l-226.92 -267.64h225.92c1 -1 0 -45.6797 0 -45.6797h-287.8v45.6797l223.9 261.64h-234.9z" />
    <glyph glyph-name="zero.tnum" horiz-adv-x="623" 
d="M64.7998 162v408c0 108 77 162 172 162h153.8c122 0 167.66 -74.2998 167.66 -162v-408c0 -119 -68.6602 -162 -167.66 -162h-153.8c-91 0 -172 42 -172 162zM121.8 162c0 -75.5 52.7207 -105 115.001 -105h153.8c77.5996 0 110.659 40.46 110.659 105v408
c0 60.96 -29.1797 105 -110.66 105h-153.8c-76.46 0 -115 -43.4004 -115 -105v-408z" />
    <glyph glyph-name="one.tnum" horiz-adv-x="623" 
d="M158.02 605.62v39.3994l177.24 86.9805h57.6602v-673.98h168.78v-58.3594h-403.2v58.3594h176.76v609.36z" />
    <glyph glyph-name="two.tnum" horiz-adv-x="623" 
d="M62.7998 684v41.3994c102.34 13 203.2 16.5996 293.8 16.5996c145.68 0 203 -100.52 203 -210c0 -190.9 -317.3 -429.4 -382.16 -475h382.16v-57h-489.8v52.7002c105.26 75.7002 431.8 314.96 431.8 480.96c0 95.4404 -48.5596 150.341 -146.34 150.341h-292.46z" />
    <glyph glyph-name="three.tnum" horiz-adv-x="623" 
d="M73.8203 677l-0.00195312 35.1191c78.4805 24.2002 190.801 23.8799 307.801 21.8799c113.06 -2 170.34 -73 170.34 -165v-69c0 -83.8799 -47.7598 -124.42 -84.3594 -135.66c37.9404 -18.8604 84.3604 -58.8203 84.3604 -144.34v-59c0 -109 -56 -168 -178 -168
c-114 0 -222.8 -0.959961 -294.14 22.2197l0.339844 35.7803h289.5c61.8398 0 123.3 14.7803 123.3 110v59c0 85.4805 -63.9805 112.841 -119 114.841l-232.14 7v43.04l232.14 8.63965c72.0596 2.32031 121 37.3203 121 106.48v69c0 76.5596 -57.0996 108 -119.3 108
h-301.84z" />
    <glyph glyph-name="four.tnum" horiz-adv-x="623" 
d="M31.4004 228.42l316.9 503.581h67.2598l-297.74 -476.86h315.96v216.86l27.1602 75h29.8398v-291.86h90v-43.7002l-90 -15.9404v-193.5h-57v193.5h-375.86z" />
    <glyph glyph-name="five.tnum" horiz-adv-x="623" 
d="M85.1797 15.2402v41.0596h304c69.3398 0 106.66 48.6602 106.66 111.7v104.9c0 38.7803 -5.41992 111 -107 111h-153.66c-46.1396 0 -96.6201 -33.9199 -96.6201 -92h-51.7197l22 440.1h422.34v-57h-369.64l-13.7002 -276.34
c11.96 16.3203 44.0801 38.9404 89.6797 41.5801c60.46 4.62012 120.66 0.660156 151.66 0.660156c118 0 163.66 -69 163.66 -166v-108.9c0 -137 -101.66 -170 -163.66 -170c-124 0 -191.08 0.660156 -304 19.2402z" />
    <glyph glyph-name="six.tnum" horiz-adv-x="623" 
d="M68.1396 384c0 262.62 85.9414 354.001 172.001 354.001c101 0 205.72 -4.63965 291.8 -15.5996v-41.4004h-282.2c-103.24 0 -123.28 -184.9 -124.601 -278.42c85 10 195.8 17.5996 269.8 17.5996c135.32 0 161 -68.6201 161 -147.98v-124.2c0 -112 -67 -149 -161 -149
h-138.8c-109 0.660156 -188 74.0801 -188 385zM125.141 362.841c0 -115.08 9.44043 -306.839 131 -306.839h138.8c54.7402 0 105 13.0596 105 95.2793v120.92c0 75.96 -48.7998 90.6396 -105 90.6396h-269.8z" />
    <glyph glyph-name="seven.tnum" horiz-adv-x="623" 
d="M74.8203 675v57h451.86l23.2598 -39.5l-255.82 -692.5h-67.5996l251.2 675h-402.9z" />
    <glyph glyph-name="eight.tnum" horiz-adv-x="623" 
d="M76.1602 154l-0.000976562 98.3398c0 74.6797 50.4404 100.46 90.1006 109.04c-71.4805 19.6201 -90.1006 84.6201 -90.1006 137.62v65c0 134 73 173 176 173h135.8c107 0 162 -50 162 -173v-65c0.660156 -32.8799 -14.2197 -105.76 -80.7793 -117.02
c59.4404 -13.4004 81.4404 -80.1807 80.7803 -129.98v-98c0 -130 -99 -154 -163 -154h-134.8c-172 0 -176 113 -176 154zM133.159 151c0 -63.96 41.9199 -94 119 -94h134.8c49.1201 0 106 26.3799 106 94v105c0 73.6602 -56.96 89.5 -103 89.5h-148.8
c-46 0 -108 -20.7002 -108 -89.5v-105zM133.159 494c0 -78.5596 63.1201 -92.5 108 -92.5h148.8c81.1602 0 103 53.0996 103 92.5v68c0 86.2402 -34.4404 118 -105 118h-135.8c-79.2998 0 -119 -23.2402 -119 -118v-68z" />
    <glyph glyph-name="nine.tnum" horiz-adv-x="623" 
d="M68.1396 463.1v124.199c0 112 67 149 161 149h138.8c109 -0.660156 188 -74.0801 188 -385c0 -262.62 -85.9404 -354 -172 -354c-101 0 -204.4 1.33984 -291.801 15.5996v41.4004h282.2c103.24 0 123.28 184.9 124.601 278.42c-85 -10 -195.8 -17.5996 -269.8 -17.5996
c-135.32 0 -161 68.6201 -161 147.98zM124.14 463.099c0 -75.96 48.7998 -90.6406 105 -90.6406h269.8c0 115.08 -9.44043 306.84 -131 306.84h-138.8c-54.7402 0 -105 -13.0596 -105 -95.2793v-120.92z" />
    <glyph glyph-name="zero.tosf" horiz-adv-x="623" 
d="M64.7998 162v307c0 108 77 162 172 162h153.8c122 0 167.66 -71 167.66 -162v-307c0 -119 -68.6602 -162 -167.66 -162h-153.8c-91 0 -172 42 -172 162zM121.8 162c0 -75.5 52.7207 -105 115.001 -105h153.8c77.5996 0 110.659 40.46 110.659 105v307
c0 60.96 -29.1797 105 -110.66 105h-153.8c-76.46 0 -115 -43.4004 -115 -105v-307z" />
    <glyph glyph-name="one.tosf" horiz-adv-x="623" 
d="M160.7 507.6v39.4004l168 85h57v-573.98h163.52v-58.3594h-390v58.3594h169.48v509.36z" />
    <glyph glyph-name="two.tosf" horiz-adv-x="623" 
d="M62.7998 581.34l-0.000976562 40.0605c82.0195 11.96 177.46 21.5996 292.46 16.5996c140 0 203 -74 203 -187c0 -168.96 -312.8 -364 -371.479 -394h366.48v-57h-484.8v52.7002c115.1 63.1797 432.14 250.58 432.14 400.3c0 89.6602 -52.2998 130.32 -149.74 128.34
h-288.06z" />
    <glyph glyph-name="three.tosf" horiz-adv-x="623" 
d="M73.8203 579.3l-0.00195312 35.1191c78.4805 24.2002 190.801 23.8799 307.801 21.8799c113.06 -2 170.34 -73 170.34 -165v-69c0 -83.8799 -47.7598 -124.42 -84.3594 -135.66c37.9404 -18.8604 84.3604 -58.8203 84.3604 -144.34v-59c0 -109 -56 -168 -178 -168
c-114 0 -222.8 -0.959961 -294.14 22.2197l0.339844 35.7803h289.5c61.8398 0 123.3 14.7803 123.3 110v59c0 85.4805 -63.9805 112.841 -119 114.841l-232.14 7v43.04l232.14 8.63965c72.0596 2.32031 121 37.3203 121 106.48v69c0 76.5596 -57.0996 108 -119.3 108
h-301.84z" />
    <glyph glyph-name="four.tosf" horiz-adv-x="623" 
d="M31.4004 128.08l316.9 503.581h67.2598l-297.74 -476.86h315.96v216.86l27.1602 75h29.8398v-291.86h90v-43.7002l-90 -15.9404v-193.5h-57v193.5h-375.86z" />
    <glyph glyph-name="five.tosf" horiz-adv-x="623" 
d="M85.1797 -44.04h304c69.3398 0 106.66 48.6602 106.66 111.7v104.9c0 38.7803 -5.41992 111 -107 111h-153.66c-46.1396 0 -96.6201 -33.9199 -96.6201 -92h-51.7197l22 440.1h422.34v-57h-369.64l-13.7002 -276.34c11.96 16.3203 45.4004 39.6006 91 42.2402
c60.46 4.62012 119.34 0 150.34 0c118 0 163.66 -69 163.66 -166v-108.9c0 -137 -101.66 -170 -163.66 -170c-124 0 -191.08 0.660156 -304 19.2402v41.0596z" />
    <glyph glyph-name="six.tosf" horiz-adv-x="623" 
d="M68.1396 384c0 262.62 85.9414 354.001 172.001 354.001c101 0 205.72 -4.63965 291.8 -15.5996v-41.4004h-282.2c-103.24 0 -123.28 -184.9 -124.601 -278.42c85 10 195.8 17.5996 269.8 17.5996c135.32 0 161 -68.6201 161 -147.98v-124.2c0 -112 -67 -149 -161 -149
h-138.8c-109 0.660156 -188 74.0801 -188 385zM125.141 362.841c0 -115.08 9.44043 -306.839 131 -306.839h138.8c54.7402 0 105 13.0596 105 95.2793v120.92c0 75.96 -48.7998 90.6396 -105 90.6396h-269.8z" />
    <glyph glyph-name="seven.tosf" horiz-adv-x="623" 
d="M74.8203 574.66v57h451.86l23.2598 -39.5l-255.82 -692.5h-67.5996l251.2 675h-402.9z" />
    <glyph glyph-name="eight.tosf" horiz-adv-x="623" 
d="M76.1602 154l-0.000976562 98.3398c0 74.6797 50.4404 100.46 90.1006 109.04c-71.4805 19.6201 -90.1006 84.6201 -90.1006 137.62v65c0 134 73 173 176 173h135.8c107 0 162 -50 162 -173v-65c0.660156 -32.8799 -14.2197 -105.76 -80.7793 -117.02
c59.4404 -13.4004 81.4404 -80.1807 80.7803 -129.98v-98c0 -130 -99 -154 -163 -154h-134.8c-172 0 -176 113 -176 154zM133.159 151c0 -63.96 41.9199 -94 119 -94h134.8c49.1201 0 106 26.3799 106 94v105c0 73.6602 -56.96 89.5 -103 89.5h-148.8
c-46 0 -108 -20.7002 -108 -89.5v-105zM133.159 494c0 -78.5596 63.1201 -92.5 108 -92.5h148.8c81.1602 0 103 53.0996 103 92.5v68c0 86.2402 -34.4404 118 -105 118h-135.8c-79.2998 0 -119 -23.2402 -119 -118v-68z" />
    <glyph glyph-name="nine.tosf" horiz-adv-x="623" 
d="M68.1396 358.8l-0.000976562 124.199c0 112 67 149 161 149h138.8c109 -0.660156 188 -74.0801 188 -385c0 -262.62 -85.9404 -354 -172 -354c-101 0 -207.04 1.33984 -291.8 15.5996v41.4004h282.2c103.24 0 123.28 184.9 124.601 278.42
c-85 -10 -195.8 -17.5996 -269.8 -17.5996c-135.32 0 -161 68.6201 -161 147.98zM124.139 358.799c0 -75.96 48.7998 -90.6406 105 -90.6406h269.8c0 115.08 -9.44043 306.84 -131 306.84h-138.8c-54.7402 0 -105 -13.0596 -105 -95.2793v-120.92z" />
    <glyph glyph-name="partialdiff" unicode="&#x2202;" horiz-adv-x="655" 
d="M63.7998 227c0 151 88.6006 229.502 255.601 229.502c51 0 123.88 -9.32031 186.939 -56.3203c-7.25977 202.64 -64.2197 282.819 -210.939 282.819c-74.3799 0 -143.38 -29.7002 -180.38 -52.7002l-17.2197 35.0996c67 44 115.6 74.5996 200.6 74.5996
c193.98 0 265.601 -137 265.601 -353c0 -197 -73.2803 -392 -255.601 -392c-131.32 0 -244.601 74 -244.601 232zM120.801 229.322c0 -120.26 87.7998 -177.32 185.6 -177.32c164.3 0 199.939 220.62 200.6 305.8c-34 19 -111.6 41.7002 -187.6 41.7002
c-137.38 0 -198.6 -61.1797 -198.6 -170.18z" />
    <glyph glyph-name="summation" unicode="&#x2211;" horiz-adv-x="579" 
d="M44.7598 -140l214 410l-214 405v57h512.4v-57h-443.8l213 -405l-213 -410h443.8v-60h-512.4v60z" />
    <glyph glyph-name="product" unicode="&#x220f;" horiz-adv-x="624" 
d="M22.3799 675v57h580.2v-57h-87v-675h-57v675h-293.2v-675h-57v675h-86z" />
    <glyph glyph-name="pi" unicode="&#x3c0;" horiz-adv-x="626" 
d="M22.3799 474v57h533v-57h-129v-308c0 -84.54 24.7002 -113 77.5 -113h99.5v-33.7998c-35.8799 -15.2998 -59.9199 -24.2002 -99.5 -24.2002c-84.96 0 -134.5 39 -134.5 171v308h-204v-474h-57v474h-86z" />
    <glyph glyph-name="integral" unicode="&#x222b;" horiz-adv-x="445" 
d="M22.3799 -147h92.041c78.8398 0 78.7998 111.18 79.46 235v418c0 159 13.5 294 130.5 294c61 0 76.5801 -12.5596 99 -19.8994v-37.0996h-91.4004c-79.2002 0 -80.4404 -123.04 -81.1006 -237v-418c0 -159 -7.5 -292 -127.5 -292c-41 0 -82.7197 7.59961 -101 19.8994
v37.0996z" />
    <glyph glyph-name="Omega" unicode="&#x3a9;" horiz-adv-x="783" 
d="M72.1396 388c0 154 57.8984 350.999 319.898 350.999c248 0 313.9 -174 313.9 -356c0 -117 -20.9805 -238.3 -143.4 -324.359l148.4 -10.3398v-48.2998h-228v59.6396c142 94 166 192.7 166 325.36c0 154.52 -47.7197 297 -256.899 297s-262.899 -142.44 -262.899 -302
c0 -137.78 21 -204.36 169 -320.36v-59.6396h-220v48.96l150 10.6797c-153.16 104.9 -156 215.681 -156 328.36z" />
    <glyph glyph-name="radical" unicode="&#x221a;" horiz-adv-x="615" 
d="M22.3799 301l0.000976562 57h122.8l133.06 -276.08l258.14 718.08h57l-285 -800h-51l-147 301h-88z" />
    <glyph glyph-name="florin" unicode="&#x192;" horiz-adv-x="595" 
d="M22.3799 -183.42l5.63965 36.4199h84.9004c83.2598 0 107.62 136 122.62 235l49.3604 317.16h-102l9.94043 58h102l6.7002 42.8398c24.6602 154.58 60.5 294 177.5 294c49 0 87.6396 -18.5801 93.6396 -20.5801l-5.63965 -36.4199h-88
c-79.5195 0 -100.159 -128.48 -118.52 -237l-6.7002 -43.8398h142.02l-9.94043 -57h-142.02l-49.3604 -317.16c-22.6201 -144.38 -49.6006 -292 -181.601 -292c-39 0 -84.54 16.5801 -90.54 20.5801z" />
    <glyph glyph-name="approxequal" unicode="&#x2248;" horiz-adv-x="511" 
d="M56.1201 250.34c37.96 31.9805 77.5596 66.5791 133.06 66.5791c52.8604 0 90.7002 -49.2402 141.181 -49.2402c44.2803 0 69.7402 25.4199 108.58 43.7598l16.5596 -30.0996c-36.96 -29.04 -72.5801 -68.5996 -126.46 -68.5996s-90.3604 49.9004 -141.181 49.9004
c-46.5801 0 -72.5996 -23.3398 -116.52 -42.0801zM56.1201 426.999c37.96 31.9805 77.5596 66.5791 133.06 66.5791c52.8604 0 90.7002 -49.2402 141.181 -49.2402c44.2803 0 69.7402 25.4199 108.58 43.7598l16.5596 -30.0996
c-36.96 -29.04 -72.5801 -68.5996 -126.46 -68.5996s-90.3604 49.9004 -141.181 49.9004c-46.5801 0 -72.5996 -23.3398 -116.52 -42.0801z" />
    <glyph glyph-name="uni2206" unicode="&#x2206;" horiz-adv-x="728" 
d="M22.3799 0l320.181 732h55.6396l308.18 -732h-684zM110.561 57h510.62l-249.8 597.4z" />
    <glyph glyph-name="lozenge" unicode="&#x25ca;" horiz-adv-x="526" 
d="M22.3799 373l215.5 359h57l209.5 -359l-209.5 -373h-57zM90.2998 373l176.08 -299.48l171.08 299.48l-171.08 290.48z" />
    <glyph glyph-name="cdotaccent" unicode="&#x10b;" horiz-adv-x="500" 
d="M249.59 617.9v56.7197c0 12.6201 6.64062 20.5801 19.9199 20.5801h36.7402c12.6201 0 19.2598 -8.95996 19.2598 -20.5801v-56.7197c0 -12.6201 -7.63965 -19.2607 -19.2598 -19.2607h-36.7402c-11.6201 0 -19.9199 7.64062 -19.9199 19.2607zM56.1201 266
c0 232 72.6602 270 174.66 270c52 0 150.52 -12.6602 217.8 -26v-40.4004s-128.8 9.40039 -217.8 9.40039c-70.54 0 -117.66 -18.8203 -117.66 -217c0 -171.02 40.8994 -210 117.66 -210c92 0 225.14 14.4004 225.14 14.4004v-42.4004c-81 -23 -142.14 -28 -225.14 -29
c-99 0 -174.66 38 -174.66 271z" />
    <glyph glyph-name="ccircumflex" unicode="&#x109;" horiz-adv-x="500" 
d="M135.64 597.32l122.101 130h53.6602l109.439 -130h-52.9795l-84.9404 85.96l-93.6396 -85.96h-53.6406zM56.1201 266c0 232 72.6602 270 174.66 270c52 0 150.52 -12.6602 217.8 -26v-40.4004s-128.8 9.40039 -217.8 9.40039c-70.54 0 -117.66 -18.8203 -117.66 -217
c0 -171.02 40.8994 -210 117.66 -210c92 0 225.14 14.4004 225.14 14.4004v-42.4004c-81 -23 -142.14 -28 -225.14 -29c-99 0 -174.66 38 -174.66 271z" />
    <glyph glyph-name="Hbar" unicode="&#x126;" horiz-adv-x="660" 
d="M27.1602 523.14v40.7402h62.3604v168.12h57v-168.12h380.6v168.12h57v-168.12h61.04v-40.7402h-61.04v-523.14h-57v325.5h-380.6v-325.5h-57v523.14h-62.3604zM146.521 382.5h380.6v140.64h-380.6v-140.64z" />
    <glyph glyph-name="Hcircumflex" unicode="&#x124;" horiz-adv-x="646" 
d="M194.22 797l122.101 130h53.6602l109.439 -130h-52.9795l-84.9404 85.96l-93.6396 -85.96h-53.6406zM89.5195 0v732h57v-349.5h380.601v349.5h57v-732h-57v325.5h-380.601v-325.5h-57z" />
    <glyph glyph-name="Idotaccent" unicode="&#x130;" horiz-adv-x="209" 
d="M80.0596 816.26v56.7207c0 12.6191 6.64062 20.5791 19.9209 20.5791h36.7393c12.6201 0 19.2607 -8.95996 19.2607 -20.5791v-56.7207c0 -12.6201 -7.64062 -19.2598 -19.2607 -19.2598h-36.7393c-11.6201 0 -19.9209 7.63965 -19.9209 19.2598zM89.5195 0v732h57v-732
h-57z" />
    <glyph glyph-name="Gbreve" unicode="&#x11e;" horiz-adv-x="616" 
d="M223.04 914h35.7803c0 -45.1201 38.0801 -78.5596 78.2197 -78.2197c45.1396 0.339844 80.2197 30.7793 80.2197 78.2197h35.7803c0 -76 -61 -114 -116 -114s-114 42 -114 114zM61.46 370c0 200 29.5596 370 228.56 370c52 0 182.301 -14 252.301 -27v-45.4004
c-6 0 -155 15.4004 -252.301 15.4004c-143.56 0 -171.56 -107.9 -171.56 -315c0 -230.84 40.6602 -315.34 175.9 -316.66c76.6797 -0.660156 207.3 47.3604 207.3 47.3604v232.3h-183.641v37.7598c40 11 91.6406 20.2402 172.641 20.2402c21 0 44 -1 68 -3v-386h-41.7197
l-13.2803 50.7002c-35.2803 -19.2998 -119.3 -55.7002 -209.3 -55.7002c-207 -2 -232.9 164.7 -232.9 375z" />
    <glyph glyph-name="Jcircumflex" unicode="&#x134;" horiz-adv-x="355" 
d="M121.78 797l122.1 130h53.6602l109.44 -130h-52.9805l-84.9404 85.96l-93.6396 -85.96h-53.6396zM39.0801 21l4 40.4004c78.7598 -21.0605 192.14 -47.3008 192.8 103.6v567h57v-567c0 -47 -3.7002 -114.66 -52 -147c-49.5996 -33.3203 -149.8 -31 -201.8 3z" />
    <glyph glyph-name="hbar" unicode="&#x127;" 
d="M-7.48047 617.14l0.00292969 40.4014h74.6201v126.46h58.9805v-126.46h137.4v-40.4004h-137.4v-148.14c59.9805 36.0195 135.66 71.6592 206.76 70.999c104.02 2.63965 158.06 -80.6807 158.06 -168.681v-371.32h-58.9805v369.34
c-1.98047 67.5 -33.8408 114.98 -110.301 114.98c-64.9004 -1.98047 -119.561 -21.6602 -195.541 -59.6797v-424.64h-58.9805v617.14h-74.6201z" />
    <glyph glyph-name="hcircumflex" unicode="&#x125;" 
d="M-42.8398 844l122.1 130h53.6602l109.44 -130h-52.9805l-84.9395 85.96l-93.6406 -85.96h-53.6396zM73.9404 0v784h57v-315c59.9795 36.0195 121.8 71 202.8 71c106 0 164 -82 164 -170v-370h-57v370c0 72.1201 -42.4199 113 -107 113
c-82.7207 0 -126.82 -20.3398 -202.8 -58.3604v-424.64h-57z" />
    <glyph glyph-name="jcircumflex" unicode="&#x135;" horiz-adv-x="201" 
d="M-46.7998 597.98l122.101 149.8h54l109.1 -149.8h-45.3799l-92.54 99.5l-100.24 -99.5h-47.04zM69.3408 -270v801h60.2998v-535c1 -86 -2.2998 -175.36 -20.8994 -266h-39.4004zM129.301 747.78z" />
    <glyph glyph-name="Cdotaccent" unicode="&#x10a;" horiz-adv-x="575" 
d="M303.43 820.58v56.7197c0 12.6201 6.64062 20.5801 19.9199 20.5801h36.7402c12.6201 0 19.2598 -8.95996 19.2598 -20.5801v-56.7197c0 -12.6201 -7.63965 -19.2598 -19.2598 -19.2598h-36.7402c-11.6191 0 -19.9199 7.63965 -19.9199 19.2598zM61.46 368
c0 232.64 43.2998 372 243.66 372c52 0 163.8 -11.6602 233.8 -24.6602v-43.7002c-1 0 -141.8 11.3604 -233.8 11.3604c-132.48 0 -186.66 -61.4199 -186.66 -317c0 -185.76 47.54 -315 187 -315c105 0 233.46 8.7002 233.46 8.7002v-43.7002c-70 -13 -181.8 -22 -233.8 -22
c-185 0 -243.66 159 -243.66 374z" />
    <glyph glyph-name="Ccircumflex" unicode="&#x108;" horiz-adv-x="575" 
d="M188.1 800l122.101 130h53.6602l109.439 -130h-52.9795l-84.9404 85.96l-93.6396 -85.96h-53.6406zM61.46 368c0 232.64 43.2998 372 243.66 372c52 0 163.8 -11.6602 233.8 -24.6602v-43.7002c-1 0 -141.8 11.3604 -233.8 11.3604
c-132.48 0 -186.66 -61.4199 -186.66 -317c0 -185.76 47.54 -315 187 -315c105 0 233.46 8.7002 233.46 8.7002v-43.7002c-70 -13 -181.8 -22 -233.8 -22c-185 0 -243.66 159 -243.66 374z" />
    <glyph glyph-name="Gdotaccent" unicode="&#x120;" horiz-adv-x="616" 
d="M294.47 819.26v56.7207c0 12.6191 6.64062 20.5791 19.9199 20.5791h36.7402c12.6201 0 19.2598 -8.95996 19.2598 -20.5791v-56.7207c0 -12.6201 -7.63965 -19.2598 -19.2598 -19.2598h-36.7402c-11.6201 0 -19.9199 7.63965 -19.9199 19.2598zM61.46 370
c0 200 29.5596 370 228.56 370c52 0 182.301 -14 252.301 -27v-45.4004c-6 0 -155 15.4004 -252.301 15.4004c-143.56 0 -171.56 -107.9 -171.56 -315c0 -230.84 40.6602 -315.34 175.9 -316.66c76.6797 -0.660156 207.3 47.3604 207.3 47.3604v232.3h-183.641v37.7598
c40 11 91.6406 20.2402 172.641 20.2402c21 0 44 -1 68 -3v-386h-41.7197l-13.2803 50.7002c-35.2803 -19.2998 -119.3 -55.7002 -209.3 -55.7002c-207 -2 -232.9 164.7 -232.9 375z" />
    <glyph glyph-name="Gcircumflex" unicode="&#x11c;" horiz-adv-x="616" 
d="M190.34 800l122.101 130h53.6592l109.44 -130h-52.9805l-84.9395 85.96l-93.6396 -85.96h-53.6406zM61.46 370c0 200 29.5596 370 228.56 370c52 0 182.301 -14 252.301 -27v-45.4004c-6 0 -155 15.4004 -252.301 15.4004c-143.56 0 -171.56 -107.9 -171.56 -315
c0 -230.84 40.6602 -315.34 175.9 -316.66c76.6797 -0.660156 207.3 47.3604 207.3 47.3604v232.3h-183.641v37.7598c40 11 91.6406 20.2402 172.641 20.2402c21 0 44 -1 68 -3v-386h-41.7197l-13.2803 50.7002c-35.2803 -19.2998 -119.3 -55.7002 -209.3 -55.7002
c-207 -2 -232.9 164.7 -232.9 375z" />
    <glyph glyph-name="Ubreve" unicode="&#x16c;" horiz-adv-x="679" 
d="M237.92 911h35.7803c0 -45.1201 38.0801 -78.5596 78.2197 -78.2197c45.1396 0.339844 80.2197 30.7793 80.2197 78.2197h35.7803c0 -76 -61 -114 -116 -114s-114 42 -114 114zM89.5195 320v412h57v-412c0 -271.28 85.4404 -268 208.9 -268
c107.84 0 203.24 6.75977 203.24 268v412h57.6602v-412c0 -323 -139.9 -325 -260.9 -325c-136 0 -265.9 -6.63965 -265.9 325z" />
    <glyph glyph-name="Scircumflex" unicode="&#x15c;" horiz-adv-x="584" 
d="M168.02 798l122.101 130h53.6602l109.439 -130h-52.9795l-84.9404 85.96l-93.6396 -85.96h-53.6406zM72.8203 494v66c0 145 84.2998 178 196.3 178c53 0 198.74 -16.2803 240.479 -22.2998v-44.0205c-64 4 -240.479 9.32031 -240.479 9.32031
c-81.9033 3.2666 -139.3 -13.8604 -139.3 -121v-66c0 -95.4199 46.4199 -106.5 117.3 -106.5h132.479c133 0 158.04 -81.5 158.04 -163.5v-68c0 -142 -100.279 -164 -199.279 -164c-49 0 -198.9 13.5996 -244.9 21.5996v44.7002c41.3604 -4 151.9 -9.2998 244.9 -9.2998
c57.6592 0 142.279 9.13965 142.279 107v68c0 66.5195 -24.1396 106.5 -101.04 106.5h-130.479c-158.3 0 -176.3 81.54 -176.3 163.5z" />
    <glyph glyph-name="ubreve" unicode="&#x16d;" 
d="M158.3 710h35.7803c0 -45.1201 38.0801 -78.5596 78.2197 -78.2197c45.1406 0.339844 80.2197 30.7793 80.2197 78.2197h35.7803c0 -76 -61 -114 -116 -114s-114 42 -114 114zM56.1201 161.34v370h57v-370c0 -70.4199 43.0801 -113 107 -113
c82.7197 0 126.82 20.3398 202.8 58.3604v424.64h57v-531h-39.0801l-17.9199 62c-59.9795 -36.0195 -121.8 -71 -202.8 -71c-106 0 -164 82 -164 170z" />
    <glyph glyph-name="scircumflex" unicode="&#x15d;" horiz-adv-x="505" 
d="M109.04 596l122.1 130h53.6602l109.44 -130h-52.9805l-84.9395 85.96l-93.6406 -85.96h-53.6396zM44.7598 359.7v46c0 82 35 130.3 138 130.3c52 0 198.8 -8.62012 250.8 -13.6201v-42.3799h-250.8c-70.7998 0 -81 -27.3799 -81 -74.2998v-46
c0 -65.54 31.0801 -67.2002 81 -67.2002h147.8c83.2607 0 130 -48.9004 130 -123.9v-49c0 -109 -66 -124.6 -130 -124.6c-49 0 -225.8 11.9404 -263.8 15.9404v41.0596h263.8c15.9805 0 73 -3.62012 73 67.5996v49c0 39.7607 -19.8193 66.9004 -73 66.9004h-147.8
c-94 0 -138 21.2002 -138 124.2z" />
    <glyph glyph-name="gbreve" unicode="&#x11f;" horiz-adv-x="560" 
d="M160.7 710.66h35.7803c0 -45.1201 38.0791 -78.5605 78.2197 -78.2197c45.1396 0.339844 80.2197 30.7793 80.2197 78.2197h35.7803c0 -76 -61 -114 -116 -114s-114 42 -114 114zM53.4404 116.7c0 31.9795 20.8896 71.9395 67.8398 77.8994
c-54.2002 28.6807 -67.8604 94.3604 -67.8604 149.4c0 128.7 60.9004 189 172.66 189h312v-41.7197l-91.2002 -15.2803c13.3799 -18.2803 41.2002 -44.7197 41.2002 -132c0 -60 -23 -186.84 -165 -186.84h-156c-16 0 -57.3203 -4.33984 -57.3203 -39.1797
c0 -30.7607 30.085 -41.4805 54.2598 -41.4805h210.62c86.6465 0 134.44 -54.6602 134.44 -136.3v-59.6006c0 -60 -19 -150.6 -150 -150.6h-150c-94 0 -158.64 51.7002 -158.64 154v88.0596l30.4795 78.6006c-20.8604 16.4297 -27.4795 43.46 -27.4795 66.04zM107.78 -116
c0 -86.2598 64.5996 -97 101.3 -97h150c62.7402 0 93 30.6201 93 93.5996v56.3008c0 51.0801 -17.2344 82.9395 -86.0205 82.9395h-200.699c-38.8203 0 -57.5801 15.1406 -57.5801 15.1406v-150.98zM110.42 344c0 -68.3799 28.9404 -129.5 108.66 -129.5h99.3604
c89.5195 0 113.96 73.3203 112.64 129.5c-1.98047 84.96 -29.54 132 -98.6797 132h-109.721c-91.5195 0 -112.26 -62.3799 -112.26 -132z" />
    <glyph glyph-name="gdotaccent" unicode="&#x121;" horiz-adv-x="560" 
d="M243.11 617.24v56.7197c0 12.6201 6.63965 20.5801 19.9199 20.5801h36.7393c12.6201 0 19.2607 -8.95996 19.2607 -20.5801v-56.7197c0 -12.6201 -7.64062 -19.2598 -19.2607 -19.2598h-36.7393c-11.6201 0 -19.9199 7.63965 -19.9199 19.2598zM53.4404 116.7
c0 31.9795 20.8896 71.9395 67.8398 77.8994c-54.2002 28.6807 -67.8604 94.3604 -67.8604 149.4c0 128.7 60.9004 189 172.66 189h312v-41.7197l-91.2002 -15.2803c13.3799 -18.2803 41.2002 -44.7197 41.2002 -132c0 -60 -23 -186.84 -165 -186.84h-156
c-16 0 -57.3203 -4.33984 -57.3203 -39.1797c0 -30.7607 30.085 -41.4805 54.2598 -41.4805h210.62c86.6465 0 134.44 -54.6602 134.44 -136.3v-59.6006c0 -60 -19 -150.6 -150 -150.6h-150c-94 0 -158.64 51.7002 -158.64 154v88.0596l30.4795 78.6006
c-20.8604 16.4297 -27.4795 43.46 -27.4795 66.04zM107.78 -116c0 -86.2598 64.5996 -97 101.3 -97h150c62.7402 0 93 30.6201 93 93.5996v56.3008c0 51.0801 -17.2344 82.9395 -86.0205 82.9395h-200.699c-38.8203 0 -57.5801 15.1406 -57.5801 15.1406v-150.98z
M110.42 344c0 -68.3799 28.9404 -129.5 108.66 -129.5h99.3604c89.5195 0 113.96 73.3203 112.64 129.5c-1.98047 84.96 -29.54 132 -98.6797 132h-109.721c-91.5195 0 -112.26 -62.3799 -112.26 -132z" />
    <glyph glyph-name="gcircumflex" unicode="&#x11d;" horiz-adv-x="560" 
d="M135.12 597l122.1 130h53.6602l109.44 -130h-52.9805l-84.9395 85.96l-93.6406 -85.96h-53.6396zM53.4404 116.7c0 31.9795 20.8896 71.9395 67.8398 77.8994c-54.2002 28.6807 -67.8604 94.3604 -67.8604 149.4c0 128.7 60.9004 189 172.66 189h312v-41.7197
l-91.2002 -15.2803c13.3799 -18.2803 41.2002 -44.7197 41.2002 -132c0 -60 -23 -186.84 -165 -186.84h-156c-16 0 -57.3203 -4.33984 -57.3203 -39.1797c0 -30.7607 30.085 -41.4805 54.2598 -41.4805h210.62c86.6465 0 134.44 -54.6602 134.44 -136.3v-59.6006
c0 -60 -19 -150.6 -150 -150.6h-150c-94 0 -158.64 51.7002 -158.64 154v88.0596l30.4795 78.6006c-20.8604 16.4297 -27.4795 43.46 -27.4795 66.04zM107.78 -116c0 -86.2598 64.5996 -97 101.3 -97h150c62.7402 0 93 30.6201 93 93.5996v56.3008
c0 51.0801 -17.2344 82.9395 -86.0205 82.9395h-200.699c-38.8203 0 -57.5801 15.1406 -57.5801 15.1406v-150.98zM110.42 344c0 -68.3799 28.9404 -129.5 108.66 -129.5h99.3604c89.5195 0 113.96 73.3203 112.64 129.5c-1.98047 84.96 -29.54 132 -98.6797 132h-109.721
c-91.5195 0 -112.26 -62.3799 -112.26 -132z" />
    <glyph glyph-name="gbreve.salt" horiz-adv-x="557" 
d="M176.96 707h35.7803c0 -45.1201 38.0801 -78.5596 78.2197 -78.2197c45.1396 0.339844 80.2197 30.7793 80.2197 78.2197h35.7803c0 -76 -61 -114 -116 -114s-114 42 -114 114zM56.1201 268c0 168 59 269 184 269c106 0 203.46 -15.5996 250.46 -19.5996v-621.4
c0 -124 -89.3398 -175 -158.66 -168l-247.8 24v37.0996l247.8 -5.09961c53.6797 -1.36035 101.66 33.04 101.66 112v133c-64 -26 -148.46 -39 -193.46 -39c-153 0 -184 120 -184 278zM113.12 268c0 -117.26 12.3203 -221 127 -221c74 0 110.46 7.40039 193.46 28.4004v404.6
h-193.46c-109.04 0 -127 -119.76 -127 -212z" />
    <glyph glyph-name="gdotaccent.salt" horiz-adv-x="557" 
d="M256.39 614.94v56.7197c0 12.6201 6.64062 20.5801 19.9199 20.5801h36.7402c12.6201 0 19.2598 -8.95996 19.2598 -20.5801v-56.7197c0 -12.6201 -7.63965 -19.2607 -19.2598 -19.2607h-36.7402c-11.6191 0 -19.9199 7.64062 -19.9199 19.2607zM56.1201 268
c0 168 59 269 184 269c106 0 203.46 -15.5996 250.46 -19.5996v-621.4c0 -124 -89.3398 -175 -158.66 -168l-247.8 24v37.0996l247.8 -5.09961c53.6797 -1.36035 101.66 33.04 101.66 112v133c-64 -26 -148.46 -39 -193.46 -39c-153 0 -184 120 -184 278zM113.12 268
c0 -117.26 12.3203 -221 127 -221c74 0 110.46 7.40039 193.46 28.4004v404.6h-193.46c-109.04 0 -127 -119.76 -127 -212z" />
    <glyph glyph-name="gcircumflex.salt" horiz-adv-x="557" 
d="M154.68 594.36l122.101 130h53.6602l109.439 -130h-52.9795l-84.9404 85.96l-93.6396 -85.96h-53.6406zM56.1201 268c0 168 59 269 184 269c106 0 203.46 -15.5996 250.46 -19.5996v-621.4c0 -124 -89.3398 -175 -158.66 -168l-247.8 24v37.0996l247.8 -5.09961
c53.6797 -1.36035 101.66 33.04 101.66 112v133c-64 -26 -148.46 -39 -193.46 -39c-153 0 -184 120 -184 278zM113.12 268c0 -117.26 12.3203 -221 127 -221c74 0 110.46 7.40039 193.46 28.4004v404.6h-193.46c-109.04 0 -127 -119.76 -127 -212z" />
    <glyph glyph-name="f_f" unicode="&#xfb00;" horiz-adv-x="772" 
d="M22.3799 474v41.7002l98.3203 15.2998v89c0 54.6797 3.67969 156 123.68 156c43.2197 0 83.8594 -9 129.8 -21.6201v-37.0996c-1 0 -117.56 3.04004 -117.56 3.04004c-64.3398 2.01953 -78.9199 -35.6602 -78.9199 -100.32v-89h316.2v99c0 54 3 156 112.8 156
c42.54 0 98.8203 -8.66016 143.4 -21.96v-37.0996c-1 0 -129.46 3.37988 -129.46 3.37988c-65.3604 2.01953 -69.7402 -45.5205 -69.7402 -100.32v-99h156.88v-57h-158.2v-474.68h-57v474.68h-316.2v-474h-57v474h-97z" />
    <glyph glyph-name="f_f_i" unicode="&#xfb03;" horiz-adv-x="968" 
d="M22.3799 474v41.6992l98.3203 15.2998v89c0 54.6797 3.67969 156 123.68 156c43.2197 0 83.8594 -9 129.8 -21.6201v-37.0996c-1 0 -117.56 3.04004 -117.56 3.04004c-64.3398 2.01953 -78.2598 -35.6602 -78.9199 -100.32l-1.32031 -89h304.66v53
c0 118 69.54 202 189.54 202c44.5801 0 130.16 -13.9004 184.94 -28.9004v-37.0996c-1 0 -171.34 9.98047 -171.34 9.98047c-73.8604 4 -146.141 -31.5195 -146.141 -145.979v-53l363.08 -8.98047v-522.02h-57.6602v474h-306.74v-474h-57v474h-303.34v-474h-57v474h-97z" />
    <glyph glyph-name="ffl" unicode="&#xfb04;" horiz-adv-x="1076" 
d="M22.3799 474l0.000976562 41.7002l98.3203 15.2998v89c0 54.6797 3.67969 156 123.68 156c43.2197 0 83.8594 -9 129.8 -21.6201v-37.0996c-1 0 -117.56 3.04004 -117.56 3.04004c-64.3398 2.01953 -78.2598 -35.6602 -78.9199 -100.32l-1.32031 -89h303.3v53
c0 108 43.3398 200.68 163.34 200.68h258.8v-594.66c0 -110.8 30.3203 -122.72 68.9004 -132c0 0 76.9004 -17.5996 83.9004 -17.5996v-39.4004h-80.8604c-90.5996 0 -128.939 51.0596 -128.939 189v540.98h-188.2c-71.8203 0 -119.94 -32.8799 -119.94 -147v-53h146.34v-57
h-147.66v-474h-57v474h-301.98v-474h-57v474h-97z" />
    <glyph glyph-name="c_t" horiz-adv-x="836" 
d="M44.7598 262.02c0 230.98 74.3594 269.959 174.999 269.959h375.98l14.5996 147.34h42.4004v-148h161.8v-57.6396h-161.8l0.339844 -285.38c0 -118.72 30.3203 -124.04 70.2207 -132c0 0 73.5996 -15.6201 76.6396 -15.6201v-41.3799h-74.2598
c-91.2598 0 -129.6 51.7197 -129.6 189l-0.339844 284.7h-375.98c-68.8398 0 -118 -19.5195 -118 -214.979c0 -171.02 41.2402 -208.02 118 -208.02c92 0 224.8 14.4004 224.8 14.4004v-42.4004c-81 -23 -141.8 -28 -224.8 -29c-99 0 -175 36.0195 -175 269.02z" />
    <glyph glyph-name="s_t" unicode="&#xfb06;" horiz-adv-x="872" 
d="M44.7598 353.02l-0.000976562 47.3203c0 82 35 131.66 138 131.66h442.14l14.5996 148h42.4004v-148h161.8v-55.6797h-161.8v-287.34c0.660156 -118.72 30.3203 -124.04 70.2207 -132c0 0 73.5996 -15.6201 76.6396 -15.6201v-41.3799h-74.2598
c-91.2598 0 -129.6 51.7197 -129.6 189v287.34l-442.14 -0.660156c-70.7998 0 -81 -28.4004 -81 -75.3203v-47.3203c0 -65.54 31.0801 -65.5 81 -65.5h147.8c83.2598 0 130 -47.2002 130 -120.5v-45.04c0 -109 -66 -128 -130 -128c-49 0 -225.8 11.9404 -263.8 15.9404
v41.0596h263.8c15.9805 0 73 -0.219727 73 71v45.04c0 39.7598 -19.8203 63.5 -73 63.5h-147.8c-94 0 -138 19.5 -138 122.5z" />
    <glyph glyph-name="t_t" horiz-adv-x="727" 
d="M22.3799 475l-0.00195312 42.4004l93.9004 14.5996l14.5996 148h42.4004v-148h313.34l14.5996 147.66h42.4004v-148h161.8v-57h-161.8v-285c0.660156 -118.72 30.3203 -123.38 70.2207 -132c0 0 73.5996 -15.6201 76.6396 -15.6201v-41.3799h-74.2598
c-91.2598 0 -129.6 51.7197 -129.6 189v285l-313.34 0.339844v-285.68c0.660156 -118.72 30.3203 -123.38 70.2207 -132c0 0 73.5996 -15.6201 76.6396 -15.6201v-41.3799h-74.2598c-91.2598 0 -129.6 51.7197 -129.6 189v285.68h-93.9004z" />
    <glyph glyph-name="f_t" horiz-adv-x="756" 
d="M22.3799 474l-0.000976562 42.3799l94.9199 14.6201v99c0 54 3 156 112.8 156c42.54 0 98.8203 -6.28027 143.4 -19.5801v-36.7598c-0.660156 0 -129.46 0.660156 -129.46 0.660156c-65.3604 0.660156 -69.7402 -42.1201 -69.7402 -100.32v-98.3398h341l14.5996 148.34
h42.4004v-148.34h161.8v-57h-161.8l0.339844 -285.34c0.660156 -118.72 30.3203 -123.38 70.2207 -132c0 0 73.5996 -15.6201 76.6396 -15.6201v-41.3799h-74.2598c-91.2598 0 -129.6 51.7197 -129.6 189l-0.339844 285.34h-342.32v-474.66h-57v474h-93.5996z" />
    <glyph glyph-name="t_y" horiz-adv-x="930" 
d="M22.3799 475l-0.000976562 42.4023l93.9004 14.5996l14.5996 148h42.4004v-148h158.4c116.32 -0.339844 136.38 -30.04 165.7 -111.021l111.28 -303.62c23.7998 -66.7002 78.5596 -56.6807 77.8994 -56.6807l158.46 471.68h63.9404l-233 -699l-66.46 -102h-37.0801
l96.9004 270c-23.6396 0.339844 -85.96 10 -121.62 110l-106.32 290.04c-20.1201 56 -42.1602 73.2598 -109.7 73.2598h-158.4v-285.34c0.660156 -118.72 30.3203 -124.04 70.2207 -132c0 0 73.5996 -15.6201 76.6396 -15.6201v-41.3799h-74.2598
c-91.2598 0 -129.6 51.7197 -129.6 189v285.68h-93.9004z" />
    <glyph glyph-name="f_y" horiz-adv-x="954" 
d="M22.3799 474l-0.000976562 42.3818l94.9199 14.6201v99c0 54 3 156 112.8 156c42.54 0 98.8203 -12.8799 143.4 -26.1797v-36.7598c-0.660156 0 -129.46 7.25977 -129.46 7.25977c-65.3604 3.95996 -69.7402 -42.1201 -69.7402 -100.32v-99l174.4 0.339844
c116.32 -0.339844 137.7 -30.04 168.34 -110.36l114.58 -302.96c23.7998 -66.7002 78.5596 -56.6807 77.8994 -56.6807l157.8 471.68h63.9404l-233 -699l-66.46 -102h-37.0801l96.9004 270c-23.6396 0.339844 -86.6201 10 -121.62 110l-108.96 289.38
c-20.7803 56 -44.7998 72.5996 -112.34 72.5996h-175.72v-474h-57v474h-93.5996z" />
    <glyph glyph-name="kgreenlandic" unicode="&#x138;" horiz-adv-x="502" 
d="M67.1396 0l0.000976562 531h57v-238.14h94.54l191.06 238.14h70.5801l-210.28 -265.98l196.28 -265.02h-71.5801l-178.04 235.86h-91.9004l-0.660156 -235.86h-57z" />
    <glyph glyph-name="Rcommaaccent" unicode="&#x156;" horiz-adv-x="586" 
d="M261.504 -135.972v51.0479c0 13.4463 6.57031 20.0156 18.5225 20.0156h33.3535c13.4463 0 17.9277 -8.6582 17.9277 -20.0156v-87.7324c0 -68.6699 -66.2217 -55.2236 -66.2217 -55.2236v20.8438c22.4102 -0.59375 23.3105 14.6338 23.3105 23.0039v29.2324h-8.37012
c-10.458 0 -18.5225 6.28223 -18.5225 18.8281zM67.1396 0v732h299.761c89.5596 0 171.38 -42.7803 171.38 -213.2c0 -189.319 -94.9199 -206.34 -137.88 -209.66l156.38 -309.14h-61.2998l-156.721 307.16c-18.0195 0.339844 -212.92 11.6201 -214.62 12.6396v-319.8h-57z
M124.14 368.12h242.761c57.2197 0 113.38 7.82031 113.38 150.68c0 138.82 -58.5 155.2 -113.38 155.2h-242.761v-305.88z" />
    <glyph glyph-name="Itilde" unicode="&#x128;" horiz-adv-x="209" 
d="M-50.9805 834.6c37.9609 31.9805 73.6006 61.96 113.921 61.96c46.2598 -1.97949 84.0996 -47.2598 113.46 -47.9199c29.0996 -0.65918 65.1191 24.1006 94.0596 41.7803l16.5596 -30.0996c-33 -27.7207 -69.9395 -63.9805 -111.939 -62.6602
c-51.2402 1.97949 -78.4805 47.9199 -113.46 47.2598c-41.96 -0.660156 -60.7197 -22.0195 -97.3799 -40.0996zM89.5195 0v732h57v-732h-57z" />
    <glyph glyph-name="Lcommaaccent" unicode="&#x13b;" horiz-adv-x="557" 
d="M278.304 -135.972v51.0479c0 13.4463 6.57031 20.0156 18.5225 20.0156h33.3535c13.4463 0 17.9287 -8.6582 17.9287 -20.0156v-87.7324c0 -68.6699 -66.2227 -55.2236 -66.2227 -55.2236v20.8438c22.4102 -0.59375 23.3105 14.6338 23.3105 23.0039v29.2324h-8.37012
c-10.458 0 -18.5225 6.28223 -18.5225 18.8281zM89.5195 126v606h57v-606c0 -66.2598 41.5 -69 79 -69h295.801v-57h-295.801c-66 0 -136 13 -136 126z" />
    <glyph glyph-name="Emacron" unicode="&#x112;" horiz-adv-x="572" 
d="M184.9 795v46.6797h278.399v-46.6797h-278.399zM89.5195 123v479c0 98 60.0225 132.712 126 130l309.54 -13.96v-43.04h-309.54c-55.3994 0 -69 -29.6797 -69 -73v-209.18l338.54 -8.30078v-43.6992l-338.54 -8.30078v-209.52c0.660156 -66.2598 41.1602 -69 79 -69
h299.54v-42.3799l-299.54 -14.6201c-66.0088 -3.42188 -136 13 -136 126z" />
    <glyph glyph-name="Gcommaaccent" unicode="&#x122;" horiz-adv-x="616" 
d="M289.624 -140.972v51.0479c0 13.4463 6.57031 20.0156 18.5225 20.0156h33.3535c13.4463 0 17.9277 -8.6582 17.9277 -20.0156v-87.7324c0 -68.6699 -66.2217 -55.2236 -66.2217 -55.2236v20.8438c22.4102 -0.59375 23.3096 14.6338 23.3096 23.0039v29.2324h-8.36914
c-10.458 0 -18.5225 6.28223 -18.5225 18.8281zM61.46 370c0 200 29.5596 370 228.56 370c52 0 182.301 -14 252.301 -27v-45.4004c-6 0 -155 15.4004 -252.301 15.4004c-143.56 0 -171.56 -107.9 -171.56 -315c0 -230.84 40.6602 -315.34 175.9 -316.66
c76.6797 -0.660156 207.3 47.3604 207.3 47.3604v232.3h-183.641v37.7598c40 11 91.6406 20.2402 172.641 20.2402c21 0 44 -1 68 -3v-386h-41.7197l-13.2803 50.7002c-35.2803 -19.2998 -119.3 -55.7002 -209.3 -55.7002c-207 -2 -232.9 164.7 -232.9 375z" />
    <glyph glyph-name="Tbar" unicode="&#x166;" horiz-adv-x="586" 
d="M39.0801 675v57h511.4v-57h-230.2v-237.8h130.2v-40.4004h-130.2v-396.8h-57v396.8h-123.4v40.4004h123.4v237.8h-224.2z" />
    <glyph glyph-name="rcommaaccent" unicode="&#x157;" horiz-adv-x="425" 
d="M59.5039 -135.972v51.0479c0 13.4463 6.57031 20.0156 18.5225 20.0156h33.3535c13.4463 0 17.9277 -8.6582 17.9277 -20.0156v-87.7324c0 -68.6699 -66.2217 -55.2236 -66.2217 -55.2236v20.8438c22.4102 -0.59375 23.3105 14.6338 23.3105 23.0039v29.2324h-8.37012
c-10.458 0 -18.5225 6.28223 -18.5225 18.8281zM65.7803 0v531h38.3994l18.6006 -67c61 35 120.08 73 204.8 73c29 0 59.2803 -1.66016 74 -8v-56c-16.0801 3.67969 -45 6.33984 -74 6.33984c-83.0605 0 -127.8 -24.7402 -204.8 -61.7402v-417.6h-57z" />
    <glyph glyph-name="itilde" unicode="&#x129;" horiz-adv-x="191" 
d="M-73.3604 633.6c37.96 31.9805 73.6006 61.96 113.92 61.96c46.2607 -1.97949 84.1006 -47.2598 113.46 -47.9199c29.1006 -0.65918 65.1201 24.1006 94.0605 41.7803l16.5596 -30.0996c-33 -27.7207 -69.9395 -63.9805 -111.939 -62.6602
c-51.2402 1.97949 -78.4805 47.9199 -113.46 47.2598c-41.96 -0.660156 -60.7207 -22.0195 -97.3799 -40.0996zM67.1396 0v531h57v-531h-57z" />
    <glyph glyph-name="lcommaaccent" unicode="&#x13c;" horiz-adv-x="299" 
d="M123.364 -135.972v51.0479c0 13.4463 6.56934 20.0156 18.5215 20.0156h33.3545c13.4453 0 17.9277 -8.6582 17.9277 -20.0156v-87.7324c0 -68.6699 -66.2217 -55.2236 -66.2217 -55.2236v20.8438c22.4102 -0.59375 23.3096 14.6338 23.3096 23.0039v29.2324h-8.37012
c-10.458 0 -18.5215 6.28223 -18.5215 18.8281zM67.1396 189v594h57v-594c0 -110.8 36.2607 -125.36 68.9004 -132c0 0 76.9004 -17.5996 83.9004 -17.5996v-39.4004h-80.8604c-79.3799 0 -128.94 51.0596 -128.94 189z" />
    <glyph glyph-name="emacron" unicode="&#x113;" horiz-adv-x="525" 
d="M134.1 595.34v46.6797h278.4v-46.6797h-278.4zM56.1201 268c0 235.98 63.2402 267 221.8 267c123.64 0 202.66 -12 202.66 -188c0 -77.6797 -44.0605 -113.5 -136.66 -113.5h-230.8c0 -151.18 36.5996 -181.5 117.66 -181.5c92 0 164.8 2.40039 239.8 13.4004v-42.4004
c-81 -23 -156.8 -28.3398 -239.8 -28c-135.34 0.679688 -174.66 69.0801 -174.66 273zM113.12 289.5h230.8c48.0801 0 79.6602 11.9199 79.6602 57.5c0 120.3 -33.5996 131 -145 131c-121.84 0 -165.46 -10.8604 -165.46 -188.5z" />
    <glyph glyph-name="gcommaaccent" unicode="&#x123;" horiz-adv-x="560" 
d="M242.994 612.541l0.00195312 87.7324c0 68.6699 66.2217 55.2236 66.2217 55.2236v-20.8438c-22.4102 0.591797 -23.3105 -14.6338 -23.3105 -23.0049v-29.2324h8.37012c10.458 0 18.5225 -6.28125 18.5225 -18.8281v-51.0469
c0 -13.4473 -6.57031 -20.0176 -18.5225 -20.0176h-33.3545c-13.4463 0 -17.9287 8.65918 -17.9287 20.0176zM52.7617 115.7c0 34.0195 21.3984 73.6211 68.5186 78.9014c-54.2002 28.6797 -67.8604 94.3594 -67.8604 149.399c0 128.7 60.9004 189 172.66 189h312v-41.7197
l-91.2002 -15.2803c13.3799 -18.2803 41.2002 -44.7207 41.2002 -132.001c0 -60 -23 -186.84 -165 -186.84h-156c-16 0 -56.9805 -4.63965 -56.9805 -39.4795c0 -30.7598 34.9805 -39.5 56.9805 -42.5l197 -25c81.5801 -10.3203 145 -54.1807 145 -133.181v-33
c0 -60 -19 -154 -150 -154h-150c-94 0 -158.64 51.7002 -158.64 154v88.0596l30.4805 77.9199c-22.5596 17.2803 -28.1592 45.1807 -28.1592 65.7207zM107.779 -115.998c0 -86.2598 64.5996 -97.001 101.3 -97.001h150c62.7402 0 93 34.0195 93 97v28
c0 51.0801 -37.7002 75.1201 -98.2002 83.1406l-181.58 24.04c-31.5596 4.36035 -64.5195 16.1406 -64.5195 16.1406v-151.32zM110.419 344.001c0 -68.3799 28.9395 -129.5 108.659 -129.5h99.3604c89.5195 0 113.96 73.3203 112.64 129.5
c-1.98047 84.96 -29.54 132 -98.6797 132h-109.72c-91.5195 0 -112.26 -62.3799 -112.26 -132z" />
    <glyph glyph-name="gcommaaccent.salt" horiz-adv-x="557" 
d="M257.294 612.541l0.000976562 87.7324c0 68.6699 66.2217 55.2236 66.2217 55.2236v-20.8438c-22.4102 0.591797 -23.3105 -14.6338 -23.3105 -23.0049v-29.2324h8.37012c10.458 0 18.5225 -6.28125 18.5225 -18.8281v-51.0469
c0 -13.4473 -6.57031 -20.0176 -18.5225 -20.0176h-33.3535c-13.4463 0 -17.9287 8.65918 -17.9287 20.0176zM56.1211 268c0 168 59 269 184 269c106 0 203.46 -15.5996 250.46 -19.5996v-621.4c0 -124 -89.3398 -175 -158.66 -168l-247.8 24v37.0996l247.8 -5.09961
c53.6797 -1.36035 101.66 33.04 101.66 112v133c-64 -26 -148.46 -39 -193.46 -39c-153 0 -184 120 -184 278zM113.121 268c0 -117.26 12.3203 -221 127 -221c74 0 110.46 7.40039 193.46 28.4004v404.6h-193.46c-109.04 0 -127 -119.76 -127 -212z" />
    <glyph glyph-name="tbar" unicode="&#x167;" horiz-adv-x="357" 
d="M22.3799 475v42.4004l93.9004 14.5996l14.5996 148h42.4004v-148h161.8v-57h-161.8v-149.6h111.8v-40.4004h-111.8v-95c0.660156 -118.38 27.2598 -122.7 70.2197 -132c0 0 73.5996 -15.6201 76.6396 -15.6201v-41.3799h-76.2998c-88.54 0 -127.56 48.6602 -127.56 189
v95h-81v40.4004h81v149.6h-93.9004z" />
    <glyph glyph-name="Eng" unicode="&#x14a;" horiz-adv-x="673" 
d="M89.5195 0v732h58.6602l405.68 -618v618h57v-732v-84c0 -152 -79 -173 -197 -173v43.7402c67.5195 13.96 140 7.62012 140 138.16v75.0996l-405.68 624.6l-1.32031 -624.6h-57.3398z" />
    <glyph glyph-name="eng" unicode="&#x14b;" horiz-adv-x="558" 
d="M67.1396 0l-0.00195312 531.002h38.4004l18.5996 -62c61 35 118.4 71 199.4 71c106 0 167.4 -82 167.4 -170v-370l-0.660156 -90c-5.28027 -132.94 -97.3398 -154.94 -159.26 -170.181l-23.8799 30.1797c52.9004 19.5996 124.801 50.6396 126.801 137.699v92.2998v370
c0 67.7002 -46.1396 113 -110.399 113c-81.3604 0 -128.181 -23.7402 -199.4 -59.3799v-423.62h-57z" />
    <glyph glyph-name="Amacron" unicode="&#x100;" horiz-adv-x="666" 
d="M212.14 797v46.6797h278.4v-46.6797h-278.4zM50.4404 0l270.699 732h60.4004l258.7 -732h-66.9199l-72.5205 220.66h-305.939l-75.5205 -220.66h-68.8994zM215.74 277.66h264.84l-129.9 371.6z" />
    <glyph glyph-name="Iogonek" unicode="&#x12e;" horiz-adv-x="209" 
d="M105.1 0.0263672h29.8203c-92.5195 -60.1797 -83.8203 -136.34 12.8604 -136.64v-44.3604c-115 -16 -192.34 116.32 -42.6807 181zM89.5195 0v732h57v-732h-57z" />
    <glyph glyph-name="Edotaccent" unicode="&#x116;" horiz-adv-x="572" 
d="M287.194 814.28v56.7197c0 12.6201 6.63965 20.5801 19.9199 20.5801h36.7393c12.6201 0 19.2607 -8.95996 19.2607 -20.5801v-56.7197c0 -12.6201 -7.64062 -19.2607 -19.2607 -19.2607h-36.7393c-11.6201 0 -19.9199 7.64062 -19.9199 19.2607zM89.5195 123v479
c0 98 60.0225 132.712 126 130l309.54 -13.96v-43.04h-309.54c-55.3994 0 -69 -29.6797 -69 -73v-209.18l338.54 -8.30078v-43.6992l-338.54 -8.30078v-209.52c0.660156 -66.2598 41.1602 -69 79 -69h299.54v-42.3799l-299.54 -14.6201c-66.0088 -3.42188 -136 13 -136 126z
" />
    <glyph glyph-name="Imacron" unicode="&#x12a;" horiz-adv-x="209" 
d="M-21.1797 797v46.6797h278.399v-46.6797h-278.399zM89.5195 0v732h57v-732h-57z" />
    <glyph glyph-name="Ncommaaccent" unicode="&#x145;" horiz-adv-x="674" 
d="M315.924 -137.672v51.0479c0 13.4463 6.57031 20.0156 18.5225 20.0156h33.3535c13.4463 0 17.9277 -8.65723 17.9277 -20.0156v-87.7324c0 -68.6699 -66.2217 -55.2236 -66.2217 -55.2236v20.8438c22.4102 -0.59375 23.3105 14.6348 23.3105 23.0039v29.2324h-8.37012
c-10.458 0 -18.5225 6.28223 -18.5225 18.8281zM89.5195 0v732h58.6602l407 -625.28v625.28h57v-732h-57l-408 625.28v-625.28h-57.6602z" />
    <glyph glyph-name="Omacron" unicode="&#x14c;" horiz-adv-x="675" 
d="M212.18 797v46.6797h278.4v-46.6797h-278.4zM72.8203 361c0 343 109.199 376 278.56 376c173 0 277.24 -33 277.24 -376c0 -323 -97.2402 -365 -277.24 -365s-278.56 32 -278.56 365zM129.82 361c0 -270.94 56.4199 -308 221.56 -308
c161.101 0 220.24 43.0195 220.24 308c0 307.5 -76.0801 319 -220.24 319c-138.1 0 -221.56 -7.08008 -221.56 -319z" />
    <glyph glyph-name="Kcommaaccent" unicode="&#x136;" horiz-adv-x="591" 
d="M276.324 -136.312v51.0479c0 13.4453 6.56934 20.0156 18.5215 20.0156h33.3545c13.4463 0 17.9277 -8.6582 17.9277 -20.0156v-87.7324c0 -68.6699 -66.2217 -55.2236 -66.2217 -55.2236v20.8438c22.4102 -0.59375 23.3096 14.6338 23.3096 23.0039v29.2324h-8.37012
c-10.458 0 -18.5215 6.28125 -18.5215 18.8281zM89.5195 0v732h57v-336.5h105.801l233.739 336.5h69.2607l-250.641 -365l250.641 -367h-69.6006l-233.739 338.5h-104.461v-338.5h-58z" />
    <glyph glyph-name="Uogonek" unicode="&#x172;" horiz-adv-x="679" 
d="M336.54 -4h29.8203c-92.5205 -60.1797 -83.8203 -136.34 12.8594 -136.64v-44.3604c-115 -16 -192.34 116.32 -42.6797 181zM89.5195 320v412h57v-412c0 -271.28 85.4404 -268 208.9 -268c107.84 0 203.24 6.75977 203.24 268v412h57.6602v-412
c0 -323 -139.9 -325 -260.9 -325c-136 0 -265.9 -6.63965 -265.9 325z" />
    <glyph glyph-name="Utilde" unicode="&#x168;" horiz-adv-x="679" 
d="M183.59 831.3c37.96 31.9805 73.6006 61.96 113.92 61.96c46.2598 -1.97949 84.1006 -47.2598 113.46 -47.9199c29.1006 -0.660156 65.1201 24.1006 94.0605 41.7803l16.5596 -30.1006c-33 -27.7197 -69.9395 -63.9795 -111.939 -62.6592
c-51.2402 1.97949 -78.4805 47.9199 -113.46 47.2598c-41.96 -0.660156 -60.7207 -22.0205 -97.3809 -40.1006zM89.5195 320v412h57v-412c0 -271.28 85.4404 -268 208.9 -268c107.84 0 203.24 6.75977 203.24 268v412h57.6602v-412c0 -323 -139.9 -325 -260.9 -325
c-136 0 -265.9 -6.63965 -265.9 325z" />
    <glyph glyph-name="Umacron" unicode="&#x16a;" horiz-adv-x="679" 
d="M213.72 797v46.6797h278.4v-46.6797h-278.4zM89.5195 320v412h57v-412c0 -271.28 85.4404 -268 208.9 -268c107.84 0 203.24 6.75977 203.24 268v412h57.6602v-412c0 -323 -139.9 -325 -260.9 -325c-136 0 -265.9 -6.63965 -265.9 325z" />
    <glyph glyph-name="amacron" unicode="&#x101;" horiz-adv-x="519" 
d="M131.198 601.006v46.6797h278.4v-46.6797h-278.4zM44.7598 126v61c0 81.7002 50.3398 133 133 133c0 0 228.8 -1 228.8 0c0 0 1 66 0 67c0 63.7197 -30.9795 98.6602 -98.3193 99c-72 0.339844 -151.521 -6.36035 -246.48 -15.7402v40.4004
c66.2402 17.96 149.46 29.3398 248.8 30.3398c83 1 153 -44 153 -154v-387h-41.3994l-15.6006 64c-2 0 -135.42 -70 -228.8 -70c-73 0 -133 47 -133 132zM101.76 131c0 -60.5801 36.9004 -79.6602 76 -80c80 -0.679688 228.8 54.0596 228.8 54.0596v171.9l-228.8 -13.96
c-55.9199 -3.66016 -76 -38.0996 -76 -79.96v-52.04z" />
    <glyph glyph-name="iogonek" unicode="&#x12f;" horiz-adv-x="187" 
d="M87.7803 0h29.8193c-92.5195 -60.1797 -83.8193 -136.34 12.8604 -136.64v-44.3604c-115 -16 -192.34 116.32 -42.6797 181zM62.5801 618.7v56.7197c0 12.6201 6.63965 20.5801 19.9199 20.5801h36.7402c12.6201 0 18.9199 -8.95996 18.9199 -20.5801v-56.7197
c0 -12.6201 -7.2998 -19.2598 -18.9199 -19.2598h-36.7402c-11.6201 0 -19.9199 7.63965 -19.9199 19.2598zM70.54 0v531h57v-531h-57z" />
    <glyph glyph-name="edotaccent" unicode="&#x117;" horiz-adv-x="525" 
d="M240.82 615.26v56.7207c0 12.6191 6.63965 20.5791 19.9199 20.5791h36.7402c12.6191 0 19.2598 -8.95996 19.2598 -20.5791v-56.7207c0 -12.6201 -7.64062 -19.2598 -19.2598 -19.2598h-36.7402c-11.6201 0 -19.9199 7.63965 -19.9199 19.2598zM56.1201 268
c0 235.98 63.2402 267 221.8 267c123.64 0 202.66 -12 202.66 -188c0 -77.6797 -44.0605 -113.5 -136.66 -113.5h-230.8c0 -151.18 36.5996 -181.5 117.66 -181.5c92 0 164.8 2.40039 239.8 13.4004v-42.4004c-81 -23 -156.8 -28.3398 -239.8 -28
c-135.34 0.679688 -174.66 69.0801 -174.66 273zM113.12 289.5h230.8c48.0801 0 79.6602 11.9199 79.6602 57.5c0 120.3 -33.5996 131 -145 131c-121.84 0 -165.46 -10.8604 -165.46 -188.5z" />
    <glyph glyph-name="imacron" unicode="&#x12b;" horiz-adv-x="191" 
d="M-43.5596 596v46.6797h278.399v-46.6797h-278.399zM67.1396 0v531h57v-531h-57z" />
    <glyph glyph-name="ncommaaccent" unicode="&#x146;" 
d="M245.264 -135.972v51.0479c0 13.4463 6.57031 20.0156 18.5225 20.0156h33.3535c13.4463 0 17.9287 -8.6582 17.9287 -20.0156v-87.7324c0 -68.6699 -66.2227 -55.2236 -66.2227 -55.2236v20.8438c22.4102 -0.59375 23.3105 14.6338 23.3105 23.0039v29.2324h-8.37012
c-10.458 0 -18.5225 6.28223 -18.5225 18.8281zM67.1396 0v531h39.0801l17.9199 -62c59.9805 36.0195 121.801 71 202.801 71c106 0 164 -82 164 -170v-370h-57v370c0 70.4199 -43.0801 113 -107 113c-82.7207 0 -126.82 -20.3398 -202.801 -58.3604v-424.64h-57z" />
    <glyph glyph-name="omacron" unicode="&#x14d;" horiz-adv-x="569" 
d="M145.48 596v46.6797h278.399v-46.6797h-278.399zM56.1201 258c0 217 59.6602 278 228.56 278c176.96 0 229.24 -75.1602 229.24 -278c0 -195.98 -53.9795 -263 -229.24 -263c-177.979 0 -228.56 73 -228.56 263zM113.12 258c0 -188.56 60.3994 -206 171.56 -206
c114.801 0 172.24 21.8203 172.24 206c0 199.18 -53.8799 221 -172.24 221c-114.72 0 -171.56 -16.0596 -171.56 -221z" />
    <glyph glyph-name="kcommaaccent" unicode="&#x137;" horiz-adv-x="499" 
d="M230.344 -135.972v51.0479c0 13.4463 6.57031 20.0156 18.5225 20.0156h33.3535c13.4463 0 17.9287 -8.6582 17.9287 -20.0156v-87.7324c0 -68.6699 -66.2227 -55.2236 -66.2227 -55.2236v20.8438c22.4102 -0.59375 23.3105 14.6338 23.3105 23.0039v29.2324h-8.37012
c-10.458 0 -18.5225 6.28223 -18.5225 18.8281zM67.1396 0v782h57v-448.5h46.8008l225.1 197.5h80.9004l-251.641 -226.34l251.3 -304.66h-72.6191l-233.04 276.5h-46.8008v-276.5h-57z" />
    <glyph glyph-name="uogonek" unicode="&#x173;" horiz-adv-x="574" 
d="M454.153 0.339844h29.8193c-92.5195 -60.1797 -83.8193 -136.34 12.8604 -136.64v-44.3604c-115 -16 -192.34 116.32 -42.6797 181zM64.2803 161.34v370h57v-370c0 -70.4199 43.0801 -113 107 -113c82.7197 0 126.819 20.3398 202.8 58.3604v424.64h57v-531h-39.0801
l-17.9199 62c-59.9805 -36.0195 -121.8 -71 -202.8 -71c-106 0 -164 82 -164 170z" />
    <glyph glyph-name="utilde" unicode="&#x169;" 
d="M99.0195 633.6c37.9609 31.9805 73.6006 61.96 113.921 61.96c46.2598 -1.97949 84.0996 -47.2598 113.46 -47.9199c29.0996 -0.65918 65.1191 24.1006 94.0596 41.7803l16.5596 -30.0996c-33 -27.7207 -69.9395 -63.9805 -111.939 -62.6602
c-51.2402 1.97949 -78.4805 47.9199 -113.46 47.2598c-41.96 -0.660156 -60.7197 -22.0195 -97.3799 -40.0996zM56.1201 161.34v370h57v-370c0 -70.4199 43.0801 -113 107 -113c82.7197 0 126.82 20.3398 202.8 58.3604v424.64h57v-531h-39.0801l-17.9199 62
c-59.9795 -36.0195 -121.8 -71 -202.8 -71c-106 0 -164 82 -164 170z" />
    <glyph glyph-name="umacron" unicode="&#x16b;" 
d="M128.82 596v46.6797h278.399v-46.6797h-278.399zM56.1201 161.34v370h57v-370c0 -70.4199 43.0801 -113 107 -113c82.7197 0 126.82 20.3398 202.8 58.3604v424.64h57v-531h-39.0801l-17.9199 62c-59.9795 -36.0195 -121.8 -71 -202.8 -71c-106 0 -164 82 -164 170z" />
    <glyph glyph-name="exclam.smcp" horiz-adv-x="265" 
d="M91.8604 19.2598v58.7002c0 12.6201 6.63965 20.5801 19.9199 20.5801h40.04c12.6201 0 19.2598 -8.95996 19.2598 -20.5801v-58.7002c0 -12.6201 -7.63965 -19.2598 -19.2598 -19.2598h-40.04c-11.6201 -0 -19.9199 7.63965 -19.9199 19.2598zM97.8604 570h66.2207
l-6.32031 -403.34h-53.5801z" />
    <glyph glyph-name="quotedbl.smcp" horiz-adv-x="339" 
d="M79.5596 555.04l-0.000976562 67h57.3398v-67l-8.63965 -134h-39.0596zM202.658 555.04l-0.000976562 67h57.3398v-67l-8.63965 -134h-39.0596z" />
    <glyph glyph-name="numbersign.smcp" horiz-adv-x="567" 
d="M22.3799 180.46l5.95801 37.4004h128.78l23.04 131.94h-131.46l5.2998 37.4004h132.12l31.0195 182.8h38.4004l-31.0195 -182.8h137.26l30.3604 182.8h38.4004l-30.3604 -182.8h145.82l-5.2998 -37.4004h-146.14l-22.3799 -131.94h148.16l-5.95996 -37.4004h-148.16
l-30.6797 -181.46h-38.4004l30.0195 181.46h-136.6l-31.0195 -181.46h-38.4004l30.3604 181.46h-129.12zM196.178 217.86h137.601l21.7197 131.94h-136.94z" />
    <glyph glyph-name="dollar.smcp" horiz-adv-x="514" 
d="M56.1201 392.76l-0.000976562 30.998c0 134 92.7002 150.58 179.48 151.24v65h48.3604v-66.6602c41.9004 -2.63965 117.08 -9.93945 150.82 -13.959v-42.3799h-206.66c-76.1201 0 -115 -20.5801 -115 -93.2402v-31c0 -57.54 44.9004 -80.2402 105 -80.2402h82
c106 0 155 -72.5596 155 -137.56v-38c0 -105.04 -91.1602 -146.6 -171.16 -142.6v-63.3604h-48.3604v66c-44.6201 4.32031 -137.38 10.6406 -161.479 14.001v41.3799c30 0 148.66 0.660156 218.66 0.660156c39.5 0 104.34 15.46 104.34 83.9199v38
c0 48.7803 -39.1602 82.54 -97 82.54h-82c-119 0 -162 59.2598 -162 135.26z" />
    <glyph glyph-name="percent.smcp" horiz-adv-x="799" 
d="M32.4004 383.34v62.3398c0 85 28 125 129 125h45.3398c98 0 127 -40 127 -125v-62.3398c0 -85 -28 -125 -129 -125h-45.3398c-98 0 -127 40 -127 125zM80.4004 383.34c0 -61.5801 21.46 -77 79 -77h45.3398c64.46 0 81 17.04 81 77v62.3398c0 58.8604 -18.7402 77 -79 77
h-45.3398c-65.1396 0 -81 -17.04 -81 -77v-62.3398zM200.04 -0l343.28 570h54l-343.28 -570h-54zM465.32 124.68v62.3398c0 85 28 125 129 125h45.3398c98 0 127 -40 127 -125v-62.3398c0 -85 -28 -125 -129 -125h-45.3398c-98 0 -127 40 -127 125zM513.32 124.68
c0 -61.5801 21.46 -77 79 -77h45.3398c64.46 0 81 17.04 81 77v62.3398c0 58.8604 -18.7402 77 -79 77h-45.3398c-65.1396 0 -81 -17.04 -81 -77v-62.3398z" />
    <glyph glyph-name="ampersand.smcp" horiz-adv-x="550" 
d="M72.4004 62c-58 78 -45.6611 160.002 30.999 223.002l70.96 58.2998l-44 55.7002c-67.6396 87.0195 -12.6797 159.979 49 169.999c59.3398 8.95996 125.899 5.33984 227.8 -11.9404v-39.0596h-177.8c-81.6396 0 -86.7393 -43.9805 -44.999 -96.4404l191.9 -241.48
l92.8604 86.5801l17.8799 -19.8799l-48.8604 -84.3604l-27.0801 -27.4199l104.06 -135h-67.2598l-77.8799 97.8799l-66.5801 -63.8799c-63 -58 -169 -59 -231 28zM119.119 94.4824c31.1797 -40.5996 99.0586 -67.1201 149.778 -16.4199l66.2803 63.2402l-124.06 157.26
l-68.5801 -55.6201c-65.7598 -53.0996 -53.2793 -109.84 -23.4189 -148.46z" />
    <glyph glyph-name="quotesingle.smcp" horiz-adv-x="216" 
d="M79.5596 554.7l-0.000976562 67h57.3398v-67l-8.63965 -134h-39.0596z" />
    <glyph glyph-name="asterisk.smcp" horiz-adv-x="448" 
d="M56.1201 422.96l0.000976562 31.1602l140.02 20.5l2.63965 -57zM127.541 260.42l27.7197 134.66l56.3604 -12.5801l-55.2402 -131.36zM186.201 567.16l30.1602 11.9199l72.2803 -119.7l-53.04 -23.54zM218.541 330.58l31.1406 49.4004l112.72 -88.9404l-16.5801 -24.8604
zM261.882 413.32l116.62 77.7197l15.9199 -27.1797l-94.7402 -94.6201z" />
    <glyph glyph-name="zero.smcp" horiz-adv-x="589" 
d="M78.1602 162v246c0 112 77 162 172 162h93.7998c154 0 167.34 -114 167.34 -162v-246c0 -119 -68.3398 -162 -167.34 -162h-93.7998c-91 0 -172 42 -172 162zM135.16 162c0 -78.9004 58.1602 -105 115 -105h93.7998c83.04 0 110.34 46.9199 110.34 105v246
c0 59.9404 -28.5195 105 -110.34 105h-93.7998c-79.7402 0 -115 -41.3604 -115 -105v-246z" />
    <glyph glyph-name="one.smcp" horiz-adv-x="340" 
d="M44.7598 454.4v39.4004l149.52 85h57v-578.8h-57v514.18z" />
    <glyph glyph-name="two.smcp" horiz-adv-x="518" 
d="M44.7598 513l-0.000976562 37.3994c102 13 112.6 20.5996 224.6 20.5996c140 0 193 -74 193 -187c0 -159.22 -216.18 -281.739 -299.199 -326.999h294.2v-57h-406.6v53.04c106.74 73.8799 351.3 188.36 351.3 332.28c0 80.1396 -35.3799 131.34 -141.66 128.68
c-50 0 -215.64 -1 -215.64 -1z" />
    <glyph glyph-name="three.smcp" horiz-adv-x="519" 
d="M33.4004 516v38.4014c59.4805 20.2598 178.94 19.9199 269.94 18.5996c86 -1.32031 132.66 -66.9004 132.66 -143.32v-34.6797c0 -65.8398 -33.5996 -102.399 -62.2197 -111.34c30.2998 -14.9004 62.2197 -52.9004 62.2197 -116.66v-28.04
c0 -90.0996 -43 -143.96 -138 -143.96c-89 0 -204.2 -1.63965 -259.26 17.9404v39.0596h241.4c52.5596 0 96.8594 13.7803 96.8594 86.96v28.04c0 69.0996 -48.8398 86.5 -90.1602 87.5l-200.1 5v48l200.1 4c49.9199 1 92.1602 18.3799 92.1602 83.5v34.6797
c0 56.0996 -32.7002 86.3193 -93.5205 86.3193h-252.08z" />
    <glyph glyph-name="four.smcp" horiz-adv-x="538" 
d="M22.3799 180.1l222.219 389.9h66.9199l-203.72 -362.5h261.4v173.5l27.8203 75h29.1797v-248.5h90v-43.7002l-90 -15.9404v-145.86h-57v145.86h-318.6z" />
    <glyph glyph-name="five.smcp" horiz-adv-x="556" 
d="M85.1797 19.2598l0.000976562 40.3799h247.3c75.7998 0 101 36.4199 101 93.3398v53.9004c0 42.9004 -3.78027 87.3203 -97.6006 87.3203h-101.3c-48.8604 0 -95.4004 -29.5 -95.4004 -83.5h-53l17 359.3h361.3v-57h-305.3l-10.04 -204.62
c16 21.04 47.5195 42.1602 85.7598 42.1602h100.98c118 0 154.6 -56.6602 154.6 -141.66v-57.9004c0 -113 -73 -150.98 -158 -151.98c-99 -1 -182.66 2.36035 -247.3 20.2607z" />
    <glyph glyph-name="six.smcp" horiz-adv-x="560" 
d="M72.8203 300.34c0 220 86 275 154 276c79 1 171.6 -3.95996 248.6 -12.96v-44.04h-248.26c-84.3203 0 -97.3398 -142.4 -97.3398 -196.48c66 8 170.6 10.9805 228.6 10.9805c106 0 135 -48.8799 135 -115.88v-91.6201c0 -92 -62 -127 -135 -127h-125.6
c-85 0 -160 49 -160 301zM129.82 276.84c0 -75 5.51953 -220.501 103 -220.501h125.6c39.4199 0 78 11.4199 78 74v87.6201c0 47.4805 -26.4404 58.8809 -78 58.8809h-228.6z" />
    <glyph glyph-name="seven.smcp" horiz-adv-x="479" 
d="M33.4004 513v57h389.34l23.9404 -39.5l-199.28 -530.5h-63.6201l193.34 513h-343.72z" />
    <glyph glyph-name="eight.smcp" horiz-adv-x="591" 
d="M83.8398 131.7v58.1006c0 69.2197 43.8203 83.9795 74.4805 90.9199c-51.3604 15.9805 -74.4805 67.6006 -74.4805 115.74v37.9004c0 106 46 140.64 136 140.64h162.6c83 0 126 -45.6396 126 -140.64v-37.9004c0 -38.4199 -18.3203 -90.8604 -68.2002 -100.82
c43.7002 -6.98047 68.2002 -61.9805 68.2002 -106.86v-57.0801c0 -101 -66.9199 -131.7 -127 -131.7h-162.62c-132.64 0 -134.979 90.7002 -134.979 131.7zM140.84 129.701c0 -49.2197 21.1191 -72.0391 84.5791 -72.0391h149.42c44.2002 0 76.6006 21.8604 76.6006 72.04
v53.7803c0 61.6797 -39.9199 77.0195 -78 77.0195h-152.6c-38.3799 0 -80 -12.7002 -80 -75.3203v-55.4805zM140.839 394.162c0 -64.2402 45.8604 -75.6611 80 -75.6611h152.6c60.7402 0 79 36.7803 79 75.6602v38.2002c0 65.4805 -21.7598 84.9805 -76.5996 84.9805h-149.4
c-59.5195 0 -85.5996 -6.13965 -85.5996 -84.9795v-38.2002z" />
    <glyph glyph-name="nine.smcp" horiz-adv-x="560" 
d="M67.1396 355.34l0.000976562 91.6201c0 92 62 127 135 127h125.6c85 -0.660156 160 -49 160 -301c0 -220 -86 -275 -154 -276c-79 -1 -170.28 0.660156 -248.601 12.96v44.04h248.26c84.3203 0 97.3398 142.4 97.3398 196.48c-66 -8 -170.6 -10.9805 -228.6 -10.9805
c-106 0 -135 48.8799 -135 115.88zM124.141 355.34c0 -47.4805 26.4404 -58.8799 78 -58.8799h228.6c0 75 -5.51953 220.5 -103 220.5h-125.6c-39.4199 0 -78 -11.4199 -78 -74v-87.6201z" />
    <glyph glyph-name="question.smcp" horiz-adv-x="465" 
d="M22.3799 514.64v43.3789c76.6797 9.66016 130.46 16.6006 215.44 13.9609c126.92 0 182.5 -61.8604 182.5 -154.58v-47.04c0 -107.12 -96.0801 -149.24 -201.16 -134.26c0 -1.32031 -1.32031 -67.1406 0 -69.7803h-59v120.48c29.04 -0.660156 63.7002 -1.32031 92.7402 0
c49.5801 1.32031 110.42 18.9404 110.42 83.5605v47.04c0 68.7197 -40.9404 97.2393 -129.24 97.2393h-211.7zM149.88 19.2588v58.7002c0 12.6201 6.63965 20.5801 19.9199 20.5801h38.7197c14.5996 0 20.5801 -7.63965 20.5801 -20.5801v-58.7002
c0 -14.5996 -8.95996 -19.2598 -20.5801 -19.2598h-38.7197c-11.6201 0 -19.9199 7.63965 -19.9199 19.2598z" />
    <glyph glyph-name="at.smcp" horiz-adv-x="851" 
d="M72.8203 42l0.000976562 348c0 36 2 164 168 164h209.9c71 0 153 -30 153 -140v-372h-42.4004l-11.6201 64c-2 0 -102.98 -73 -193.98 -73c-74 -2 -129 49 -128 117v53c0 80 46 133 129 133c74.46 0 191.32 -1 191.32 0c0 0 1 75.6602 0 76
c0 64.8398 -37.4805 85 -100.32 85h-206.9c-60.9199 0 -111 -19.1797 -111 -107v-348c0 -99.5195 61.4805 -120 111 -120h338.8c89.1396 0 120 40.4404 120 120v512c0 82.7803 -44.3799 131 -120 131h-398.9v35.7803c48 10 162 22.2197 288 21.2197h110.9
c106 -2 177 -63 177 -188v-512c0 -98 -39 -178 -177 -178h-338.8c-102 0 -168 62 -168 178zM284.722 156c0 -34.2598 33.0996 -66.6602 78 -66c59 -1 135.32 33.0596 185.32 57.0596v149.86l-186.32 -13.96c-40 -3.32031 -77.6602 -25.54 -77 -81.96
c-0.339844 -1 -0.339844 -44 0 -45z" />
    <glyph glyph-name="a.smcp" horiz-adv-x="586" 
d="M39.0801 0l236.399 570h57l217.4 -570h-62.2998l-64.0801 162.2h-253.7l-68.4199 -162.2h-62.2998zM193.34 219.2h210.94l-100.96 270.98z" />
    <glyph glyph-name="b.smcp" horiz-adv-x="547" 
d="M89.5195 0v571h253.8c124 0 154 -84.2998 154 -151.3c0 -81.5195 -39 -111.119 -75.5996 -128.359c26.2197 -8.90039 78.5996 -48.9004 78.5996 -131.721c0 -85 -31 -159.62 -157 -159.62h-253.8zM146.52 58h196.8c42.4805 0 100 9.36035 100 101.62
c0 62.8203 -35 106.2 -100 106.2c0 0 -173.04 -1.32031 -196.8 0v-207.82zM146.52 322.82l196.8 -0.000976562c64 0 97 27.4004 97 96.8809c0 81.5195 -56.7803 94.2998 -97 94.2998h-196.8v-191.18z" />
    <glyph glyph-name="c.smcp" horiz-adv-x="524" 
d="M61.46 295c0 145 34 283 204 283c43 0 171.6 -11.2998 222.6 -23.2998v-43.7002c-15 3 -157.6 10 -222.6 10c-109.14 0 -147 -81 -147 -226c0 -138.5 27.5801 -240.68 147 -242c73 2 222.6 10 222.6 10v-42.3799c-58 -11 -145.6 -24.6201 -222.6 -24.6201
c-181 0 -204 161 -204 299z" />
    <glyph glyph-name="d.smcp" horiz-adv-x="606" 
d="M89.5195 0v572h240.2c176 -2 219 -166 219 -289c0 -282 -159 -283 -219 -283h-240.2zM146.52 57h183.2c129.58 0 162 103.08 162 226c0 167.32 -74.9404 232 -162 232h-183.2v-458z" />
    <glyph glyph-name="e.smcp" horiz-adv-x="520" 
d="M89.5195 83v398.001c0 59.3604 40 90 104 90l280.2 -10.9805v-45.0195h-278.2c-43.2598 0 -49 -16.8203 -49 -44.2207v-156.28l296.2 -7.32031v-45.0195l-296.2 -6.66016v-157.96c0 -39.2002 26.2197 -42.54 44.1602 -42.54h283.04v-44.0195l-300.2 -12.9805
c-50 0 -84 33 -84 85z" />
    <glyph glyph-name="f.smcp" horiz-adv-x="520" 
d="M89.5195 0v480.999c0 59.3604 40 90 104 90l280.2 -10.9805v-45.0195h-278.2c-43.2598 0 -47.6797 -18.7998 -49 -44.2197v-158.26l296.2 -7.32031v-45.0195l-296.2 -6.66016v-253.52h-57z" />
    <glyph glyph-name="g.smcp" horiz-adv-x="576" 
d="M61.46 286c0 184 41 293.002 213 293.002c43 0 169.74 -12.2998 230.8 -25v-45.6797c-62 6 -139.52 13.6797 -230.8 13.6797c-112.56 0 -156 -50.1797 -156 -234c0 -111 39 -238.66 156 -238.66c81 0 165.8 38.0596 187.8 55.0596v149.6h-184.8v37.0996
c51.2197 9.63965 93.7998 19.8994 174.8 19.8994c21 0 43 -1 67 -3v-308h-41.7197l-13.2998 47.4004c-53 -34 -129.78 -54.4004 -189.78 -54.4004c-207 -1 -213 243 -213 293z" />
    <glyph glyph-name="h.smcp" horiz-adv-x="601" 
d="M89.5195 -1v571h57v-266.5h334.8v266.5h57v-571h-57v247.5h-334.8v-247.5h-57z" />
    <glyph glyph-name="i.smcp" horiz-adv-x="209" 
d="M89.5195 0v570h57v-570h-57z" />
    <glyph glyph-name="j.smcp" horiz-adv-x="332" 
d="M39.0801 20.6602l4 40.4004c93.5996 -18.7002 168.22 -23.8203 169.859 105.3v403.64h57v-403.64c0 -46.3398 -6.01953 -116.04 -55.6396 -148.38c-54.2197 -35.2998 -127.239 -24.2803 -175.22 2.67969z" />
    <glyph glyph-name="k.smcp" horiz-adv-x="550" 
d="M89.5195 -1v571h57v-262.5h93.4004l203 262.5h70.9004l-223.52 -290l223.52 -281h-70.9004l-204.32 251.5h-92.0801v-251.5h-57z" />
    <glyph glyph-name="l.smcp" horiz-adv-x="504" 
d="M89.5195 86v484.001h57v-472.4c-0.660156 -34.1602 19.0996 -40.6006 48.1992 -40.6006h273.4v-57h-292.6c-53 0 -86 31 -86 86z" />
    <glyph glyph-name="m.smcp" horiz-adv-x="735" 
d="M61.46 0l60.7793 571h66.8604l183.3 -473.86l183.32 473.86h64.1797l58.4199 -571h-55.6797l-47.1201 464.12l-178.96 -464.12h-47l-180.96 468.18l-53.1201 -468.18h-54.0195z" />
    <glyph glyph-name="n.smcp" horiz-adv-x="608" 
d="M89.5195 0v571h54l346.2 -465.62v465.62h56v-571h-53l-346.2 468.6v-468.6h-57z" />
    <glyph glyph-name="o.smcp" horiz-adv-x="607" 
d="M61.46 280c0 244 77.9014 295 243.901 295c163.68 0 244.899 -32 244.899 -288c0 -245 -76.9004 -292 -244.9 -292c-161 0 -243.9 36 -243.9 285zM118.461 285c-0.339844 -206.16 53.959 -233 186.899 -233c119.16 0 189.601 23.4404 187.9 235
c-2.04004 216.7 -54.8203 231 -187.9 231c-115.06 0 -186.56 -12 -186.899 -233z" />
    <glyph glyph-name="p.smcp" horiz-adv-x="530" 
d="M67.1396 0v568.999h264.2c69.7002 0 152 -41.9199 152 -158.6c0 -175 -91.7002 -178.56 -154.38 -178.899l-204.16 11.6396v-243.14h-57.6602zM124.8 288.499l206.54 -0.000976562c50.6396 0 95 9.44043 95 115.94c1.98047 75.4805 -45.0596 107.561 -95 107.561h-206.54
v-223.5z" />
    <glyph glyph-name="q.smcp" horiz-adv-x="607" 
d="M61.46 280c0 244 77.9014 295 243.901 295c163.68 0 244.899 -32 244.899 -288c0 -245 -76.9004 -292 -244.9 -292c-161 0 -243.9 36 -243.9 285zM118.461 285c0 -206.16 53.959 -233 186.899 -233c119.16 0 187.9 23.4404 187.9 235c0 217.72 -57.54 231 -187.9 231
c-114.72 0 -186.899 -11.6602 -186.899 -233zM287.82 -33h39.0811c51.1201 -56.9199 112.38 -55.2803 170.72 -34.6201v-60.96c-72 -27 -192.44 -2.37988 -209.801 95.5801z" />
    <glyph glyph-name="r.smcp" horiz-adv-x="537" 
d="M67.1396 0v571h263.88c60 0 153 -27.6797 153 -161.68c0 -91.7598 -41.2803 -164.22 -119.86 -168.84l137.36 -240.48h-65.2998l-131.4 234.2c-30 2 -179.68 11.96 -180.68 13.96v-248.16h-57zM124.14 291.2h210.28c35 0 92.5996 17.0801 92.5996 117.12
c0 97.0996 -72.3398 105.68 -96 105.68h-206.88v-222.8z" />
    <glyph glyph-name="s.smcp" horiz-adv-x="543" 
d="M61.46 374l0.000976562 61.7197c0 82 35 137.28 138 137.28c52 0 192.4 -9.2998 259.4 -18.2998v-42.3799s-161.4 4.67969 -259.4 4.67969c-60.8398 0 -81 -33 -81 -81.2803v-61.7197c0 -67.8203 32.7803 -65.5 81 -65.5h156.4c87 0 130 -45.5 130 -120.5v-70
c0 -109 -75 -128 -130 -128c-49 0 -235.4 7.95996 -272.4 19.96v41.0596s176.4 -4.01953 272.4 -4.01953c54.9404 0 73 54 73 71v70c0 43.5 -19.4805 63.5 -73.001 63.5h-156.4c-94 0 -138 26.5 -138 122.5z" />
    <glyph glyph-name="t.smcp" horiz-adv-x="524" 
d="M39.0801 513v57h449.4v-57h-196.2v-513h-57v513h-196.2z" />
    <glyph glyph-name="u.smcp" horiz-adv-x="618" 
d="M89.1797 260l0.000976562 310h58v-310c-0.660156 -171.52 51.7764 -208 177.6 -208c110.971 0 172.6 38.8604 172.6 208v310h58v-310c0 -233 -110.245 -265 -230.601 -265c-133.585 0 -236.6 26 -235.6 265z" />
    <glyph glyph-name="v.smcp" horiz-adv-x="594" 
d="M39.0801 570h62.6406l199.62 -483.5l194.64 483.5h62.2998l-229.12 -570h-55.6396z" />
    <glyph glyph-name="w.smcp" horiz-adv-x="842" 
d="M39.0801 570l62.6406 -0.000976562l180.84 -485.48l173.88 485.48h61.6396l-65.2998 -185.84l118.16 -299.64l176.52 485.48h58.3398l-207.02 -570h-56.3203l-119.52 305.58l-109.24 -305.58h-58.96z" />
    <glyph glyph-name="x.smcp" horiz-adv-x="557" 
d="M39.0801 0l205.098 285.66l-203.1 284.34h73.5801l165.64 -232.64l166.98 232.64h74.2402l-205.42 -284.34l203.78 -285.66h-71.5996l-168.64 233.62l-168.96 -233.62h-71.5996z" />
    <glyph glyph-name="y.smcp" horiz-adv-x="564" 
d="M39.0801 570h63.3184l182.94 -319.68l179.62 319.68h63.3203l-215.1 -380v-191h-57v191z" />
    <glyph glyph-name="z.smcp" horiz-adv-x="498" 
d="M39.0801 0v57l348.06 456h-348.06v57h422.6v-57l-344.4 -456h344.4v-57h-422.6z" />
    <glyph glyph-name="grave.smcp" horiz-adv-x="228" 
d="M22.3799 664h71.54l111.76 -133h-50.2998z" />
    <glyph glyph-name="aogonek.smcp" horiz-adv-x="608" 
d="M511.92 0h29.8203c-92.5205 -60.1797 -83.8203 -136.34 12.8594 -136.64v-44.3604c-115 -16 -192.34 116.32 -42.6797 181zM44.8604 0l236.399 570h57l217.4 -570h-62.2998l-64.0801 162.2h-253.7l-68.4199 -162.2h-62.2998zM199.12 219.2h210.939l-100.96 270.979z" />
    <glyph glyph-name="rcommaaccent.smcp" horiz-adv-x="537" 
d="M239.644 -135.972v51.0479c0 13.4463 6.57031 20.0156 18.5225 20.0156h33.3535c13.4463 0 17.9287 -8.6582 17.9287 -20.0156v-87.7324c0 -68.6699 -66.2227 -55.2236 -66.2227 -55.2236v20.8438c22.4102 -0.59375 23.3105 14.6338 23.3105 23.0039v29.2324h-8.37012
c-10.458 0 -18.5225 6.28223 -18.5225 18.8281zM67.1396 0v571h263.88c60 0 153 -27.6797 153 -161.68c0 -91.7607 -41.2793 -164.221 -119.859 -168.84l137.359 -240.48h-65.2998l-131.399 234.2c-30 2 -179.681 11.96 -180.681 13.96v-248.16h-57zM124.14 291.2h210.28
c35 0 92.5996 17.0801 92.5996 117.12c0 97.0996 -72.3398 105.68 -96 105.68h-206.88v-222.8z" />
    <glyph glyph-name="itilde.smcp" horiz-adv-x="209" 
d="M-56.9004 667.6c37.96 31.9805 73.6006 61.96 113.92 61.96c46.2607 -1.97949 84.1006 -47.2598 113.461 -47.9199c29.0996 -0.65918 65.1191 24.1006 94.0596 41.7803l16.5596 -30.0996c-33 -27.7207 -69.9395 -63.9805 -111.939 -62.6602
c-51.2402 1.97949 -78.4805 47.9199 -113.46 47.2598c-41.96 -0.660156 -60.7197 -22.0195 -97.3799 -40.0996zM89.5195 0v570h57v-570h-57z" />
    <glyph glyph-name="lcommaaccent.smcp" horiz-adv-x="504" 
d="M253.964 -135.972v51.0479c0 13.4463 6.57031 20.0156 18.5225 20.0156h33.3535c13.4463 0 17.9277 -8.6582 17.9277 -20.0156v-87.7324c0 -68.6699 -66.2217 -55.2236 -66.2217 -55.2236v20.8438c22.4102 -0.59375 23.3105 14.6338 23.3105 23.0039v29.2324h-8.37012
c-10.458 0 -18.5225 6.28223 -18.5225 18.8281zM89.5195 86v484h57v-472.4c-0.65918 -34.1592 19.1006 -40.5996 48.2002 -40.5996h273.4v-57h-292.601c-53 0 -86 31 -86 86z" />
    <glyph glyph-name="dieresis.smcp" horiz-adv-x="445" 
d="M56.1201 581.34c0 21.8799 17.5596 39.4395 39.4395 39.4395s39.1201 -17.5596 39.1201 -39.4395s-17.2402 -39.7803 -39.1201 -39.7803s-39.4395 17.9004 -39.4395 39.7803zM310.78 581.34c0 21.8799 17.9004 39.4395 39.7803 39.4395
s38.7803 -17.5596 38.7803 -39.4395s-16.9004 -39.7803 -38.7803 -39.7803s-39.7803 17.9004 -39.7803 39.7803z" />
    <glyph glyph-name="scaron.smcp" horiz-adv-x="543" 
d="M132.14 763h52.96l91.2207 -85.96l88.04 85.96h52.9795l-113.52 -130h-54.3398zM61.46 374v61.7197c0 82 35 137.28 138 137.28c52 0 192.4 -9.2998 259.4 -18.2998v-42.3799s-161.4 4.67969 -259.4 4.67969c-60.8398 0 -81 -33 -81 -81.2803v-61.7197
c0 -67.8203 32.7803 -65.5 81 -65.5h156.4c87 0 130 -45.5 130 -120.5v-70c0 -109 -75 -128 -130 -128c-49 0 -235.4 7.95996 -272.4 19.96v41.0596s176.4 -4.01953 272.4 -4.01953c54.9395 0 73 54 73 71v70c0 43.5 -19.4805 63.5 -73 63.5h-156.4
c-94 0 -138 26.5 -138 122.5z" />
    <glyph glyph-name="emacron.smcp" horiz-adv-x="520" 
d="M154.56 632v46.6797h278.4v-46.6797h-278.4zM89.5195 83v398c0 59.3604 40 90 104 90l280.2 -10.9805v-45.0195h-278.2c-43.2598 0 -49 -16.8203 -49 -44.2197v-156.28l296.2 -7.32031v-45.0195l-296.2 -6.66016v-157.96c0 -39.2002 26.2207 -42.54 44.1602 -42.54
h283.04v-44.0195l-300.2 -12.9805c-50 0 -84 33 -84 85z" />
    </font>
</defs>
</svg>
