<?xml version="1.0" encoding="UTF-8" standalone="no"?>
<!DOCTYPE svg  PUBLIC '-//W3C//DTD SVG 1.1//EN'  'http://www.w3.org/Graphics/SVG/1.1/DTD/svg11.dtd'>
<svg xmlns="http://www.w3.org/2000/svg">
<defs>
<font id="OpenSans-BoldItalic" horiz-adv-x="1128">
<font-face slope="-12" underline-position="-103" font-weight="700" descent="-410" panose-1="2 11 8 6 3 5 4 2 2 4" units-per-em="2048" unicode-range="U+0020-25CA" bbox="-532 -492 2421 1907" x-height="1118" underline-thickness="102" font-family="OpenSans" ascent="1638" font-style="italic" cap-height="1462"/>
<missing-glyph horiz-adv-x="2048"/>
<glyph glyph-name=".notdef" horiz-adv-x="2048"/>
<glyph glyph-name=".null" horiz-adv-x="0"/>
<glyph glyph-name="nonmarkingreturn" horiz-adv-x="2048"/>
<glyph glyph-name="space" horiz-adv-x="532" unicode=" "/>
<glyph glyph-name="exclam" horiz-adv-x="586" unicode="!" d="M25 115q0 90 53.5 144t150.5 54q68 0 109 -38t41 -107q0 -87 -55 -141t-144 -54q-73 0 -114 37.5t-41 104.5zM391 485h-241l157 977h340z"/>
<glyph glyph-name="quotedbl" horiz-adv-x="928" unicode='&quot;' d="M954 1462l-151 -528h-199l74 528h276zM549 1462l-152 -528h-196l71 528h277z"/>
<glyph glyph-name="numbersign" horiz-adv-x="1323" unicode="#" d="M553 614h197l69 232h-196zM1036 846l-69 -232h258l-19 -206h-297l-116 -408h-220l117 408h-194l-115 -408h-215l113 408h-238l18 206h277l70 232h-252l18 209h289l119 407h217l-117 -407h199l116 407h215l-116 -407h239l-18 -209h-279z"/>
<glyph glyph-name="dollar" d="M633 1157q-62 -7 -96.5 -41t-34.5 -94q0 -79 80 -111zM594 322q63 9 102 45t39 98q0 46 -24.5 75.5t-59.5 43.5zM1034 496q0 -184 -125.5 -291.5t-367.5 -124.5l-39 -199h-140l44 201q-209 12 -355 86v266q198 -107 404 -117l71 322q-163 61 -241 151t-78 214 q0 173 127 279.5t350 121.5l35 151h139l-33 -151q166 -22 295 -90l-106 -232q-132 65 -242 74l-63 -299q131 -51 195 -99.5t97 -113t33 -149.5z" unicode="$"/>
<glyph glyph-name="percent" horiz-adv-x="1753" unicode="%" d="M1679 590q0 -167 -54 -313.5t-148 -220.5t-215 -74q-144 0 -216.5 78.5t-72.5 222.5q0 177 53 322.5t148 219.5t219 74q137 0 211.5 -78.5t74.5 -230.5zM1376 690q-39 0 -75 -56t-59 -154t-23 -195t55 -97q41 0 77 55t59.5 154.5t23.5 196.5q0 96 -58 96zM1554 1462 l-1083 -1462h-240l1088 1462h235zM821 1165q0 -166 -56 -310t-151 -217t-217 -73q-139 0 -210.5 83.5t-71.5 236.5q0 169 55.5 311.5t148.5 214.5t216 72q137 0 211.5 -80t74.5 -238zM518 1274q-63 0 -110.5 -128.5t-47.5 -277.5q0 -96 56 -96q65 0 112 131t47 275 q0 96 -57 96z"/>
<glyph glyph-name="ampersand" horiz-adv-x="1450" unicode="&amp;" d="M662 920q113 59 155.5 111t42.5 112q0 57 -30 82.5t-70 25.5q-66 0 -102.5 -46.5t-36.5 -119.5q0 -46 12 -92t29 -73zM541 623q-88 -51 -123 -104.5t-35 -131.5q0 -65 45.5 -108t116.5 -43q115 0 221 59zM1325 0h-350l-72 98q-175 -118 -403 -118q-209 0 -320.5 97.5 t-111.5 280.5q0 145 78.5 248.5t273.5 200.5q-76 130 -76 258q0 195 117.5 307.5t316.5 112.5q169 0 266 -82.5t97 -224.5q0 -280 -365 -426l195 -263q44 57 80.5 121.5t78.5 173.5h300q-133 -313 -310 -497z"/>
<glyph glyph-name="quotesingle" horiz-adv-x="522" unicode="&apos;" d="M549 1462l-152 -528h-196l71 528h277z"/>
<glyph glyph-name="parenleft" horiz-adv-x="694" unicode="(" d="M74 281q0 339 122.5 626.5t381.5 554.5h262q-255 -278 -377.5 -573.5t-122.5 -618.5q0 -308 117 -594h-234q-149 266 -149 605z"/>
<glyph glyph-name="parenright" horiz-adv-x="694" unicode=")" d="M618 858q0 -342 -124 -630.5t-379 -551.5h-262q499 545 499 1192q0 307 -116 594h233q149 -264 149 -604z"/>
<glyph glyph-name="asterisk" horiz-adv-x="1116" unicode="*" d="M885 1522l-113 -353l387 29l-18 -254l-338 43l160 -336l-246 -73l-90 337l-197 -278l-207 164l275 248l-326 92l86 237l338 -174l33 369z"/>
<glyph glyph-name="plus" d="M475 612h-366v219h366v369h219v-369h367v-219h-367v-364h-219v364z" unicode="+"/>
<glyph glyph-name="comma" horiz-adv-x="569" unicode="," d="M377 238l8 -23q-118 -255 -262 -479h-225q74 167 194 502h285z"/>
<glyph glyph-name="hyphen" horiz-adv-x="659" unicode="-" d="M41 424l53 250h524l-53 -250h-524z"/>
<glyph glyph-name="period" horiz-adv-x="584" unicode="." d="M25 115q0 90 53.5 144t150.5 54q68 0 109 -38t41 -107q0 -87 -55 -141t-144 -54q-73 0 -114 37.5t-41 104.5z"/>
<glyph glyph-name="slash" horiz-adv-x="862" unicode="/" d="M1014 1462l-809 -1462h-295l809 1462h295z"/>
<glyph glyph-name="zero" d="M684 1235q-80 0 -149.5 -104t-117.5 -302t-48 -368q0 -115 27.5 -173.5t97.5 -58.5q81 0 150.5 106t116 301t46.5 386q0 111 -30.5 162t-92.5 51zM1110 1012q0 -470 -168.5 -751t-472.5 -281q-198 0 -300.5 122t-102.5 365q0 297 84 537t228 360.5t333 120.5 q399 0 399 -473z" unicode="0"/>
<glyph glyph-name="one" d="M688 0h-305l180 829q35 152 76 287q-9 -8 -61.5 -47t-262.5 -170l-133 215l566 348h249z" unicode="1"/>
<glyph glyph-name="two" d="M913 0h-962l43 213l477 424q180 159 248.5 254.5t68.5 179.5q0 75 -41 114.5t-110 39.5q-66 0 -135.5 -33.5t-171.5 -118.5l-146 203q132 112 252 159.5t250 47.5q190 0 301 -98t111 -259q0 -107 -41 -201t-122.5 -188t-266.5 -245l-269 -222v-10h568z" unicode="2"/>
<glyph glyph-name="three" d="M1104 1149q0 -156 -94.5 -262t-261.5 -135v-4q131 -26 198.5 -106.5t67.5 -201.5q0 -133 -74 -238t-212 -163.5t-327 -58.5q-239 0 -387 79v267q84 -50 182 -75.5t191 -25.5q158 0 243 63.5t85 176.5q0 172 -258 172h-138l46 221h73q167 0 263 62t96 172q0 67 -43 104 t-121 37q-134 0 -287 -100l-127 204q124 81 232.5 113.5t246.5 32.5q190 0 298 -90.5t108 -243.5z" unicode="3"/>
<glyph glyph-name="four" d="M616 543l58 248q12 58 40 164t42 141h-6q-35 -63 -132 -181l-313 -372h311zM1028 303h-170l-63 -303h-293l63 303h-590l48 234l770 925h311l-195 -919h170z" unicode="4"/>
<glyph glyph-name="five" d="M623 922q183 0 289 -103t106 -287q0 -167 -71.5 -292t-208.5 -192.5t-330 -67.5q-117 0 -218.5 23t-162.5 58v269q174 -99 352 -99q154 0 241 71t87 194q0 94 -57.5 141t-166.5 47q-102 0 -213 -33l-104 78l207 733h755l-55 -262h-489l-88 -293q72 15 127 15z" unicode="5"/>
<glyph glyph-name="six" d="M530 227q99 0 161.5 94t62.5 236q0 71 -33.5 113.5t-102.5 42.5q-60 0 -114.5 -35.5t-87.5 -95.5t-33 -160q0 -91 40 -143t107 -52zM88 469q0 202 61 395.5t167.5 335t256.5 213.5t357 72q125 0 223 -27l-51 -246q-84 25 -191 25q-194 0 -313.5 -108t-185.5 -345h4 q115 166 311 166q157 0 242.5 -97t85.5 -273q0 -169 -71 -313.5t-190.5 -215.5t-277.5 -71q-212 0 -320 127t-108 362z" unicode="6"/>
<glyph glyph-name="seven" d="M78 0l737 1202h-629l56 260h975l-41 -194l-752 -1268h-346z" unicode="7"/>
<glyph glyph-name="eight" d="M694 1260q-76 0 -121 -46.5t-45 -119.5q0 -132 123 -201q185 72 185 221q0 68 -39.5 107t-102.5 39zM582 643q-116 -45 -173 -107t-57 -153q0 -81 50 -128.5t135 -47.5q93 0 147.5 53.5t54.5 138.5q0 73 -36.5 131.5t-120.5 112.5zM721 1485q123 0 215.5 -42t141 -118 t48.5 -174q0 -134 -80.5 -233.5t-230.5 -151.5q217 -141 217 -365q0 -122 -63.5 -218.5t-181 -149.5t-273.5 -53q-214 0 -336.5 100t-122.5 270q0 298 348 426q-165 132 -165 299q0 119 58 212.5t168 145.5t257 52z" unicode="8"/>
<glyph glyph-name="nine" d="M645 1237q-65 0 -115.5 -42t-78 -114t-27.5 -153q0 -87 37.5 -131.5t105.5 -44.5q60 0 111.5 36.5t82 100t30.5 158.5q0 84 -35.5 137t-110.5 53zM1092 1001q0 -280 -99 -533t-264 -370.5t-403 -117.5q-128 0 -240 32v256q111 -41 227 -41q121 0 207.5 49t144 138.5 t99.5 257.5h-4q-111 -158 -295 -158q-163 0 -252.5 103.5t-89.5 285.5q0 166 73 305.5t196 208t286 68.5q203 0 308.5 -123t105.5 -361z" unicode="9"/>
<glyph glyph-name="colon" horiz-adv-x="584" unicode=":" d="M25 115q0 90 53.5 144t150.5 54q68 0 109 -38t41 -107q0 -87 -55 -141t-144 -54q-73 0 -114 37.5t-41 104.5zM207 940q0 92 55.5 145.5t149.5 53.5q68 0 108.5 -38.5t40.5 -107.5q0 -86 -54.5 -140t-144.5 -54q-72 0 -113.5 36.5t-41.5 104.5z"/>
<glyph glyph-name="semicolon" horiz-adv-x="584" unicode=";" d="M207 940q0 92 55.5 145.5t149.5 53.5q68 0 108.5 -38.5t40.5 -107.5q0 -86 -54.5 -140t-144.5 -54q-72 0 -113.5 36.5t-41.5 104.5zM385 215q-118 -255 -262 -479h-225q74 167 194 502h285z"/>
<glyph glyph-name="less" d="M1061 203l-952 438v143l952 496v-240l-643 -317l643 -281v-239z" unicode="&lt;"/>
<glyph glyph-name="equal" d="M109 418v219h952v-219h-952zM109 807v217h952v-217h-952z" unicode="="/>
<glyph glyph-name="greater" d="M109 442l643 281l-643 317v240l952 -496v-143l-952 -438v239z" unicode="&gt;"/>
<glyph glyph-name="question" horiz-adv-x="940" unicode="?" d="M166 115q0 91 55 144.5t150 53.5q68 0 108.5 -38t40.5 -107q0 -87 -55 -141t-143 -54q-74 0 -115 38t-41 104zM260 485l14 78q19 103 73.5 177t172.5 155q124 84 157.5 127t33.5 96q0 119 -133 119q-50 0 -106.5 -16t-201.5 -84l-92 221q230 125 445 125q177 0 280 -87.5 t103 -244.5q0 -83 -28.5 -149.5t-82.5 -123t-190 -147.5q-64 -43 -96.5 -73t-52.5 -64.5t-38 -108.5h-258z"/>
<glyph glyph-name="at" horiz-adv-x="1753" unicode="@" d="M995 889q-82 0 -145.5 -51.5t-100 -137t-36.5 -174.5q0 -65 24.5 -102t69.5 -37q141 0 213 270l57 222q-36 10 -82 10zM1733 840q0 -173 -64 -321t-177.5 -231t-254.5 -83q-88 0 -144.5 38.5t-72.5 108.5h-6q-50 -77 -113 -112t-147 -35q-127 0 -198 79.5t-71 229.5 q0 147 67.5 276.5t187.5 205t268 75.5q185 0 327 -55l-106 -420q-11 -44 -19 -76.5t-8 -64.5q0 -68 58 -68q66 0 124 64t92.5 171t34.5 214q0 213 -123.5 325.5t-359.5 112.5q-203 0 -366.5 -94t-255 -266t-91.5 -392q0 -243 134 -380.5t376 -137.5q117 0 219.5 20t221.5 66 v-186q-230 -90 -465 -90q-217 0 -378 85.5t-246 241.5t-85 359q0 279 120.5 497t343 341.5t497.5 123.5q318 0 499 -163.5t181 -458.5z"/>
<glyph glyph-name="A" horiz-adv-x="1286" unicode="A" d="M827 608l-26 350q-10 131 -10 253v36q-44 -120 -109 -254l-188 -385h333zM842 348h-473l-172 -348h-320l766 1468h373l147 -1468h-297z"/>
<glyph glyph-name="B" horiz-adv-x="1270" unicode="B" d="M412 256h180q117 0 183.5 58t66.5 161q0 162 -183 162h-165zM545 883h149q121 0 181.5 48.5t60.5 139.5q0 137 -170 137h-152zM788 1462q229 0 346 -81.5t117 -243.5q0 -150 -83 -247.5t-236 -129.5v-6q100 -26 159.5 -96.5t59.5 -180.5q0 -229 -153 -353t-423 -124h-522 l309 1462h426z"/>
<glyph glyph-name="C" horiz-adv-x="1253" unicode="C" d="M905 1227q-132 0 -237.5 -81t-169.5 -238.5t-64 -338.5q0 -167 68.5 -248t218.5 -81q146 0 338 77v-260q-199 -77 -400 -77q-254 0 -395 149.5t-141 423.5q0 262 104 482.5t278 335t400 114.5q125 0 222 -22.5t208 -82.5l-118 -250q-106 59 -175 78t-137 19z"/>
<glyph glyph-name="D" horiz-adv-x="1386" unicode="D" d="M518 256q148 0 258 76t172 223.5t62 337.5q0 154 -72.5 234.5t-208.5 80.5h-115l-202 -952h106zM1323 909q0 -280 -98 -486.5t-283.5 -314.5t-437.5 -108h-451l309 1462h396q270 0 417.5 -143t147.5 -410z"/>
<glyph glyph-name="E" horiz-adv-x="1110" unicode="E" d="M870 0h-817l309 1462h818l-54 -254h-512l-67 -321h477l-55 -254h-477l-80 -377h512z"/>
<glyph glyph-name="F" horiz-adv-x="1087" unicode="F" d="M358 0h-305l309 1462h814l-54 -254h-508l-79 -377h473l-56 -253h-473z"/>
<glyph glyph-name="G" horiz-adv-x="1413" unicode="G" d="M754 821h563l-162 -762q-134 -46 -248.5 -62.5t-242.5 -16.5q-259 0 -400 147t-141 422q0 268 107 484.5t301 334t448 117.5q218 0 410 -99l-115 -251q-74 40 -148 64t-161 24q-153 0 -273.5 -83t-189 -236.5t-68.5 -330.5q0 -172 72.5 -252.5t222.5 -80.5q76 0 170 24 l66 299h-267z"/>
<glyph glyph-name="H" horiz-adv-x="1434" unicode="H" d="M1135 0h-306l134 631h-471l-134 -631h-305l309 1462h306l-121 -573h471l121 573h305z"/>
<glyph glyph-name="I" horiz-adv-x="659" unicode="I" d="M53 0l312 1462h305l-312 -1462h-305z"/>
<glyph glyph-name="J" horiz-adv-x="678" unicode="J" d="M-135 -430q-94 0 -187 27v253q88 -20 164 -20q99 0 160.5 60.5t89.5 191.5l293 1380h305l-303 -1423q-52 -245 -175.5 -357t-346.5 -112z"/>
<glyph glyph-name="K" horiz-adv-x="1255" unicode="K" d="M1141 0h-338l-211 592l-125 -70l-109 -522h-305l309 1462h306l-152 -702l158 205l409 497h361l-594 -700z"/>
<glyph glyph-name="L" horiz-adv-x="1061" unicode="L" d="M53 0l309 1462h306l-256 -1206h512l-54 -256h-817z"/>
<glyph glyph-name="M" horiz-adv-x="1802" unicode="M" d="M838 369l551 1093h423l-309 -1462h-280l145 692q53 247 105 441h-5l-569 -1133h-281l-61 1133h-4q-11 -88 -38 -231t-187 -902h-275l309 1462h404l68 -1093h4z"/>
<glyph glyph-name="N" horiz-adv-x="1546" unicode="N" d="M1247 0h-342l-356 1106h-6l-4 -32q-32 -216 -66 -386l-145 -688h-275l309 1462h357l340 -1077h4q12 76 39 217t180 860h274z"/>
<glyph glyph-name="O" horiz-adv-x="1495" unicode="O" d="M872 1227q-121 0 -222 -91.5t-158.5 -251.5t-57.5 -347q0 -147 66.5 -222t187.5 -75t220.5 87t155.5 246t56 357q0 142 -65 219.5t-183 77.5zM1432 938q0 -283 -99 -506.5t-271 -337.5t-396 -114q-256 0 -399.5 147.5t-143.5 409.5q0 265 99 487.5t273 341.5t402 119 q255 0 395 -144t140 -403z"/>
<glyph glyph-name="P" horiz-adv-x="1188" unicode="P" d="M1190 1036q0 -241 -169.5 -378.5t-467.5 -137.5h-86l-109 -520h-305l309 1462h338q242 0 366 -106.5t124 -319.5zM522 774h56q142 0 223.5 69t81.5 185q0 180 -195 180h-74z"/>
<glyph glyph-name="Q" horiz-adv-x="1495" unicode="Q" d="M872 1227q-121 0 -222 -91.5t-158.5 -251.5t-57.5 -347q0 -147 66.5 -222t187.5 -75t220.5 87t155.5 246t56 357q0 142 -65 219.5t-183 77.5zM1432 938q0 -316 -122.5 -555.5t-334.5 -337.5l254 -393h-359l-178 328h-26q-256 0 -399.5 147.5t-143.5 409.5q0 265 99 487.5 t273 341.5t402 119q255 0 395 -144t140 -403z"/>
<glyph glyph-name="R" horiz-adv-x="1247" unicode="R" d="M477 561l-119 -561h-305l309 1462h359q237 0 356 -102t119 -299q0 -158 -83 -271.5t-239 -168.5l261 -621h-332l-207 561h-119zM530 813h78q131 0 204 57t73 174q0 82 -47.5 123t-149.5 41h-74z"/>
<glyph glyph-name="S" horiz-adv-x="1085" unicode="S" d="M946 432q0 -209 -148 -330.5t-401 -121.5q-221 0 -356 90v274q193 -108 358 -108q112 0 175 42.5t63 116.5q0 43 -13.5 75.5t-38.5 60.5t-124 102q-138 99 -194 196t-56 209q0 129 62 230.5t176.5 158t263.5 56.5q217 0 397 -99l-109 -233q-156 74 -288 74 q-83 0 -136 -45t-53 -119q0 -61 33 -106.5t148 -120.5q121 -80 181 -176.5t60 -225.5z"/>
<glyph glyph-name="T" horiz-adv-x="1087" unicode="T" d="M571 0h-305l254 1204h-352l55 258h1010l-55 -258h-353z"/>
<glyph glyph-name="U" horiz-adv-x="1415" unicode="U" d="M1434 1462l-201 -946q-57 -266 -218 -401t-419 -135q-212 0 -333.5 113.5t-121.5 307.5q0 72 15 138l196 923h305l-194 -919q-17 -74 -17 -125q0 -178 189 -178q123 0 195 76.5t104 228.5l194 917h306z"/>
<glyph glyph-name="V" horiz-adv-x="1208" unicode="V" d="M535 299q78 221 110 283l432 880h316l-748 -1462h-334l-127 1462h295l51 -880q4 -45 4 -133q-2 -103 -6 -150h7z"/>
<glyph glyph-name="W" horiz-adv-x="1831" unicode="W" d="M1006 1018q-46 -146 -115 -299l-324 -719h-338l-45 1462h287l6 -798q0 -52 -4 -173t-10 -174h6q22 64 67 180.5t60 145.5l369 819h270l21 -873q0 -146 -9 -272h6q43 129 131 349l330 796h309l-647 -1462h-346l-22 721l-2 139q0 88 4 158h-4z"/>
<glyph glyph-name="X" horiz-adv-x="1241" unicode="X" d="M1124 0h-331l-172 543l-396 -543h-342l576 764l-238 698h320l153 -518l363 518h344l-545 -725z"/>
<glyph glyph-name="Y" horiz-adv-x="1155" unicode="Y" d="M627 870l374 592h342l-618 -903l-119 -559h-303l119 559l-236 903h312z"/>
<glyph glyph-name="Z" horiz-adv-x="1098" unicode="Z" d="M920 0h-981l38 201l777 1005h-543l53 256h936l-41 -202l-782 -1004h596z"/>
<glyph glyph-name="bracketleft" horiz-adv-x="678" unicode="[" d="M436 -324h-473l381 1786h473l-45 -211h-215l-291 -1364h215z"/>
<glyph glyph-name="backslash" horiz-adv-x="862" unicode="\" d="M481 1462l224 -1462h-267l-217 1462h260z"/>
<glyph glyph-name="bracketright" horiz-adv-x="678" unicode="]" d="M-92 -113h213l291 1364h-215l45 211h473l-381 -1786h-471z"/>
<glyph glyph-name="asciicircum" horiz-adv-x="1081" unicode="^" d="M20 520l619 950h147l277 -950h-223l-174 633l-402 -633h-244z"/>
<glyph glyph-name="underscore" horiz-adv-x="819" unicode="_" d="M635 -324h-821l30 140h822z"/>
<glyph glyph-name="grave" horiz-adv-x="1135" unicode="`" d="M934 1241h-184q-71 69 -138.5 153.5t-103.5 153.5v21h311q36 -148 115 -303v-25z"/>
<glyph glyph-name="a" horiz-adv-x="1217" unicode="a" d="M524 223q69 0 133 67t103 181.5t39 259.5q0 71 -38.5 117.5t-101.5 46.5q-68 0 -129.5 -72t-98 -190t-36.5 -234q0 -88 33.5 -132t95.5 -44zM406 -20q-147 0 -231.5 106.5t-84.5 298.5q0 198 72 377.5t189 278t257 98.5q97 0 167.5 -42t109.5 -122h8l57 143h232 l-238 -1118h-229l14 145h-4q-134 -165 -319 -165z"/>
<glyph glyph-name="b" horiz-adv-x="1219" unicode="b" d="M692 895q-68 0 -130 -65t-102 -180.5t-40 -250.5q0 -80 37 -128t102 -48q67 0 128 69t98.5 189.5t37.5 237.5q0 176 -131 176zM813 1139q146 0 230.5 -108t84.5 -298t-68 -367.5t-187 -281.5t-263 -104q-194 0 -276 163h-8l-58 -143h-231l330 1556h301l-62 -288 q-41 -182 -84 -299h8q78 98 142.5 134t140.5 36z"/>
<glyph glyph-name="c" horiz-adv-x="989" unicode="c" d="M506 -20q-201 0 -308.5 107.5t-107.5 303.5q0 212 74.5 385.5t209.5 268t308 94.5q182 0 328 -72l-92 -229q-54 23 -106 40t-118 17q-85 0 -153.5 -64t-107 -175.5t-38.5 -239.5q0 -96 45.5 -144.5t126.5 -48.5q76 0 141 23.5t134 58.5v-246q-152 -79 -336 -79z"/>
<glyph glyph-name="d" horiz-adv-x="1217" unicode="d" d="M532 223q66 0 128.5 68.5t100.5 182.5t38 245q0 80 -37.5 128t-102.5 48q-68 0 -129.5 -72t-98 -190t-36.5 -234q0 -176 137 -176zM406 -20q-147 0 -231.5 107t-84.5 300q0 196 71.5 374.5t188.5 278t258 99.5q82 0 141.5 -37t112.5 -127h8l2 28q6 110 25 195l76 358h301 l-330 -1556h-229l14 145h-4q-71 -87 -148.5 -126t-170.5 -39z"/>
<glyph glyph-name="e" horiz-adv-x="1141" unicode="e" d="M532 -20q-210 0 -326 113t-116 319q0 207 82.5 377.5t223.5 260t319 89.5q177 0 276 -81.5t99 -223.5q0 -187 -167 -288.5t-477 -101.5h-51l-2 -21v-20q0 -91 51.5 -143.5t147.5 -52.5q87 0 158 19t172 67v-227q-172 -86 -390 -86zM696 922q-88 0 -166 -80t-102 -195h45 q155 0 241.5 48.5t86.5 131.5q0 95 -105 95z"/>
<glyph glyph-name="f" horiz-adv-x="764" unicode="f" d="M-45 -492q-104 0 -174 25v242q61 -21 115 -21q61 0 107 40t65 130l204 965h-163l30 145l183 84l18 84q41 190 138.5 277.5t273.5 87.5q131 0 235 -49l-80 -224q-69 31 -133 31q-57 0 -92 -40t-47 -105l-12 -62h219l-49 -229h-220l-215 -1010q-77 -371 -403 -371z"/>
<glyph glyph-name="g" horiz-adv-x="1108" unicode="g" d="M614 948q-77 0 -124.5 -76.5t-47.5 -191.5q0 -119 103 -119q75 0 121.5 76.5t46.5 193.5t-99 117zM365 -6q-106 -14 -160.5 -57t-54.5 -109q0 -115 194 -115q151 0 228 45t77 127q0 39 -32.5 60t-137.5 35zM1186 1116l-35 -166l-174 -41q16 -52 16 -118 q0 -195 -121 -308.5t-329 -113.5q-59 0 -99 10q-84 -27 -84 -78q0 -34 30 -49t89 -23l137 -18q163 -21 237.5 -84.5t74.5 -183.5q0 -211 -156 -323t-446 -112q-208 0 -324.5 75.5t-116.5 207.5q0 102 68.5 175.5t214.5 121.5q-74 47 -74 133q0 71 44.5 122.5t146.5 98.5 q-65 49 -96 112t-31 153q0 199 125.5 315.5t341.5 116.5q83 0 166 -23h395z"/>
<glyph glyph-name="h" horiz-adv-x="1237" unicode="h" d="M977 0h-301l137 653q16 68 16 119q0 123 -108 123q-92 0 -167 -114t-118 -318l-98 -463h-301l330 1556h301q-39 -181 -60 -278t-86 -309h8q62 77 138 123.5t176 46.5q138 0 213.5 -83.5t75.5 -238.5q0 -73 -23 -180z"/>
<glyph glyph-name="i" horiz-adv-x="608" unicode="i" d="M338 0h-301l237 1118h301zM322 1380q0 87 47.5 131.5t134.5 44.5q73 0 111 -31t38 -89q0 -80 -44 -129.5t-136 -49.5q-151 0 -151 123z"/>
<glyph glyph-name="j" horiz-adv-x="608" unicode="j" d="M324 1380q0 87 47.5 131.5t134.5 44.5q73 0 111 -31t38 -89q0 -80 -44 -129.5t-136 -49.5q-151 0 -151 123zM-90 -492q-104 0 -174 25v242q61 -21 114 -21q137 0 173 170l253 1194h302l-265 -1239q-77 -371 -403 -371z"/>
<glyph glyph-name="k" horiz-adv-x="1163" unicode="k" d="M920 1118h344l-498 -504l285 -614h-336l-183 420l-120 -72l-74 -348h-301l330 1556h301l-148 -694q-8 -41 -29 -117l-28 -102h4z"/>
<glyph glyph-name="l" horiz-adv-x="608" unicode="l" d="M338 0h-301l330 1556h301z"/>
<glyph glyph-name="m" horiz-adv-x="1853" unicode="m" d="M844 1139q219 0 262 -228h6q68 110 160.5 169t197.5 59q136 0 207.5 -85t71.5 -237q0 -76 -23 -180l-133 -637h-301l138 653q16 68 16 119q0 123 -98 123q-92 0 -166.5 -112t-118.5 -318l-96 -465h-301l137 653q16 68 16 119q0 123 -98 123q-92 0 -167 -114t-118 -318 l-98 -463h-301l237 1118h230l-21 -207h6q146 228 355 228z"/>
<glyph glyph-name="n" horiz-adv-x="1237" unicode="n" d="M977 0h-301l137 653q16 68 16 119q0 123 -108 123q-92 0 -167 -114t-118 -318l-98 -463h-301l237 1118h230l-21 -207h6q146 228 355 228q138 0 213.5 -83.5t75.5 -238.5q0 -73 -23 -180z"/>
<glyph glyph-name="o" horiz-adv-x="1198" unicode="o" d="M1108 696q0 -211 -70.5 -374t-203.5 -252.5t-316 -89.5q-195 0 -311.5 117.5t-116.5 312.5q0 213 71.5 379.5t206.5 258t316 91.5q196 0 310 -118t114 -325zM805 696q0 197 -143 197q-75 0 -134.5 -61t-97 -179t-37.5 -243q0 -185 150 -185q75 0 135 61.5t93.5 171 t33.5 238.5z"/>
<glyph glyph-name="p" horiz-adv-x="1219" unicode="p" d="M692 895q-68 0 -131.5 -67.5t-102 -180t-38.5 -248.5q0 -80 37 -128t102 -48q67 0 128 69t98.5 189.5t37.5 237.5q0 176 -131 176zM813 1139q146 0 230.5 -107.5t84.5 -300.5q0 -191 -68.5 -367.5t-187.5 -280t-262 -103.5q-83 0 -143 37t-111 126h-8q-12 -159 -43 -295 l-72 -340h-301l342 1610h230l-17 -170h9q138 191 317 191z"/>
<glyph glyph-name="q" horiz-adv-x="1217" unicode="q" d="M535 223q64 0 127.5 70t100 181t36.5 245q0 80 -37.5 128t-102.5 48q-68 0 -129.5 -72t-98 -190t-36.5 -234q0 -88 36.5 -132t103.5 -44zM391 -20q-88 0 -156 47.5t-106.5 138.5t-38.5 219q0 198 72 377.5t189 278t257 98.5q86 0 152.5 -37.5t124.5 -126.5h8l57 143h232 l-342 -1610h-301q47 218 73 337.5t84 304.5h-8q-72 -94 -143 -132t-154 -38z"/>
<glyph glyph-name="r" horiz-adv-x="862" unicode="r" d="M842 1139q59 0 96 -11l-66 -290q-45 16 -100 16q-116 0 -203.5 -91.5t-124.5 -262.5l-106 -500h-301l237 1118h230l-21 -207h6q147 228 353 228z"/>
<glyph glyph-name="s" horiz-adv-x="969" unicode="s" d="M829 369q0 -188 -124.5 -288.5t-346.5 -100.5q-107 0 -186.5 15t-148.5 50v248q157 -90 319 -90q80 0 131 32.5t51 88.5q0 43 -37 77t-131 86q-121 68 -169 135.5t-48 159.5q0 170 110.5 263.5t315.5 93.5q201 0 363 -95l-99 -215q-140 84 -258 84q-57 0 -92 -25.5 t-35 -68.5q0 -39 32 -68.5t120 -74.5q123 -63 178 -137t55 -170z"/>
<glyph glyph-name="t" horiz-adv-x="840" unicode="t" d="M514 223q65 0 162 35v-225q-111 -53 -266 -53q-150 0 -220.5 63t-70.5 195q0 50 12 112l115 539h-152l29 147l196 84l132 236h194l-49 -238h283l-50 -229h-282l-115 -539q-6 -30 -6 -53q0 -74 88 -74z"/>
<glyph glyph-name="u" horiz-adv-x="1237" unicode="u" d="M262 1118h301l-137 -653q-16 -68 -16 -119q0 -123 108 -123q92 0 167 114t118 318l98 463h301l-237 -1118h-230l21 207h-6q-145 -227 -355 -227q-138 0 -211 82.5t-73 238.5q0 93 24 213z"/>
<glyph glyph-name="v" horiz-adv-x="1049" unicode="v" d="M455 301q55 153 92 223l297 594h323l-604 -1118h-323l-138 1118h295l45 -586q7 -133 7 -231h6z"/>
<glyph glyph-name="w" horiz-adv-x="1614" unicode="w" d="M856 860q-62 -178 -123 -319l-233 -541h-324l-51 1118h281l4 -495l-4 -167l-7 -171h4q6 20 14 41.5t51 136.5t46 119l231 536h328v-536q0 -142 -10 -297h6l28 80q73 208 95 258l219 495h307l-530 -1118h-330l-6 520q0 155 10 340h-6z"/>
<glyph glyph-name="x" horiz-adv-x="1087" unicode="x" d="M379 573l-225 545h321l115 -334l244 334h354l-467 -561l244 -557h-326l-125 342l-264 -342h-350z"/>
<glyph glyph-name="y" horiz-adv-x="1063" unicode="y" d="M102 1118h295l56 -518q14 -122 14 -293h6q20 51 44 119.5t65 153.5l260 538h327l-680 -1278q-177 -332 -483 -332q-90 0 -147 19v240q68 -13 116 -13q84 0 147.5 48t117.5 149l26 49z"/>
<glyph glyph-name="z" horiz-adv-x="932" unicode="z" d="M748 0h-795l35 180l575 705h-397l51 233h750l-43 -200l-566 -685h439z"/>
<glyph glyph-name="braceleft" horiz-adv-x="727" unicode="{" d="M201 319q0 140 -209 140l45 229q122 0 192.5 41.5t92.5 138.5l61 285q38 170 131 239.5t270 69.5h84l-49 -225q-90 -2 -130.5 -34.5t-55.5 -106.5l-66 -297q-45 -207 -276 -236v-8q85 -26 126.5 -82.5t41.5 -134.5q0 -44 -15 -113l-36 -178q-7 -28 -7 -51q0 -54 33.5 -74 t91.5 -20v-226h-53q-167 0 -253.5 63.5t-86.5 184.5q0 57 14 125l39 184q15 69 15 86z"/>
<glyph glyph-name="bar" d="M455 1550h219v-2015h-219v2015z" unicode="|"/>
<glyph glyph-name="braceright" horiz-adv-x="727" unicode="}" d="M256 1462q340 0 340 -248q0 -56 -14 -124l-39 -185q-15 -69 -15 -86q0 -139 209 -139l-45 -229q-122 0 -192.5 -42t-91.5 -139l-62 -284q-37 -170 -130.5 -240t-270.5 -70h-45v226q93 3 137 35.5t59 105.5l66 297q25 111 95 166t181 69v9q-168 51 -168 217q0 43 15 112 l37 179q6 30 6 51q0 54 -36.5 74t-109.5 20l41 225h33z"/>
<glyph glyph-name="asciitilde" d="M342 672q-54 0 -116.5 -33t-116.5 -88v231q101 109 256 109q64 0 117 -14t139 -50q64 -27 111 -41t95 -14q51 0 112 30.5t122 90.5v-231q-103 -109 -256 -109q-59 0 -109 11.5t-147 51.5q-89 38 -127 47t-80 9z" unicode="~"/>
<glyph glyph-name="nonbreakingspace" horiz-adv-x="532" unicode=" "/>
<glyph glyph-name="exclamdown" horiz-adv-x="586" unicode="¡" d="M549 977q0 -92 -55.5 -145.5t-149.5 -53.5q-68 0 -108.5 38t-40.5 108q0 85 54 139.5t144 54.5q73 0 114.5 -37t41.5 -104zM182 606h242l-158 -977h-340z"/>
<glyph glyph-name="cent" d="M575 -20h-188l49 210q-134 36 -203 136t-69 258q0 193 62.5 355t178 262.5t267.5 123.5l33 158h188l-35 -158q118 -14 225 -65l-92 -230q-53 23 -105 40t-118 17q-133 0 -216 -143t-83 -336q0 -96 45 -144t127 -48q75 0 140 23.5t134 58.5v-246q-136 -71 -299 -80z" unicode="¢"/>
<glyph glyph-name="sterling" d="M872 1485q195 0 369 -86l-113 -232q-141 68 -237 68q-75 0 -123 -39.5t-68 -132.5l-47 -229h299l-45 -220h-299l-18 -84q-42 -195 -209 -270h655l-55 -260h-993l49 246q196 48 244 264l22 104h-192l45 220h192l49 247q41 197 162 300.5t313 103.5z" unicode="£"/>
<glyph glyph-name="currency" d="M397 723q0 -77 54.5 -132.5t134.5 -55.5q81 0 136.5 55t55.5 133q0 80 -56.5 135t-135.5 55q-78 0 -133.5 -56t-55.5 -134zM190 723q0 102 54 197l-129 127l147 147l127 -127q91 53 197 53q105 0 196 -55l127 129l150 -143l-129 -129q53 -89 53 -199q0 -107 -53 -199 l125 -125l-146 -145l-127 125q-95 -51 -196 -51q-115 0 -199 51l-125 -123l-145 145l127 125q-54 93 -54 197z" unicode="¤"/>
<glyph glyph-name="yen" d="M608 872l371 590h311l-506 -747h203l-39 -178h-252l-28 -138h252l-37 -178h-252l-47 -221h-291l47 221h-252l37 178h252l29 138h-252l39 178h196l-192 747h297z" unicode="¥"/>
<glyph glyph-name="brokenbar" d="M455 350h219v-815h-219v815zM455 1550h219v-815h-219v815z" unicode="¦"/>
<glyph glyph-name="section" horiz-adv-x="995" unicode="§" d="M506 967q-51 -25 -82 -70.5t-31 -99.5t43.5 -96.5t143.5 -88.5q49 31 75.5 78.5t26.5 95.5q0 109 -176 181zM150 760q0 89 47.5 163t154.5 142q-42 34 -70 84.5t-28 107.5q0 149 117 234.5t313 85.5q172 0 344 -88l-82 -193q-147 84 -282 84q-144 0 -144 -106 q0 -43 40.5 -76t127.5 -72q242 -106 242 -303q0 -188 -193 -303q38 -35 64 -85.5t26 -108.5q0 -161 -126 -253.5t-345 -92.5q-204 0 -336 75v224q172 -105 345 -105q99 0 144.5 35t45.5 92q0 39 -33 72.5t-127 79.5q-117 57 -181 131t-64 176z"/>
<glyph glyph-name="dieresis" horiz-adv-x="1135" unicode="¨" d="M799 1382q0 78 42 118t120 40q65 0 99 -28t34 -80q0 -73 -39.5 -116.5t-120.5 -43.5q-135 0 -135 110zM397 1382q0 78 42.5 118t119.5 40q133 0 133 -108q0 -73 -39 -116.5t-121 -43.5q-135 0 -135 110z"/>
<glyph glyph-name="copyright" horiz-adv-x="1704" unicode="©" d="M266 731q0 -164 81.5 -305t224 -223t305.5 -82q167 0 308 83t221.5 223.5t80.5 303.5t-80.5 303.5t-222 223.5t-307.5 83q-164 0 -306.5 -82.5t-223.5 -223.5t-81 -304zM125 731q0 200 100 375t275 276t377 101q199 0 373.5 -99t276 -275.5t101.5 -377.5 q0 -199 -98.5 -373t-272.5 -276t-380 -102q-207 0 -382 103.5t-272.5 276.5t-97.5 371zM932 1010q-111 0 -163 -73t-52 -214q0 -134 55.5 -203t159.5 -69q43 0 108.5 15.5t124.5 43.5v-191q-131 -57 -262 -57q-196 0 -307 122.5t-111 336.5q0 225 117.5 351t325.5 126 q142 0 284 -72l-75 -174q-114 58 -205 58z"/>
<glyph glyph-name="ordfeminine" horiz-adv-x="772" unicode="ª" d="M442 903q45 0 84 41.5t65.5 120t26.5 154.5q0 106 -88 106q-73 0 -123.5 -96t-50.5 -215q0 -111 86 -111zM369 752q-103 0 -160 70t-57 198q0 117 46 228t123 171t177 60q120 0 180 -103h6l39 90h154l-158 -702h-154l8 92h-2q-80 -104 -202 -104z"/>
<glyph glyph-name="guillemotleft" horiz-adv-x="1151" unicode="«" d="M559 569l402 463l190 -155l-279 -334l136 -350l-246 -103l-203 461v18zM72 569l401 463l191 -155l-279 -334l135 -350l-246 -103l-202 461v18z"/>
<glyph glyph-name="logicalnot" d="M1061 248h-219v364h-733v219h952v-583z" unicode="¬"/>
<glyph glyph-name="uni00AD" horiz-adv-x="659" unicode="­" d="M41 424l53 250h524l-53 -250h-524z"/>
<glyph glyph-name="registered" horiz-adv-x="1704" unicode="®" d="M266 731q0 -164 81.5 -305t224 -223t305.5 -82q167 0 308 83t221.5 223.5t80.5 303.5t-80.5 303.5t-222 223.5t-307.5 83q-164 0 -306.5 -82.5t-223.5 -223.5t-81 -304zM125 731q0 200 100 375t275 276t377 101q199 0 373.5 -99t276 -275.5t101.5 -377.5 q0 -199 -98.5 -373t-272.5 -276t-380 -102q-207 0 -382 103.5t-272.5 276.5t-97.5 371zM801 758h51q72 0 113 31t41 92q0 59 -35.5 88.5t-116.5 29.5h-53v-241zM1237 899q0 -86 -44 -149.5t-130 -96.5l197 -360h-254l-138 297h-67v-297h-230v874h308q173 0 265.5 -67.5 t92.5 -200.5z"/>
<glyph glyph-name="overscore" horiz-adv-x="1024" unicode="¯" d="M1030 1556h-1036l45 201h1036z"/>
<glyph glyph-name="degree" horiz-adv-x="877" unicode="°" d="M354 1137q0 -63 45.5 -108.5t110.5 -45.5q66 0 111 46t45 108q0 63 -45.5 110t-110.5 47t-110.5 -47.5t-45.5 -109.5zM164 1137q0 93 46.5 173.5t127.5 126.5t172 46q93 0 173.5 -47t126.5 -127t46 -172q0 -93 -46 -173t-126 -125.5t-174 -45.5q-93 0 -173 45t-126.5 125 t-46.5 174z"/>
<glyph glyph-name="plusminus" d="M109 0v219h952v-219h-952zM475 674h-366v219h366v369h219v-369h367v-219h-367v-365h-219v365z" unicode="±"/>
<glyph glyph-name="twosuperior" horiz-adv-x="776" unicode="²" d="M707 586h-648l35 166l273 219q111 91 141 122t44.5 59t14.5 56q0 42 -25.5 62t-60.5 20q-86 0 -188 -82l-100 158q74 57 156 87t192 30q123 0 196.5 -63t73.5 -160q0 -70 -22 -123t-70 -103.5t-189 -152.5l-129 -95h347z"/>
<glyph glyph-name="threesuperior" horiz-adv-x="776" unicode="³" d="M813 1270q0 -87 -51 -145.5t-166 -88.5v-4q154 -33 154 -176q0 -131 -107 -209t-285 -78q-75 0 -145.5 15.5t-120.5 40.5v192q125 -72 254 -72q76 0 125 30.5t49 88.5q0 37 -26 62.5t-88 25.5h-127l34 160h90q84 0 132.5 28t48.5 85q0 40 -26 60t-71 20q-86 0 -188 -66 l-82 150q142 92 313 92q130 0 206.5 -55.5t76.5 -155.5z"/>
<glyph glyph-name="acute" horiz-adv-x="1135" unicode="´" d="M483 1266q79 88 222 303h335v-17q-46 -56 -154 -152.5t-194 -158.5h-209v25z"/>
<glyph glyph-name="mu" horiz-adv-x="1249" unicode="µ" d="M424 348q0 -60 31.5 -92.5t79.5 -32.5q90 0 162.5 106.5t117.5 319.5l98 469h301l-237 -1118h-229l18 176h-6q-117 -196 -266 -196q-51 0 -89.5 19.5t-58.5 47.5h-6q-8 -66 -21.5 -139t-82.5 -400h-304l342 1610h301l-135 -645q-16 -70 -16 -125z"/>
<glyph glyph-name="paragraph" horiz-adv-x="1341" unicode="¶" d="M1202 -260h-162v1616h-166v-1616h-161v819q-62 -18 -146 -18q-216 0 -318 125t-102 376q0 256 107.5 385t343.5 129h604v-1816z"/>
<glyph glyph-name="periodcentered" horiz-adv-x="584" unicode="·" d="M131 695q0 90 53.5 144t150.5 54q68 0 109 -38t41 -107q0 -87 -55 -141t-144 -54q-73 0 -114 37.5t-41 104.5z"/>
<glyph glyph-name="cedilla" horiz-adv-x="420" unicode="¸" d="M262 -250q0 -116 -83 -179t-234 -63q-86 0 -152 23v168q63 -23 125 -23q102 0 102 82q0 34 -31 56.5t-110 31.5l96 154h185l-39 -72q141 -49 141 -178z"/>
<glyph glyph-name="onesuperior" horiz-adv-x="776" unicode="¹" d="M528 1462h207l-186 -876h-246l84 397q24 109 55 207q-16 -15 -80 -60l-131 -81l-102 165z"/>
<glyph glyph-name="ordmasculine" horiz-adv-x="754" unicode="º" d="M522 1315q-64 0 -107.5 -89.5t-43.5 -199.5q0 -111 80 -111q63 0 105 85.5t42 207.5q0 107 -76 107zM809 1194q0 -128 -48.5 -232.5t-132.5 -157t-196 -52.5q-134 0 -202 75t-68 211q0 197 104 319t277 122q129 0 197.5 -73.5t68.5 -211.5z"/>
<glyph glyph-name="guillemotright" horiz-adv-x="1151" unicode="»" d="M592 535l-402 -463l-190 155l279 334l-136 350l246 103l203 -461v-18zM1079 535l-401 -463l-191 155l279 334l-135 350l246 103l202 -461v-18z"/>
<glyph glyph-name="onequarter" horiz-adv-x="1804" unicode="¼" d="M1500 1462l-1084 -1462h-239l1087 1462h236zM496 1462h207l-186 -876h-246l84 397q24 109 55 207q-16 -15 -80 -60l-131 -81l-102 165zM1252 320l58 231l22 74q-13 -20 -43 -58t-211 -247h174zM1573 152h-119l-32 -151h-238l33 151h-373l31 174l475 557h260l-121 -563 h119z"/>
<glyph glyph-name="onehalf" horiz-adv-x="1804" unicode="½" d="M1588 1h-648l35 166l273 219q111 91 141 122t44.5 59t14.5 56q0 42 -25.5 62t-60.5 20q-86 0 -188 -82l-100 158q74 57 156 87t192 30q123 0 196.5 -63t73.5 -160q0 -70 -22 -123t-70 -103.5t-189 -152.5l-129 -95h347zM496 1462h207l-186 -876h-246l84 397 q24 109 55 207q-16 -15 -80 -60l-131 -81l-102 165zM1500 1462l-1084 -1462h-239l1087 1462h236z"/>
<glyph glyph-name="threequarters" horiz-adv-x="1804" unicode="¾" d="M1633 1462l-1084 -1462h-239l1087 1462h236zM1313 320l58 231l22 74q-13 -20 -43 -58t-211 -247h174zM1634 152h-119l-32 -151h-238l33 151h-373l31 174l475 557h260l-121 -563h119zM854 1270q0 -87 -51 -145.5t-166 -88.5v-4q154 -33 154 -176q0 -131 -107 -209 t-285 -78q-75 0 -145.5 15.5t-120.5 40.5v192q125 -72 254 -72q76 0 125 30.5t49 88.5q0 37 -26 62.5t-88 25.5h-127l34 160h90q84 0 132.5 28t48.5 85q0 40 -26 60t-71 20q-86 0 -188 -66l-82 150q142 92 313 92q130 0 206.5 -55.5t76.5 -155.5z"/>
<glyph glyph-name="questiondown" horiz-adv-x="940" unicode="¿" d="M772 977q0 -92 -55.5 -145.5t-149.5 -53.5q-68 0 -108.5 38t-40.5 108q0 86 54.5 140t143.5 54q73 0 114.5 -37t41.5 -104zM678 606l-14 -78q-19 -105 -76.5 -180t-169.5 -151q-122 -83 -156.5 -126t-34.5 -98q0 -118 133 -118q50 0 106.5 16t201.5 84l92 -221 q-221 -125 -445 -125q-177 0 -280 87.5t-103 244.5q0 82 28.5 148.5t83.5 124t189 146.5q93 62 128 106.5t51 106.5l8 33h258z"/>
<glyph glyph-name="Agrave" horiz-adv-x="1286" unicode="À" d="M827 608l-26 350q-10 131 -10 253v36q-44 -120 -109 -254l-188 -385h333zM842 348h-473l-172 -348h-320l766 1468h373l147 -1468h-297zM965 1579h-184q-71 69 -138.5 153.5t-103.5 153.5v21h311q36 -148 115 -303v-25z"/>
<glyph glyph-name="Aacute" horiz-adv-x="1286" unicode="Á" d="M827 608l-26 350q-10 131 -10 253v36q-44 -120 -109 -254l-188 -385h333zM842 348h-473l-172 -348h-320l766 1468h373l147 -1468h-297zM735 1604q79 88 222 303h335v-17q-46 -56 -154 -152.5t-194 -158.5h-209v25z"/>
<glyph glyph-name="Acircumflex" horiz-adv-x="1286" unicode="Â" d="M827 608l-26 350q-10 131 -10 253v36q-44 -120 -109 -254l-188 -385h333zM842 348h-473l-172 -348h-320l766 1468h373l147 -1468h-297zM1235 1579h-198q-63 53 -162 168q-105 -88 -232 -168h-217v25q63 57 153 147t142 156h338q22 -54 74 -142.5t102 -160.5v-25z"/>
<glyph glyph-name="Atilde" horiz-adv-x="1286" unicode="Ã" d="M827 608l-26 350q-10 131 -10 253v36q-44 -120 -109 -254l-188 -385h333zM842 348h-473l-172 -348h-320l766 1468h373l147 -1468h-297zM999 1579q-49 0 -86.5 16.5t-69.5 36t-61.5 36t-62.5 16.5q-31 0 -55.5 -28t-38.5 -79h-177q59 309 281 309q49 0 87.5 -16.5 t71.5 -36t62 -35.5t60 -16q34 0 58 25.5t46 80.5h172q-66 -309 -287 -309z"/>
<glyph glyph-name="Adieresis" horiz-adv-x="1286" unicode="Ä" d="M827 608l-26 350q-10 131 -10 253v36q-44 -120 -109 -254l-188 -385h333zM842 348h-473l-172 -348h-320l766 1468h373l147 -1468h-297zM918 1720q0 78 42 118t120 40q65 0 99 -28t34 -80q0 -73 -39.5 -116.5t-120.5 -43.5q-135 0 -135 110zM516 1720q0 78 42.5 118 t119.5 40q133 0 133 -108q0 -73 -39 -116.5t-121 -43.5q-135 0 -135 110z"/>
<glyph glyph-name="Aring" horiz-adv-x="1286" unicode="Å" d="M827 608l-26 350q-10 131 -10 253v36q-44 -120 -109 -254l-188 -385h333zM842 348h-473l-172 -348h-320l766 1468h373l147 -1468h-297zM930 1565q0 45 -27.5 70.5t-69.5 25.5t-69 -25.5t-27 -70.5t24 -71t72 -26q42 0 69.5 26t27.5 71zM1087 1567q0 -107 -70 -173.5 t-184 -66.5q-110 0 -179 63.5t-69 174.5q0 109 68.5 173t179.5 64q110 0 182 -65t72 -170z"/>
<glyph glyph-name="AE" horiz-adv-x="1833" unicode="Æ" d="M905 608l127 600h-80l-364 -600h317zM1593 0h-817l74 348h-426l-219 -348h-328l922 1462h1104l-54 -254h-512l-67 -321h477l-55 -254h-478l-79 -377h512z"/>
<glyph glyph-name="Ccedilla" horiz-adv-x="1253" unicode="Ç" d="M905 1227q-132 0 -237.5 -81t-169.5 -238.5t-64 -338.5q0 -167 68.5 -248t218.5 -81q146 0 338 77v-260q-199 -77 -400 -77q-254 0 -395 149.5t-141 423.5q0 262 104 482.5t278 335t400 114.5q125 0 222 -22.5t208 -82.5l-118 -250q-106 59 -175 78t-137 19zM825 -250 q0 -116 -83 -179t-234 -63q-86 0 -152 23v168q63 -23 125 -23q102 0 102 82q0 34 -31 56.5t-110 31.5l96 154h185l-39 -72q141 -49 141 -178z"/>
<glyph glyph-name="Egrave" horiz-adv-x="1110" unicode="È" d="M870 0h-817l309 1462h818l-54 -254h-512l-67 -321h477l-55 -254h-477l-80 -377h512zM906 1579h-184q-71 69 -138.5 153.5t-103.5 153.5v21h311q36 -148 115 -303v-25z"/>
<glyph glyph-name="Eacute" horiz-adv-x="1110" unicode="É" d="M870 0h-817l309 1462h818l-54 -254h-512l-67 -321h477l-55 -254h-477l-80 -377h512zM608 1604q79 88 222 303h335v-17q-46 -56 -154 -152.5t-194 -158.5h-209v25z"/>
<glyph glyph-name="Ecircumflex" horiz-adv-x="1110" unicode="Ê" d="M870 0h-817l309 1462h818l-54 -254h-512l-67 -321h477l-55 -254h-477l-80 -377h512zM1177 1579h-198q-63 53 -162 168q-105 -88 -232 -168h-217v25q63 57 153 147t142 156h338q22 -54 74 -142.5t102 -160.5v-25z"/>
<glyph glyph-name="Edieresis" horiz-adv-x="1110" unicode="Ë" d="M870 0h-817l309 1462h818l-54 -254h-512l-67 -321h477l-55 -254h-477l-80 -377h512zM840 1720q0 78 42 118t120 40q65 0 99 -28t34 -80q0 -73 -39.5 -116.5t-120.5 -43.5q-135 0 -135 110zM438 1720q0 78 42.5 118t119.5 40q133 0 133 -108q0 -73 -39 -116.5t-121 -43.5 q-135 0 -135 110z"/>
<glyph glyph-name="Igrave" horiz-adv-x="659" unicode="Ì" d="M53 0l312 1462h305l-312 -1462h-305zM667 1579h-184q-71 69 -138.5 153.5t-103.5 153.5v21h311q36 -148 115 -303v-25z"/>
<glyph glyph-name="Iacute" horiz-adv-x="659" unicode="Í" d="M53 0l312 1462h305l-312 -1462h-305zM414 1604q79 88 222 303h335v-17q-46 -56 -154 -152.5t-194 -158.5h-209v25z"/>
<glyph glyph-name="Icircumflex" horiz-adv-x="659" unicode="Î" d="M53 0l312 1462h305l-312 -1462h-305zM937 1579h-198q-63 53 -162 168q-105 -88 -232 -168h-217v25q63 57 153 147t142 156h338q22 -54 74 -142.5t102 -160.5v-25z"/>
<glyph glyph-name="Idieresis" horiz-adv-x="659" unicode="Ï" d="M53 0l312 1462h305l-312 -1462h-305zM624 1720q0 78 42 118t120 40q65 0 99 -28t34 -80q0 -73 -39.5 -116.5t-120.5 -43.5q-135 0 -135 110zM222 1720q0 78 42.5 118t119.5 40q133 0 133 -108q0 -73 -39 -116.5t-121 -43.5q-135 0 -135 110z"/>
<glyph glyph-name="Eth" horiz-adv-x="1386" unicode="Ð" d="M518 256q148 0 258 76t172 223.5t62 337.5q0 154 -72.5 234.5t-208.5 80.5h-115l-75 -358h237l-55 -254h-238l-71 -340h106zM1323 909q0 -280 -98 -486.5t-283.5 -314.5t-437.5 -108h-451l125 596h-141l55 254h139l131 612h396q270 0 417.5 -143t147.5 -410z"/>
<glyph glyph-name="Ntilde" horiz-adv-x="1546" unicode="Ñ" d="M1247 0h-342l-356 1106h-6l-4 -32q-32 -216 -66 -386l-145 -688h-275l309 1462h357l340 -1077h4q12 76 39 217t180 860h274zM1114 1579q-49 0 -86.5 16.5t-69.5 36t-61.5 36t-62.5 16.5q-31 0 -55.5 -28t-38.5 -79h-177q59 309 281 309q49 0 87.5 -16.5t71.5 -36 t62 -35.5t60 -16q34 0 58 25.5t46 80.5h172q-66 -309 -287 -309z"/>
<glyph glyph-name="Ograve" horiz-adv-x="1495" unicode="Ò" d="M872 1227q-121 0 -222 -91.5t-158.5 -251.5t-57.5 -347q0 -147 66.5 -222t187.5 -75t220.5 87t155.5 246t56 357q0 142 -65 219.5t-183 77.5zM1432 938q0 -283 -99 -506.5t-271 -337.5t-396 -114q-256 0 -399.5 147.5t-143.5 409.5q0 265 99 487.5t273 341.5t402 119 q255 0 395 -144t140 -403zM1053 1579h-184q-71 69 -138.5 153.5t-103.5 153.5v21h311q36 -148 115 -303v-25z"/>
<glyph glyph-name="Oacute" horiz-adv-x="1495" unicode="Ó" d="M872 1227q-121 0 -222 -91.5t-158.5 -251.5t-57.5 -347q0 -147 66.5 -222t187.5 -75t220.5 87t155.5 246t56 357q0 142 -65 219.5t-183 77.5zM1432 938q0 -283 -99 -506.5t-271 -337.5t-396 -114q-256 0 -399.5 147.5t-143.5 409.5q0 265 99 487.5t273 341.5t402 119 q255 0 395 -144t140 -403zM753 1604q79 88 222 303h335v-17q-46 -56 -154 -152.5t-194 -158.5h-209v25z"/>
<glyph glyph-name="Ocircumflex" horiz-adv-x="1495" unicode="Ô" d="M872 1227q-121 0 -222 -91.5t-158.5 -251.5t-57.5 -347q0 -147 66.5 -222t187.5 -75t220.5 87t155.5 246t56 357q0 142 -65 219.5t-183 77.5zM1432 938q0 -283 -99 -506.5t-271 -337.5t-396 -114q-256 0 -399.5 147.5t-143.5 409.5q0 265 99 487.5t273 341.5t402 119 q255 0 395 -144t140 -403zM1308 1579h-198q-63 53 -162 168q-105 -88 -232 -168h-217v25q63 57 153 147t142 156h338q22 -54 74 -142.5t102 -160.5v-25z"/>
<glyph glyph-name="Otilde" horiz-adv-x="1495" unicode="Õ" d="M872 1227q-121 0 -222 -91.5t-158.5 -251.5t-57.5 -347q0 -147 66.5 -222t187.5 -75t220.5 87t155.5 246t56 357q0 142 -65 219.5t-183 77.5zM1432 938q0 -283 -99 -506.5t-271 -337.5t-396 -114q-256 0 -399.5 147.5t-143.5 409.5q0 265 99 487.5t273 341.5t402 119 q255 0 395 -144t140 -403zM1071 1579q-49 0 -86.5 16.5t-69.5 36t-61.5 36t-62.5 16.5q-31 0 -55.5 -28t-38.5 -79h-177q59 309 281 309q49 0 87.5 -16.5t71.5 -36t62 -35.5t60 -16q34 0 58 25.5t46 80.5h172q-66 -309 -287 -309z"/>
<glyph glyph-name="Odieresis" horiz-adv-x="1495" unicode="Ö" d="M872 1227q-121 0 -222 -91.5t-158.5 -251.5t-57.5 -347q0 -147 66.5 -222t187.5 -75t220.5 87t155.5 246t56 357q0 142 -65 219.5t-183 77.5zM1432 938q0 -283 -99 -506.5t-271 -337.5t-396 -114q-256 0 -399.5 147.5t-143.5 409.5q0 265 99 487.5t273 341.5t402 119 q255 0 395 -144t140 -403zM987 1720q0 78 42 118t120 40q65 0 99 -28t34 -80q0 -73 -39.5 -116.5t-120.5 -43.5q-135 0 -135 110zM585 1720q0 78 42.5 118t119.5 40q133 0 133 -108q0 -73 -39 -116.5t-121 -43.5q-135 0 -135 110z"/>
<glyph glyph-name="multiply" d="M428 723l-299 301l152 154l301 -299l305 299l153 -150l-305 -305l301 -303l-149 -152l-305 301l-301 -299l-150 152z" unicode="×"/>
<glyph glyph-name="Oslash" horiz-adv-x="1495" unicode="Ø" d="M1133 930l-5 80l-589 -740q59 -37 153 -37q124 0 226 89t158.5 247.5t56.5 360.5zM870 1233q-126 0 -229 -91.5t-160 -252.5t-57 -352q0 -32 8 -101l596 754q-69 43 -158 43zM1432 938q0 -283 -99 -506.5t-271 -337.5t-396 -114q-180 0 -304 71l-108 -137l-154 115 l121 151q-98 138 -98 357q0 265 99 487.5t273 341.5t402 119q182 0 305 -76l105 131l151 -117l-117 -145q91 -134 91 -340z"/>
<glyph glyph-name="Ugrave" horiz-adv-x="1415" unicode="Ù" d="M1434 1462l-201 -946q-57 -266 -218 -401t-419 -135q-212 0 -333.5 113.5t-121.5 307.5q0 72 15 138l196 923h305l-194 -919q-17 -74 -17 -125q0 -178 189 -178q123 0 195 76.5t104 228.5l194 917h306zM1002 1579h-184q-71 69 -138.5 153.5t-103.5 153.5v21h311 q36 -148 115 -303v-25z"/>
<glyph glyph-name="Uacute" horiz-adv-x="1415" unicode="Ú" d="M1434 1462l-201 -946q-57 -266 -218 -401t-419 -135q-212 0 -333.5 113.5t-121.5 307.5q0 72 15 138l196 923h305l-194 -919q-17 -74 -17 -125q0 -178 189 -178q123 0 195 76.5t104 228.5l194 917h306zM757 1604q79 88 222 303h335v-17q-46 -56 -154 -152.5t-194 -158.5 h-209v25z"/>
<glyph glyph-name="Ucircumflex" horiz-adv-x="1415" unicode="Û" d="M1434 1462l-201 -946q-57 -266 -218 -401t-419 -135q-212 0 -333.5 113.5t-121.5 307.5q0 72 15 138l196 923h305l-194 -919q-17 -74 -17 -125q0 -178 189 -178q123 0 195 76.5t104 228.5l194 917h306zM1284 1579h-198q-63 53 -162 168q-105 -88 -232 -168h-217v25 q63 57 153 147t142 156h338q22 -54 74 -142.5t102 -160.5v-25z"/>
<glyph glyph-name="Udieresis" horiz-adv-x="1415" unicode="Ü" d="M1434 1462l-201 -946q-57 -266 -218 -401t-419 -135q-212 0 -333.5 113.5t-121.5 307.5q0 72 15 138l196 923h305l-194 -919q-17 -74 -17 -125q0 -178 189 -178q123 0 195 76.5t104 228.5l194 917h306zM967 1720q0 78 42 118t120 40q65 0 99 -28t34 -80 q0 -73 -39.5 -116.5t-120.5 -43.5q-135 0 -135 110zM565 1720q0 78 42.5 118t119.5 40q133 0 133 -108q0 -73 -39 -116.5t-121 -43.5q-135 0 -135 110z"/>
<glyph glyph-name="Yacute" horiz-adv-x="1155" unicode="Ý" d="M627 870l374 592h342l-618 -903l-119 -559h-303l119 559l-236 903h312zM606 1604q79 88 222 303h335v-17q-46 -56 -154 -152.5t-194 -158.5h-209v25z"/>
<glyph glyph-name="Thorn" horiz-adv-x="1188" unicode="Þ" d="M475 547h55q139 0 222.5 66.5t83.5 185.5q0 180 -195 180h-74zM1143 807q0 -243 -170.5 -378.5t-466.5 -135.5h-86l-62 -293h-305l309 1462h306l-50 -229h35q242 0 366 -106.5t124 -319.5z"/>
<glyph glyph-name="germandbls" horiz-adv-x="1350" unicode="ß" d="M846 1567q208 0 331 -90t123 -240q0 -114 -49 -192t-178 -152q-73 -42 -96 -68.5t-23 -54.5q0 -23 22 -49.5t79 -69.5q107 -83 144.5 -150.5t37.5 -150.5q0 -170 -123.5 -270t-337.5 -100q-187 0 -297 61v240q128 -78 258 -78q101 0 148 33t47 86q0 40 -26.5 75 t-108.5 97q-94 72 -129 130t-35 126q0 84 45 145t162 127q66 37 104.5 76t38.5 96q0 62 -39.5 98.5t-124.5 36.5q-96 0 -156 -51.5t-85 -171.5l-254 -1219q-43 -198 -147 -288.5t-277 -90.5q-90 0 -160 25v242q61 -21 115 -21q133 0 170 178l254 1207q47 224 182 326 t385 102z"/>
<glyph glyph-name="agrave" horiz-adv-x="1217" unicode="à" d="M524 223q69 0 133 67t103 181.5t39 259.5q0 71 -38.5 117.5t-101.5 46.5q-68 0 -129.5 -72t-98 -190t-36.5 -234q0 -88 33.5 -132t95.5 -44zM406 -20q-147 0 -231.5 106.5t-84.5 298.5q0 198 72 377.5t189 278t257 98.5q97 0 167.5 -42t109.5 -122h8l57 143h232 l-238 -1118h-229l14 145h-4q-134 -165 -319 -165zM869 1241h-184q-71 69 -138.5 153.5t-103.5 153.5v21h311q36 -148 115 -303v-25z"/>
<glyph glyph-name="aacute" horiz-adv-x="1217" unicode="á" d="M524 223q69 0 133 67t103 181.5t39 259.5q0 71 -38.5 117.5t-101.5 46.5q-68 0 -129.5 -72t-98 -190t-36.5 -234q0 -88 33.5 -132t95.5 -44zM406 -20q-147 0 -231.5 106.5t-84.5 298.5q0 198 72 377.5t189 278t257 98.5q97 0 167.5 -42t109.5 -122h8l57 143h232 l-238 -1118h-229l14 145h-4q-134 -165 -319 -165zM598 1266q79 88 222 303h335v-17q-46 -56 -154 -152.5t-194 -158.5h-209v25z"/>
<glyph glyph-name="acircumflex" horiz-adv-x="1217" unicode="â" d="M524 223q69 0 133 67t103 181.5t39 259.5q0 71 -38.5 117.5t-101.5 46.5q-68 0 -129.5 -72t-98 -190t-36.5 -234q0 -88 33.5 -132t95.5 -44zM406 -20q-147 0 -231.5 106.5t-84.5 298.5q0 198 72 377.5t189 278t257 98.5q97 0 167.5 -42t109.5 -122h8l57 143h232 l-238 -1118h-229l14 145h-4q-134 -165 -319 -165zM1120 1240h-198q-63 53 -162 168q-105 -88 -232 -168h-217v25q63 57 153 147t142 156h338q22 -54 74 -142.5t102 -160.5v-25z"/>
<glyph glyph-name="atilde" horiz-adv-x="1217" unicode="ã" d="M524 223q69 0 133 67t103 181.5t39 259.5q0 71 -38.5 117.5t-101.5 46.5q-68 0 -129.5 -72t-98 -190t-36.5 -234q0 -88 33.5 -132t95.5 -44zM406 -20q-147 0 -231.5 106.5t-84.5 298.5q0 198 72 377.5t189 278t257 98.5q97 0 167.5 -42t109.5 -122h8l57 143h232 l-238 -1118h-229l14 145h-4q-134 -165 -319 -165zM884 1241q-49 0 -86.5 16.5t-69.5 36t-61.5 36t-62.5 16.5q-31 0 -55.5 -28t-38.5 -79h-177q59 309 281 309q49 0 87.5 -16.5t71.5 -36t62 -35.5t60 -16q34 0 58 25.5t46 80.5h172q-66 -309 -287 -309z"/>
<glyph glyph-name="adieresis" horiz-adv-x="1217" unicode="ä" d="M524 223q69 0 133 67t103 181.5t39 259.5q0 71 -38.5 117.5t-101.5 46.5q-68 0 -129.5 -72t-98 -190t-36.5 -234q0 -88 33.5 -132t95.5 -44zM406 -20q-147 0 -231.5 106.5t-84.5 298.5q0 198 72 377.5t189 278t257 98.5q97 0 167.5 -42t109.5 -122h8l57 143h232 l-238 -1118h-229l14 145h-4q-134 -165 -319 -165zM799 1382q0 78 42 118t120 40q65 0 99 -28t34 -80q0 -73 -39.5 -116.5t-120.5 -43.5q-135 0 -135 110zM397 1382q0 78 42.5 118t119.5 40q133 0 133 -108q0 -73 -39 -116.5t-121 -43.5q-135 0 -135 110z"/>
<glyph glyph-name="aring" horiz-adv-x="1217" unicode="å" d="M524 223q69 0 133 67t103 181.5t39 259.5q0 71 -38.5 117.5t-101.5 46.5q-68 0 -129.5 -72t-98 -190t-36.5 -234q0 -88 33.5 -132t95.5 -44zM406 -20q-147 0 -231.5 106.5t-84.5 298.5q0 198 72 377.5t189 278t257 98.5q97 0 167.5 -42t109.5 -122h8l57 143h232 l-238 -1118h-229l14 145h-4q-134 -165 -319 -165zM866 1477q0 45 -27.5 70.5t-69.5 25.5t-69 -25.5t-27 -70.5t24 -71t72 -26q42 0 69.5 26t27.5 71zM1023 1479q0 -107 -70 -173.5t-184 -66.5q-110 0 -179 63.5t-69 174.5q0 109 68.5 173t179.5 64q110 0 182 -65t72 -170z "/>
<glyph glyph-name="ae" horiz-adv-x="1786" unicode="æ" d="M1341 922q-88 0 -166 -80t-102 -195h45q155 0 241.5 48.5t86.5 131.5q0 95 -105 95zM518 223q72 0 134 68t99 184.5t37 243.5q0 80 -33 128t-102 48q-68 0 -128 -69t-95 -185.5t-35 -241.5q0 -84 32.5 -130t90.5 -46zM1206 -20q-109 0 -179.5 27t-117.5 87l-16 -94h-188 l14 145h-6q-71 -88 -146.5 -126.5t-167.5 -38.5q-146 0 -227.5 109t-81.5 296q0 200 68.5 375.5t185 277t258.5 101.5q96 0 160.5 -38.5t114.5 -125.5h6l57 143h188l-18 -90q44 49 120.5 80t168.5 31q157 0 246.5 -83.5t89.5 -221.5q0 -187 -167 -288.5t-476 -101.5h-52 l-2 -19v-19q0 -96 55.5 -147.5t159.5 -51.5q66 0 152 23t162 63v-227q-179 -86 -361 -86z"/>
<glyph glyph-name="ccedilla" horiz-adv-x="989" unicode="ç" d="M506 -20q-201 0 -308.5 107.5t-107.5 303.5q0 212 74.5 385.5t209.5 268t308 94.5q182 0 328 -72l-92 -229q-54 23 -106 40t-118 17q-85 0 -153.5 -64t-107 -175.5t-38.5 -239.5q0 -96 45.5 -144.5t126.5 -48.5q76 0 141 23.5t134 58.5v-246q-152 -79 -336 -79zM653 -250 q0 -116 -83 -179t-234 -63q-86 0 -152 23v168q63 -23 125 -23q102 0 102 82q0 34 -31 56.5t-110 31.5l96 154h185l-39 -72q141 -49 141 -178z"/>
<glyph glyph-name="egrave" horiz-adv-x="1141" unicode="è" d="M532 -20q-210 0 -326 113t-116 319q0 207 82.5 377.5t223.5 260t319 89.5q177 0 276 -81.5t99 -223.5q0 -187 -167 -288.5t-477 -101.5h-51l-2 -21v-20q0 -91 51.5 -143.5t147.5 -52.5q87 0 158 19t172 67v-227q-172 -86 -390 -86zM696 922q-88 0 -166 -80t-102 -195h45 q155 0 241.5 48.5t86.5 131.5q0 95 -105 95zM849 1241h-184q-71 69 -138.5 153.5t-103.5 153.5v21h311q36 -148 115 -303v-25z"/>
<glyph glyph-name="eacute" horiz-adv-x="1141" unicode="é" d="M532 -20q-210 0 -326 113t-116 319q0 207 82.5 377.5t223.5 260t319 89.5q177 0 276 -81.5t99 -223.5q0 -187 -167 -288.5t-477 -101.5h-51l-2 -21v-20q0 -91 51.5 -143.5t147.5 -52.5q87 0 158 19t172 67v-227q-172 -86 -390 -86zM696 922q-88 0 -166 -80t-102 -195h45 q155 0 241.5 48.5t86.5 131.5q0 95 -105 95zM528 1266q79 88 222 303h335v-17q-46 -56 -154 -152.5t-194 -158.5h-209v25z"/>
<glyph glyph-name="ecircumflex" horiz-adv-x="1141" unicode="ê" d="M532 -20q-210 0 -326 113t-116 319q0 207 82.5 377.5t223.5 260t319 89.5q177 0 276 -81.5t99 -223.5q0 -187 -167 -288.5t-477 -101.5h-51l-2 -21v-20q0 -91 51.5 -143.5t147.5 -52.5q87 0 158 19t172 67v-227q-172 -86 -390 -86zM696 922q-88 0 -166 -80t-102 -195h45 q155 0 241.5 48.5t86.5 131.5q0 95 -105 95zM1101 1241h-198q-63 53 -162 168q-105 -88 -232 -168h-217v25q63 57 153 147t142 156h338q22 -54 74 -142.5t102 -160.5v-25z"/>
<glyph glyph-name="edieresis" horiz-adv-x="1141" unicode="ë" d="M532 -20q-210 0 -326 113t-116 319q0 207 82.5 377.5t223.5 260t319 89.5q177 0 276 -81.5t99 -223.5q0 -187 -167 -288.5t-477 -101.5h-51l-2 -21v-20q0 -91 51.5 -143.5t147.5 -52.5q87 0 158 19t172 67v-227q-172 -86 -390 -86zM696 922q-88 0 -166 -80t-102 -195h45 q155 0 241.5 48.5t86.5 131.5q0 95 -105 95zM767 1382q0 78 42 118t120 40q65 0 99 -28t34 -80q0 -73 -39.5 -116.5t-120.5 -43.5q-135 0 -135 110zM365 1382q0 78 42.5 118t119.5 40q133 0 133 -108q0 -73 -39 -116.5t-121 -43.5q-135 0 -135 110z"/>
<glyph glyph-name="igrave" horiz-adv-x="608" unicode="ì" d="M338 0h-301l237 1118h301zM579 1241h-184q-71 69 -138.5 153.5t-103.5 153.5v21h311q36 -148 115 -303v-25z"/>
<glyph glyph-name="iacute" horiz-adv-x="608" unicode="í" d="M338 0h-301l237 1118h301zM291 1266q79 88 222 303h335v-17q-46 -56 -154 -152.5t-194 -158.5h-209v25z"/>
<glyph glyph-name="icircumflex" horiz-adv-x="608" unicode="î" d="M338 0h-301l237 1118h301zM845 1241h-198q-63 53 -162 168q-105 -88 -232 -168h-217v25q63 57 153 147t142 156h338q22 -54 74 -142.5t102 -160.5v-25z"/>
<glyph glyph-name="idieresis" horiz-adv-x="608" unicode="ï" d="M338 0h-301l237 1118h301zM528 1382q0 78 42 118t120 40q65 0 99 -28t34 -80q0 -73 -39.5 -116.5t-120.5 -43.5q-135 0 -135 110zM126 1382q0 78 42.5 118t119.5 40q133 0 133 -108q0 -73 -39 -116.5t-121 -43.5q-135 0 -135 110z"/>
<glyph glyph-name="eth" horiz-adv-x="1182" unicode="ð" d="M528 205q66 0 122.5 55.5t89 148.5t32.5 193q0 77 -38.5 122.5t-108.5 45.5q-73 0 -130 -53t-88.5 -143t-31.5 -197q0 -81 39 -126.5t114 -45.5zM618 1309q-34 34 -124 80l118 186q134 -61 232 -139l237 131l76 -152l-192 -106q81 -107 113 -235t32 -279 q0 -249 -69.5 -432.5t-203.5 -283t-323 -99.5q-216 0 -329 110t-113 316q0 165 64.5 301t180.5 212t265 76q83 0 151.5 -31t114.5 -94h6q-20 213 -117 310l-231 -131l-88 147z"/>
<glyph glyph-name="ntilde" horiz-adv-x="1237" unicode="ñ" d="M977 0h-301l137 653q16 68 16 119q0 123 -108 123q-92 0 -167 -114t-118 -318l-98 -463h-301l237 1118h230l-21 -207h6q146 228 355 228q138 0 213.5 -83.5t75.5 -238.5q0 -73 -23 -180zM909 1241q-49 0 -86.5 16.5t-69.5 36t-61.5 36t-62.5 16.5q-31 0 -55.5 -28 t-38.5 -79h-177q59 309 281 309q49 0 87.5 -16.5t71.5 -36t62 -35.5t60 -16q34 0 58 25.5t46 80.5h172q-66 -309 -287 -309z"/>
<glyph glyph-name="ograve" horiz-adv-x="1198" unicode="ò" d="M1108 696q0 -211 -70.5 -374t-203.5 -252.5t-316 -89.5q-195 0 -311.5 117.5t-116.5 312.5q0 213 71.5 379.5t206.5 258t316 91.5q196 0 310 -118t114 -325zM805 696q0 197 -143 197q-75 0 -134.5 -61t-97 -179t-37.5 -243q0 -185 150 -185q75 0 135 61.5t93.5 171 t33.5 238.5zM845 1241h-184q-71 69 -138.5 153.5t-103.5 153.5v21h311q36 -148 115 -303v-25z"/>
<glyph glyph-name="oacute" horiz-adv-x="1198" unicode="ó" d="M1108 696q0 -211 -70.5 -374t-203.5 -252.5t-316 -89.5q-195 0 -311.5 117.5t-116.5 312.5q0 213 71.5 379.5t206.5 258t316 91.5q196 0 310 -118t114 -325zM805 696q0 197 -143 197q-75 0 -134.5 -61t-97 -179t-37.5 -243q0 -185 150 -185q75 0 135 61.5t93.5 171 t33.5 238.5zM571 1266q79 88 222 303h335v-17q-46 -56 -154 -152.5t-194 -158.5h-209v25z"/>
<glyph glyph-name="ocircumflex" horiz-adv-x="1198" unicode="ô" d="M1108 696q0 -211 -70.5 -374t-203.5 -252.5t-316 -89.5q-195 0 -311.5 117.5t-116.5 312.5q0 213 71.5 379.5t206.5 258t316 91.5q196 0 310 -118t114 -325zM805 696q0 197 -143 197q-75 0 -134.5 -61t-97 -179t-37.5 -243q0 -185 150 -185q75 0 135 61.5t93.5 171 t33.5 238.5zM1109 1241h-198q-63 53 -162 168q-105 -88 -232 -168h-217v25q63 57 153 147t142 156h338q22 -54 74 -142.5t102 -160.5v-25z"/>
<glyph glyph-name="otilde" horiz-adv-x="1198" unicode="õ" d="M1108 696q0 -211 -70.5 -374t-203.5 -252.5t-316 -89.5q-195 0 -311.5 117.5t-116.5 312.5q0 213 71.5 379.5t206.5 258t316 91.5q196 0 310 -118t114 -325zM805 696q0 197 -143 197q-75 0 -134.5 -61t-97 -179t-37.5 -243q0 -185 150 -185q75 0 135 61.5t93.5 171 t33.5 238.5zM865 1241q-49 0 -86.5 16.5t-69.5 36t-61.5 36t-62.5 16.5q-31 0 -55.5 -28t-38.5 -79h-177q59 309 281 309q49 0 87.5 -16.5t71.5 -36t62 -35.5t60 -16q34 0 58 25.5t46 80.5h172q-66 -309 -287 -309z"/>
<glyph glyph-name="odieresis" horiz-adv-x="1198" unicode="ö" d="M1108 696q0 -211 -70.5 -374t-203.5 -252.5t-316 -89.5q-195 0 -311.5 117.5t-116.5 312.5q0 213 71.5 379.5t206.5 258t316 91.5q196 0 310 -118t114 -325zM805 696q0 197 -143 197q-75 0 -134.5 -61t-97 -179t-37.5 -243q0 -185 150 -185q75 0 135 61.5t93.5 171 t33.5 238.5zM788 1382q0 78 42 118t120 40q65 0 99 -28t34 -80q0 -73 -39.5 -116.5t-120.5 -43.5q-135 0 -135 110zM386 1382q0 78 42.5 118t119.5 40q133 0 133 -108q0 -73 -39 -116.5t-121 -43.5q-135 0 -135 110z"/>
<glyph glyph-name="divide" d="M444 1071q0 75 37 113.5t103 38.5q67 0 103 -40.5t36 -111.5q0 -70 -37 -110.5t-102 -40.5t-102.5 39t-37.5 112zM444 373q0 76 37 113.5t103 37.5t102.5 -39t36.5 -112q0 -70 -37 -111t-102 -41t-102.5 39t-37.5 113zM109 612v219h952v-219h-952z" unicode="÷"/>
<glyph glyph-name="oslash" horiz-adv-x="1198" unicode="ø" d="M543 215q114 0 193 133t79 318v16l-358 -444q11 -8 35.5 -15.5t50.5 -7.5zM662 903q-81 0 -144.5 -62.5t-98 -169.5t-34.5 -233v-12l365 453q-35 24 -88 24zM1108 696q0 -211 -70.5 -374t-203.5 -252.5t-316 -89.5q-123 0 -225 53l-109 -135l-141 108l119 148 q-72 107 -72 256q0 213 71.5 379.5t206.5 258t316 91.5q131 0 227 -56l70 88l145 -110l-84 -105q66 -107 66 -260z"/>
<glyph glyph-name="ugrave" horiz-adv-x="1237" unicode="ù" d="M262 1118h301l-137 -653q-16 -68 -16 -119q0 -123 108 -123q92 0 167 114t118 318l98 463h301l-237 -1118h-230l21 207h-6q-145 -227 -355 -227q-138 0 -211 82.5t-73 238.5q0 93 24 213zM845 1241h-184q-71 69 -138.5 153.5t-103.5 153.5v21h311q36 -148 115 -303v-25z "/>
<glyph glyph-name="uacute" horiz-adv-x="1237" unicode="ú" d="M262 1118h301l-137 -653q-16 -68 -16 -119q0 -123 108 -123q92 0 167 114t118 318l98 463h301l-237 -1118h-230l21 207h-6q-145 -227 -355 -227q-138 0 -211 82.5t-73 238.5q0 93 24 213zM610 1266q79 88 222 303h335v-17q-46 -56 -154 -152.5t-194 -158.5h-209v25z"/>
<glyph glyph-name="ucircumflex" horiz-adv-x="1237" unicode="û" d="M262 1118h301l-137 -653q-16 -68 -16 -119q0 -123 108 -123q92 0 167 114t118 318l98 463h301l-237 -1118h-230l21 207h-6q-145 -227 -355 -227q-138 0 -211 82.5t-73 238.5q0 93 24 213zM1143 1241h-198q-63 53 -162 168q-105 -88 -232 -168h-217v25q63 57 153 147 t142 156h338q22 -54 74 -142.5t102 -160.5v-25z"/>
<glyph glyph-name="udieresis" horiz-adv-x="1237" unicode="ü" d="M262 1118h301l-137 -653q-16 -68 -16 -119q0 -123 108 -123q92 0 167 114t118 318l98 463h301l-237 -1118h-230l21 207h-6q-145 -227 -355 -227q-138 0 -211 82.5t-73 238.5q0 93 24 213zM813 1382q0 78 42 118t120 40q65 0 99 -28t34 -80q0 -73 -39.5 -116.5 t-120.5 -43.5q-135 0 -135 110zM411 1382q0 78 42.5 118t119.5 40q133 0 133 -108q0 -73 -39 -116.5t-121 -43.5q-135 0 -135 110z"/>
<glyph glyph-name="yacute" horiz-adv-x="1063" unicode="ý" d="M102 1118h295l56 -518q14 -122 14 -293h6q20 51 44 119.5t65 153.5l260 538h327l-680 -1278q-177 -332 -483 -332q-90 0 -147 19v240q68 -13 116 -13q84 0 147.5 48t117.5 149l26 49zM497 1266q79 88 222 303h335v-17q-46 -56 -154 -152.5t-194 -158.5h-209v25z"/>
<glyph glyph-name="thorn" horiz-adv-x="1219" unicode="þ" d="M682 895q-71 0 -130 -65t-95.5 -184.5t-36.5 -246.5q0 -80 33.5 -128t105.5 -48q69 0 129 65t97.5 183.5t37.5 247.5q0 88 -37.5 132t-103.5 44zM813 1139q150 0 232.5 -106.5t82.5 -301.5q0 -199 -69 -381t-182 -276t-250 -94q-178 0 -271 163h-8q-12 -159 -43 -295 l-72 -340h-301l435 2048h301l-66 -307q-29 -131 -80 -280h8q131 170 283 170z"/>
<glyph glyph-name="dotlessi" horiz-adv-x="608" unicode="ı" d="M338 0h-301l237 1118h301z"/>
<glyph glyph-name="kgreenlandic" horiz-adv-x="1163" unicode="ĸ" d="M920 1118h344l-498 -504l285 -614h-336l-183 420l-120 -72l-74 -348h-301l237 1118h301q-71 -319 -87 -379t-29 -102h4z"/>
<glyph glyph-name="OE" horiz-adv-x="1845" unicode="Œ" d="M688 240q88 0 158 32l194 916q-62 39 -168 39q-121 0 -222 -91.5t-158.5 -251.5t-57.5 -347q0 -147 66.5 -222t187.5 -75zM1606 0h-760q-93 -20 -180 -20q-256 0 -399.5 147.5t-143.5 409.5q0 265 99 487.5t273 341.5t402 119q140 0 209 -23h809l-53 -254h-512l-68 -321 h477l-55 -254h-477l-80 -377h512z"/>
<glyph glyph-name="oe" horiz-adv-x="1806" unicode="œ" d="M1362 922q-88 0 -165.5 -78.5t-102.5 -196.5h45q155 0 241 48.5t86 131.5q0 95 -104 95zM645 893q-71 0 -127 -60.5t-90.5 -176.5t-34.5 -242q0 -91 36.5 -140t109.5 -49q109 0 179 134.5t70 336.5q0 96 -37 146.5t-106 50.5zM1198 -20q-116 0 -208 38.5t-138 106.5 q-63 -68 -147 -106.5t-207 -38.5q-187 0 -297.5 117t-110.5 317q0 216 69 380.5t200 254.5t309 90q209 0 313 -160q154 160 399 160q177 0 276 -81.5t99 -223.5q0 -187 -167 -288.5t-476 -101.5h-51l-2 -21v-20q0 -91 51 -143.5t147 -52.5q87 0 158 19t172 67v-227 q-93 -46 -185.5 -66t-203.5 -20z"/>
<glyph glyph-name="Scaron" horiz-adv-x="1085" unicode="Š" d="M946 432q0 -209 -148 -330.5t-401 -121.5q-221 0 -356 90v274q193 -108 358 -108q112 0 175 42.5t63 116.5q0 43 -13.5 75.5t-38.5 60.5t-124 102q-138 99 -194 196t-56 209q0 129 62 230.5t176.5 158t263.5 56.5q217 0 397 -99l-109 -233q-156 74 -288 74 q-83 0 -136 -45t-53 -119q0 -61 33 -106.5t148 -120.5q121 -80 181 -176.5t60 -225.5zM362 1907h198q63 -53 162 -168q115 94 232 168h217v-25q-212 -198 -295 -303h-338q-22 54 -74 142.5t-102 160.5v25z"/>
<glyph glyph-name="scaron" horiz-adv-x="969" unicode="š" d="M829 369q0 -188 -124.5 -288.5t-346.5 -100.5q-107 0 -186.5 15t-148.5 50v248q157 -90 319 -90q80 0 131 32.5t51 88.5q0 43 -37 77t-131 86q-121 68 -169 135.5t-48 159.5q0 170 110.5 263.5t315.5 93.5q201 0 363 -95l-99 -215q-140 84 -258 84q-57 0 -92 -25.5 t-35 -68.5q0 -39 32 -68.5t120 -74.5q123 -63 178 -137t55 -170zM249 1569h198q63 -53 162 -168q115 94 232 168h217v-25q-212 -198 -295 -303h-338q-22 54 -74 142.5t-102 160.5v25z"/>
<glyph glyph-name="Ydieresis" horiz-adv-x="1155" unicode="Ÿ" d="M627 870l374 592h342l-618 -903l-119 -559h-303l119 559l-236 903h312zM834 1720q0 78 42 118t120 40q65 0 99 -28t34 -80q0 -73 -39.5 -116.5t-120.5 -43.5q-135 0 -135 110zM432 1720q0 78 42.5 118t119.5 40q133 0 133 -108q0 -73 -39 -116.5t-121 -43.5 q-135 0 -135 110z"/>
<glyph glyph-name="circumflex" horiz-adv-x="1135" unicode="ˆ" d="M1120 1241h-198q-63 53 -162 168q-105 -88 -232 -168h-217v25q63 57 153 147t142 156h338q22 -54 74 -142.5t102 -160.5v-25z"/>
<glyph glyph-name="caron" horiz-adv-x="1135" unicode="ˇ" d="M377 1569h198q63 -53 162 -168q115 94 232 168h217v-25q-212 -198 -295 -303h-338q-22 54 -74 142.5t-102 160.5v25z"/>
<glyph glyph-name="ring" horiz-adv-x="1182" unicode="˚" d="M877 1477q0 45 -27.5 70.5t-69.5 25.5t-69 -25.5t-27 -70.5t24 -71t72 -26q42 0 69.5 26t27.5 71zM1034 1479q0 -107 -70 -173.5t-184 -66.5q-110 0 -179 63.5t-69 174.5q0 109 68.5 173t179.5 64q110 0 182 -65t72 -170z"/>
<glyph glyph-name="tilde" horiz-adv-x="1135" unicode="˜" d="M866 1241q-49 0 -86.5 16.5t-69.5 36t-61.5 36t-62.5 16.5q-31 0 -55.5 -28t-38.5 -79h-177q59 309 281 309q49 0 87.5 -16.5t71.5 -36t62 -35.5t60 -16q34 0 58 25.5t46 80.5h172q-66 -309 -287 -309z"/>
<glyph glyph-name="Alpha" horiz-adv-x="1286" unicode="Α" d="M827 608l-26 350q-10 131 -10 253v36q-44 -120 -109 -254l-188 -385h333zM842 348h-473l-172 -348h-320l766 1468h373l147 -1468h-297z"/>
<glyph glyph-name="Beta" horiz-adv-x="1270" unicode="Β" d="M412 256h180q117 0 183.5 58t66.5 161q0 162 -183 162h-165zM545 883h149q121 0 181.5 48.5t60.5 139.5q0 137 -170 137h-152zM788 1462q229 0 346 -81.5t117 -243.5q0 -150 -83 -247.5t-236 -129.5v-6q100 -26 159.5 -96.5t59.5 -180.5q0 -229 -153 -353t-423 -124h-522 l309 1462h426z"/>
<glyph glyph-name="Gamma" horiz-adv-x="1030" unicode="Γ" d="M354 0h-301l309 1462h814l-54 -254h-512z"/>
<glyph glyph-name="uni0394" horiz-adv-x="1239" unicode="Δ" d="M752 1174q-16 -55 -58 -142l-375 -774h517l-76 758q-8 96 -8 158zM629 1468h352l141 -1294l-39 -174h-1136l35 180z"/>
<glyph glyph-name="Epsilon" horiz-adv-x="1110" unicode="Ε" d="M870 0h-817l309 1462h818l-54 -254h-512l-67 -321h477l-55 -254h-477l-80 -377h512z"/>
<glyph glyph-name="Zeta" horiz-adv-x="1098" unicode="Ζ" d="M920 0h-981l38 201l777 1005h-543l53 256h936l-41 -202l-782 -1004h596z"/>
<glyph glyph-name="Eta" horiz-adv-x="1434" unicode="Η" d="M1135 0h-306l134 631h-471l-134 -631h-305l309 1462h306l-121 -573h471l121 573h305z"/>
<glyph glyph-name="Theta" horiz-adv-x="1520" unicode="Θ" d="M885 1227q-132 0 -233.5 -84t-159.5 -243.5t-58 -352.5q0 -142 73 -224.5t198 -82.5q136 0 235 84.5t152 240.5t53 353q0 142 -69.5 225.5t-190.5 83.5zM1456 903q0 -270 -93 -483t-266.5 -326.5t-404.5 -113.5q-268 0 -418.5 153.5t-150.5 421.5q0 271 100.5 488 t276 329.5t403.5 112.5q263 0 408 -153.5t145 -428.5zM1040 870l-53 -254h-444l53 254h444z"/>
<glyph glyph-name="Iota" horiz-adv-x="659" unicode="Ι" d="M53 0l312 1462h305l-312 -1462h-305z"/>
<glyph glyph-name="Kappa" horiz-adv-x="1255" unicode="Κ" d="M1141 0h-338l-211 592l-125 -70l-109 -522h-305l309 1462h306l-152 -702l158 205l409 497h361l-594 -700z"/>
<glyph glyph-name="Lambda" horiz-adv-x="1229" unicode="Λ" d="M-123 0l748 1468h342l139 -1468h-295l-59 836q-9 113 -9 338l-29 -79q-47 -127 -89 -214l-428 -881h-320z"/>
<glyph glyph-name="Mu" horiz-adv-x="1802" unicode="Μ" d="M838 369l551 1093h423l-309 -1462h-280l145 692q53 247 105 441h-5l-569 -1133h-281l-61 1133h-4q-11 -88 -38 -231t-187 -902h-275l309 1462h404l68 -1093h4z"/>
<glyph glyph-name="Nu" horiz-adv-x="1546" unicode="Ν" d="M1247 0h-342l-356 1106h-6l-4 -32q-32 -216 -66 -386l-145 -688h-275l309 1462h357l340 -1077h4q12 76 39 217t180 860h274z"/>
<glyph glyph-name="Xi" horiz-adv-x="1067" unicode="Ξ" d="M911 256l-53 -256h-901l51 256h903zM305 1462h823l-53 -254h-823zM262 887h668l-56 -254h-667z"/>
<glyph glyph-name="Omicron" horiz-adv-x="1495" unicode="Ο" d="M872 1227q-121 0 -222 -91.5t-158.5 -251.5t-57.5 -347q0 -147 66.5 -222t187.5 -75t220.5 87t155.5 246t56 357q0 142 -65 219.5t-183 77.5zM1432 938q0 -283 -99 -506.5t-271 -337.5t-396 -114q-256 0 -399.5 147.5t-143.5 409.5q0 265 99 487.5t273 341.5t402 119 q255 0 395 -144t140 -403z"/>
<glyph glyph-name="Pi" horiz-adv-x="1423" unicode="Π" d="M1124 0h-305l256 1204h-461l-256 -1204h-305l309 1462h1072z"/>
<glyph glyph-name="Rho" horiz-adv-x="1188" unicode="Ρ" d="M1190 1036q0 -241 -169.5 -378.5t-467.5 -137.5h-86l-109 -520h-305l309 1462h338q242 0 366 -106.5t124 -319.5zM522 774h56q142 0 223.5 69t81.5 185q0 180 -195 180h-74z"/>
<glyph glyph-name="Sigma" horiz-adv-x="1112" unicode="Σ" d="M-43 0l49 242l543 506l-322 481l49 233h906l-54 -254h-559l318 -481l-500 -471h596l-53 -256h-973z"/>
<glyph glyph-name="Tau" horiz-adv-x="1087" unicode="Τ" d="M571 0h-305l254 1204h-352l55 258h1010l-55 -258h-353z"/>
<glyph glyph-name="Upsilon" horiz-adv-x="1155" unicode="Υ" d="M627 870l374 592h342l-618 -903l-119 -559h-303l119 559l-236 903h312z"/>
<glyph glyph-name="Phi" horiz-adv-x="1671" unicode="Φ" d="M788 1061q-168 -10 -264 -107t-96 -266q0 -112 59 -176t170 -68zM942 444q176 12 268.5 111.5t92.5 265.5q0 109 -59 172.5t-171 67.5zM557 -20l49 223q-147 11 -255.5 69t-168 165.5t-59.5 252.5q0 281 186 440.5t531 172.5l37 180h284l-37 -180q232 -20 358 -145.5 t126 -336.5q0 -287 -189.5 -449.5t-527.5 -166.5l-49 -225h-285z"/>
<glyph glyph-name="Chi" horiz-adv-x="1241" unicode="Χ" d="M1124 0h-331l-172 543l-396 -543h-342l576 764l-238 698h320l153 -518l363 518h344l-545 -725z"/>
<glyph glyph-name="Psi" horiz-adv-x="1671" unicode="Ψ" d="M967 434h-21l-92 -434h-285l95 434h-15q-222 0 -346.5 103.5t-124.5 287.5q0 89 23 197l94 440h295l-101 -479q-14 -68 -14 -117q0 -98 55.5 -139t167.5 -41h17l164 776h284l-164 -776h17q147 0 222.5 69t109.5 224l102 483h297l-111 -518q-109 -510 -669 -510z"/>
<glyph glyph-name="alpha" horiz-adv-x="1241" unicode="α" d="M528 223q77 0 135 70.5t91.5 205t33.5 220.5q0 80 -32 128t-97 48q-71 0 -131.5 -68t-96.5 -180.5t-36 -232.5q0 -99 32.5 -145t100.5 -46zM887 967q19 41 48.5 84.5t51.5 66.5h254q-45 -83 -91.5 -203.5t-72.5 -240.5l-67 -320q-6 -30 -6 -53q0 -65 61 -65q36 0 65 12 v-238q-63 -30 -165 -30q-201 0 -246 165h-6q-81 -95 -153.5 -130t-164.5 -35q-145 0 -225 106.5t-80 298.5q0 212 67 385.5t188 271t271 97.5q89 0 151.5 -39t113.5 -133h6z"/>
<glyph glyph-name="beta" horiz-adv-x="1270" unicode="β" d="M786 1329q-83 0 -134 -60t-77 -184l-174 -800q27 -27 79 -44.5t106 -17.5q113 0 178 75.5t65 201.5q0 92 -52.5 138t-151.5 46h-47l51 242h59q110 0 172 68t62 192q0 68 -37 105.5t-99 37.5zM803 1567q204 0 316 -93t112 -257q0 -176 -92.5 -275t-259.5 -127 q125 -23 196.5 -109t71.5 -219q0 -149 -64.5 -268.5t-176.5 -179t-263 -59.5q-79 0 -147 16.5t-144 58.5l-114 -547h-304l345 1635q46 219 172.5 321.5t351.5 102.5z"/>
<glyph glyph-name="gamma" horiz-adv-x="1049" unicode="γ" d="M381 -492h-322q51 257 183 506l-140 1104h295q25 -314 37 -471t12 -300v-44h5q15 41 37.5 93.5t45 100t310.5 621.5h323l-551 -1012q-98 -181 -151 -318t-84 -280z"/>
<glyph glyph-name="delta" horiz-adv-x="1204" unicode="δ" d="M528 225q101 0 168.5 95t67.5 243q0 147 -102 228q-126 -43 -207.5 -150t-81.5 -238q0 -85 38.5 -131.5t116.5 -46.5zM530 926q-151 126 -151 284q0 166 120 261.5t324 95.5q112 0 210.5 -26.5t197.5 -86.5l-119 -215q-157 102 -287 102q-67 0 -107 -32t-40 -88 q0 -30 10 -54t33 -49t127 -110q233 -187 233 -437q0 -271 -156 -431t-431 -160q-202 0 -320.5 105.5t-118.5 287.5q0 204 124 349.5t351 203.5z"/>
<glyph glyph-name="epsilon" horiz-adv-x="1051" unicode="ε" d="M762 477h-148q-120 0 -189 -38.5t-69 -106.5q0 -56 45 -86.5t131 -30.5q92 0 175.5 20.5t177.5 69.5v-246q-160 -79 -402 -79q-206 0 -325 77.5t-119 216.5q0 259 328 312v6q-80 31 -123 87.5t-43 127.5q0 158 123 245t344 87q245 0 403 -86l-92 -222q-92 46 -161.5 64 t-141.5 18q-97 0 -149 -32t-52 -93q0 -52 48.5 -76t148.5 -24h135z"/>
<glyph glyph-name="zeta" horiz-adv-x="948" unicode="ζ" d="M90 438q0 156 62.5 293t185.5 271t399 344q-78 -13 -180 -13h-238l50 223h780l-39 -182q-281 -226 -430 -374.5t-217 -271.5t-68 -247q0 -76 43 -129.5t135 -95.5q106 -50 154.5 -89.5t73 -88.5t24.5 -115q0 -91 -43.5 -170.5t-142.5 -171.5h-315q119 119 157.5 177.5 t38.5 103.5q0 34 -28 60t-109 63q-155 70 -224 169.5t-69 243.5z"/>
<glyph glyph-name="eta" horiz-adv-x="1237" unicode="η" d="M872 -492h-301l242 1145q16 68 16 119q0 123 -108 123q-92 0 -167 -114t-118 -318l-98 -463h-301l237 1118h230l-21 -207h6q146 228 355 228q138 0 213.5 -83.5t75.5 -238.5q0 -73 -23 -180z"/>
<glyph glyph-name="theta" horiz-adv-x="1198" unicode="θ" d="M756 1358q-171 0 -279 -459h361q28 158 28 283q0 80 -26.5 128t-83.5 48zM514 201q91 0 156 115.5t121 355.5h-363q-31 -167 -31 -285q0 -186 117 -186zM492 -20q-192 0 -292 116t-100 336q0 139 30 312.5t90 347t137 276.5t180.5 157t242.5 54q190 0 286.5 -118 t96.5 -339q0 -265 -85 -566.5t-230.5 -438.5t-355.5 -137z"/>
<glyph glyph-name="iota" horiz-adv-x="752" unicode="ι" d="M492 223q66 0 161 35v-225q-111 -53 -266 -53q-148 0 -219.5 62.5t-71.5 195.5q0 52 23 157l153 723h301l-155 -741q-12 -59 -12 -82q0 -72 86 -72z"/>
<glyph glyph-name="kappa" horiz-adv-x="1163" unicode="κ" d="M920 1118h344l-498 -504l285 -614h-336l-183 420l-120 -72l-74 -348h-301l237 1118h301q-71 -319 -87 -379t-29 -102h4z"/>
<glyph glyph-name="lambda" horiz-adv-x="1171" unicode="λ" d="M520 1061l-10 92q-9 88 -39.5 124t-93.5 36q-44 0 -101 -13l-36 246q87 23 192 23q162 0 249.5 -87.5t113.5 -277.5l102 -766q15 -115 40.5 -158.5t74.5 -43.5q32 0 67 10v-234q-73 -32 -190 -32q-115 0 -175.5 66t-80.5 206l-29 201q-11 73 -18 239q-23 -48 -48 -110.5 t-57 -122.5l-245 -459h-328z"/>
<glyph glyph-name="uni03BC" horiz-adv-x="1249" unicode="μ" d="M424 348q0 -60 31.5 -92.5t79.5 -32.5q90 0 162.5 106.5t117.5 319.5l98 469h301l-237 -1118h-229l18 176h-6q-117 -196 -266 -196q-51 0 -89.5 19.5t-58.5 47.5h-6q-8 -66 -21.5 -139t-82.5 -400h-304l342 1610h301l-135 -645q-16 -70 -16 -125z"/>
<glyph glyph-name="nu" horiz-adv-x="1126" unicode="ν" d="M102 1118h295l62 -616q10 -97 10 -230q133 157 219.5 355.5t149.5 490.5h307q-65 -357 -211 -624.5t-395 -493.5h-297z"/>
<glyph glyph-name="xi" horiz-adv-x="948" unicode="ξ" d="M848 705h-70q-179 0 -281 -64.5t-102 -179.5q0 -68 35 -110.5t143 -94.5q120 -60 163.5 -98t66 -85.5t22.5 -109.5q0 -91 -43.5 -170.5t-142.5 -171.5h-315q113 113 152.5 174t39.5 107q0 38 -29.5 63.5t-103.5 59.5q-152 70 -221.5 163t-69.5 222q0 317 363 411v6 q-96 23 -149.5 80t-53.5 137q0 112 77.5 186t245.5 116q-185 -13 -243 -13h-53l49 223h753l-45 -210h-24q-134 0 -240.5 -32t-159.5 -92t-53 -143q0 -80 58.5 -122t173.5 -42h102z"/>
<glyph glyph-name="omicron" horiz-adv-x="1198" unicode="ο" d="M1108 696q0 -211 -70.5 -374t-203.5 -252.5t-316 -89.5q-195 0 -311.5 117.5t-116.5 312.5q0 213 71.5 379.5t206.5 258t316 91.5q196 0 310 -118t114 -325zM805 696q0 197 -143 197q-75 0 -134.5 -61t-97 -179t-37.5 -243q0 -185 150 -185q75 0 135 61.5t93.5 171 t33.5 238.5z"/>
<glyph glyph-name="pi" horiz-adv-x="1464" unicode="π" d="M1174 219q65 0 131 33v-217q-100 -55 -248 -55q-131 0 -201 64t-70 185q0 27 5.5 62t119.5 598h-274l-188 -889h-306l191 889h-240l29 147l196 82h1182l-47 -229h-240l-108 -541q-8 -40 -8 -57q0 -72 76 -72z"/>
<glyph glyph-name="rho" horiz-adv-x="1219" unicode="ρ" d="M694 895q-87 0 -140 -78.5t-87 -241.5l-55 -264q49 -88 149 -88q69 0 127.5 64.5t96.5 188.5t38 233q0 88 -33 137t-96 49zM1128 705q0 -210 -65 -376t-185 -257.5t-274 -91.5q-163 0 -258 124q-9 -82 -25 -170t-88 -426h-299l228 1082q46 216 113 327t174 166.5 t264 55.5q195 0 305 -115t110 -319z"/>
<glyph glyph-name="sigma1" horiz-adv-x="948" unicode="ς" d="M395 487q0 -80 39 -133t139 -98q106 -50 154.5 -89.5t73 -88.5t24.5 -115q0 -91 -43.5 -170.5t-142.5 -171.5h-315q113 113 152.5 174t39.5 107q0 40 -31 67.5t-102 59.5q-157 71 -225 170t-68 247q0 190 81.5 355.5t215.5 251.5t303 86t320 -72l-92 -229 q-126 57 -224 57q-84 0 -152 -56t-107.5 -152t-39.5 -200z"/>
<glyph glyph-name="sigma" horiz-adv-x="1266" unicode="σ" d="M735 895q-105 0 -182.5 -60t-118.5 -166.5t-41 -238.5q0 -205 150 -205q116 0 189 131t73 326q0 111 -41 213h-29zM1098 590q0 -109 -43.5 -230t-118 -205t-178 -129.5t-234.5 -45.5q-201 0 -317.5 118t-116.5 326q0 211 80 368.5t232.5 241.5t359.5 84h577l-47 -223 h-284q37 -45 63.5 -123.5t26.5 -181.5z"/>
<glyph glyph-name="tau" horiz-adv-x="1022" unicode="τ" d="M645 223q65 0 162 35v-225q-111 -53 -266 -53q-148 0 -219.5 62.5t-71.5 195.5q0 50 12 112l115 539h-283l29 147l190 82h748l-49 -229h-334l-115 -539q-6 -30 -6 -53q0 -74 88 -74z"/>
<glyph glyph-name="upsilon" horiz-adv-x="1262" unicode="υ" d="M532 -20q-201 0 -307 99t-106 281q0 70 16 150l129 608h299l-129 -616q-14 -61 -14 -121q0 -156 141 -156q309 0 309 893h301q0 -331 -40 -538.5t-117.5 -336t-198 -196t-283.5 -67.5z"/>
<glyph glyph-name="phi" horiz-adv-x="1565" unicode="φ" d="M397 -492l105 482q-189 25 -300.5 149t-111.5 322q0 203 86 370.5t279 327.5l192 -176q-133 -135 -191.5 -259t-58.5 -253q0 -109 42 -169t110 -77l110 516q47 210 149 304t277 94q184 0 287 -115t103 -315q0 -209 -84.5 -371t-242 -254.5t-364.5 -101.5l-96 -474h-291z M836 227q102 16 177 86t115.5 180.5t40.5 241.5q0 178 -94 178q-89 0 -129 -176z"/>
<glyph glyph-name="chi" horiz-adv-x="1130" unicode="χ" d="M307 1139q124 0 187.5 -70t87.5 -233l26 -183l320 465h332l-574 -774l74 -463q9 -58 33 -87.5t73 -29.5q45 0 103 15v-238q-97 -33 -195 -33q-126 0 -191.5 69.5t-88.5 229.5l-41 281l-385 -580h-328l639 893l-53 334q-13 77 -34 109.5t-63 32.5q-34 0 -73 -15l-52 238 q101 39 203 39z"/>
<glyph glyph-name="psi" horiz-adv-x="1655" unicode="ψ" d="M1171 1554l-284 -1339q196 32 286.5 248.5t90.5 654.5h301q0 -416 -78 -649.5t-239 -354.5t-412 -143l-99 -463h-288l98 463q-209 21 -318.5 120t-109.5 269q0 70 16 150l129 608h299l-129 -616q-14 -61 -14 -121q0 -77 45.5 -121t132.5 -49l285 1343h288z"/>
<glyph glyph-name="uni03D1" horiz-adv-x="1419" unicode="ϑ" d="M1278 762q-54 -286 -147 -454.5t-227.5 -248t-311.5 -79.5q-179 0 -282 77t-103 211q0 69 31 162q24 77 24 107q0 57 -57 57q-43 0 -88 -25v215q116 45 225 45q102 0 157.5 -50.5t55.5 -141.5q0 -73 -35 -191q-26 -83 -26 -127q0 -102 124 -102q122 0 210 132.5 t147 408.5q-163 8 -281.5 62.5t-180.5 145.5t-62 205q0 187 120 296.5t324 109.5t311 -133t107 -381v-37l-2 -35h149l-49 -229h-133zM748 1184q0 -89 68 -139.5t192 -53.5q6 50 6 109q0 121 -36 184.5t-99 63.5q-66 0 -98.5 -46t-32.5 -118z"/>
<glyph glyph-name="uni03D2" horiz-adv-x="1178" unicode="ϒ" d="M625 870l67 123q157 287 261.5 384.5t236.5 97.5q83 0 162 -27l-56 -231q-31 14 -69 14q-59 0 -123 -80q-136 -168 -383 -602l-117 -549h-303l119 559l-236 903h312z"/>
<glyph glyph-name="uni03D6" horiz-adv-x="1921" unicode="ϖ" d="M1403 768q0 73 -6 121h-760q-143 -281 -143 -500q0 -172 112 -172q69 0 110.5 55.5t71.5 194.5l31 137h285l-31 -137q-18 -85 -18 -135q0 -115 100 -115q114 0 181 149.5t67 401.5zM553 -20q-166 0 -257 105.5t-91 295.5q0 128 44.5 265.5t117.5 242.5h-273l29 147 l196 82h1641l-47 -229h-244q17 -88 17 -199q0 -198 -72 -367.5t-190 -256t-263 -86.5q-108 0 -176 48.5t-98 153.5q-66 -109 -147 -155.5t-187 -46.5z"/>
<glyph glyph-name="uni2002" horiz-adv-x="1024" unicode=" "/>
<glyph glyph-name="uni2003" horiz-adv-x="2048" unicode=" "/>
<glyph glyph-name="uni2009" horiz-adv-x="410" unicode=" "/>
<glyph glyph-name="endash" horiz-adv-x="983" unicode="–" d="M41 436l49 230h852l-49 -230h-852z"/>
<glyph glyph-name="emdash" horiz-adv-x="1966" unicode="—" d="M41 436l49 230h1835l-49 -230h-1835z"/>
<glyph glyph-name="quoteleft" horiz-adv-x="440" unicode="‘" d="M123 961l-8 22q103 227 262 479h225q-91 -213 -194 -501h-285z"/>
<glyph glyph-name="quotesinglbase" horiz-adv-x="569" unicode="‚" d="M377 238l8 -23q-103 -227 -262 -479h-225q88 207 194 502h285z"/>
<glyph glyph-name="quotedblleft" horiz-adv-x="887" unicode="“" d="M123 961l-8 22q103 227 262 479h225q-91 -213 -194 -501h-285zM569 961l-8 22q103 227 262 479h226q-97 -227 -195 -501h-285z"/>
<glyph glyph-name="quotedblright" horiz-adv-x="887" unicode="”" d="M1032 1462l8 -22q-103 -227 -262 -479h-225q23 53 46.5 111t148.5 390h284zM586 1462l8 -22q-103 -227 -262 -479h-226q89 206 195 501h285z"/>
<glyph glyph-name="dagger" horiz-adv-x="1036" unicode="†" d="M985 928l-311 30l-152 -958h-282l256 956l-306 -28l52 241l295 -28l34 415h283l-141 -415l323 28z"/>
<glyph glyph-name="daggerdbl" horiz-adv-x="1057" unicode="‡" d="M600 559l324 29l-52 -242l-311 29l-26 -375h-285l133 375l-324 -29l52 242l311 -29l4 227l90 211l-323 -28l51 241l311 -28l27 374h284l-133 -374l324 28l-51 -241l-312 28v-211z"/>
<glyph glyph-name="ellipsis" horiz-adv-x="1706" unicode="…" d="M25 115q0 90 53.5 144t150.5 54q68 0 109 -38t41 -107q0 -87 -55 -141t-144 -54q-73 0 -114 37.5t-41 104.5zM586 115q0 90 53.5 144t150.5 54q68 0 109 -38t41 -107q0 -87 -55 -141t-144 -54q-73 0 -114 37.5t-41 104.5zM1147 115q0 90 53.5 144t150.5 54q68 0 109 -38 t41 -107q0 -87 -55 -141t-144 -54q-73 0 -114 37.5t-41 104.5z"/>
<glyph glyph-name="perthousand" horiz-adv-x="2494" unicode="‰" d="M1679 590q0 -167 -54 -313.5t-148 -220.5t-215 -74q-144 0 -216.5 78.5t-72.5 222.5q0 177 53 322.5t148 219.5t219 74q137 0 211.5 -78.5t74.5 -230.5zM1376 690q-39 0 -75 -56t-59 -154t-23 -195t55 -97q41 0 77 55t59.5 154.5t23.5 196.5q0 96 -58 96zM2421 590 q0 -167 -55.5 -314t-149 -220.5t-213.5 -73.5q-144 0 -216.5 78.5t-72.5 222.5q0 178 53 322.5t148 219t219 74.5q137 0 212 -78.5t75 -230.5zM2118 690q-39 0 -75.5 -56t-59.5 -156t-23 -193q0 -97 55 -97q66 0 113 131t47 275q0 96 -57 96zM1554 1462l-1083 -1462h-240 l1088 1462h235zM821 1165q0 -166 -56 -310t-151 -217t-217 -73q-139 0 -210.5 83.5t-71.5 236.5q0 169 55.5 311.5t148.5 214.5t216 72q137 0 211.5 -80t74.5 -238zM518 1274q-63 0 -110.5 -128.5t-47.5 -277.5q0 -96 56 -96q65 0 112 131t47 275q0 96 -57 96z"/>
<glyph glyph-name="minute" horiz-adv-x="522" unicode="′" d="M549 1462l-152 -528h-196l71 528h277z"/>
<glyph glyph-name="second" horiz-adv-x="928" unicode="″" d="M954 1462l-151 -528h-199l74 528h276zM549 1462l-152 -528h-196l71 528h277z"/>
<glyph glyph-name="guilsinglleft" horiz-adv-x="664" unicode="‹" d="M72 569l401 463l191 -155l-279 -334l135 -350l-246 -103l-202 461v18z"/>
<glyph glyph-name="guilsinglright" horiz-adv-x="664" unicode="›" d="M592 535l-402 -463l-190 155l279 334l-136 350l246 103l203 -461v-18z"/>
<glyph glyph-name="fraction" horiz-adv-x="256" unicode="⁄" d="M791 1462l-1084 -1462h-239l1087 1462h236z"/>
<glyph glyph-name="foursuperior" horiz-adv-x="776" unicode="⁴" d="M455 905l58 231l22 74q-13 -20 -43 -58t-211 -247h174zM776 737h-119l-32 -151h-238l33 151h-373l31 174l475 557h260l-121 -563h119z"/>
<glyph glyph-name="Euro" d="M899 1237q-97 0 -176 -74.5t-135 -212.5h348l-39 -176h-360q-11 -34 -25 -115h299l-37 -178h-280q0 -120 44.5 -181.5t147.5 -61.5q133 0 283 63v-258q-126 -63 -330 -63q-446 0 -446 501h-152l37 178h127q9 67 22 115h-125l39 176h135q87 252 250.5 393.5t374.5 141.5 q100 0 179 -23t165 -80l-125 -223q-87 49 -131 63.5t-90 14.5z" unicode="€"/>
<glyph glyph-name="trademark" horiz-adv-x="1534" unicode="™" d="M1047 741l-166 529h-7l5 -111v-418h-164v721h248l159 -510l170 510h240v-721h-168v408l4 121h-6l-174 -529h-141zM471 741h-168v572h-197v149h564v-149h-199v-572z"/>
<glyph glyph-name="partialdiff" horiz-adv-x="1190" unicode="∂" d="M502 223q104 0 186 132t121 362q-20 40 -60.5 67t-93.5 27q-70 0 -127.5 -54t-94 -162t-36.5 -220q0 -152 105 -152zM1139 920q0 -263 -85 -486t-231.5 -338.5t-337.5 -115.5q-199 0 -304 106t-105 313q0 170 71.5 325.5t189 234.5t267.5 79q137 0 221 -67 q-11 141 -66.5 201.5t-158.5 60.5q-137 0 -272 -90v258q153 82 336 82q228 0 351.5 -143t123.5 -420z"/>
<glyph glyph-name="Delta" horiz-adv-x="1239" unicode="∆" d="M752 1174q-16 -55 -58 -142l-375 -774h517l-76 758q-8 96 -8 158zM629 1468h352l141 -1294l-39 -174h-1136l35 180z"/>
<glyph glyph-name="product" horiz-adv-x="1518" unicode="∏" d="M1061 -457v1661h-551v-1661h-317v1919h1185v-1919h-317z"/>
<glyph glyph-name="summation" horiz-adv-x="1292" unicode="∑" d="M123 -457v170l575 834l-559 749v166h1166v-252h-756l493 -657l-518 -756h840v-254h-1241z"/>
<glyph glyph-name="minus" d="M109 612v219h952v-219h-952z" unicode="−"/>
<glyph glyph-name="radical" horiz-adv-x="1124" unicode="√" d="M725 -14h-182l-269 737h-176v213h326l205 -567l489 1388h219z"/>
<glyph glyph-name="infinity" horiz-adv-x="1448" unicode="∞" d="M1024 852q-87 0 -168 -133q80 -137 170 -137q58 0 91.5 40.5t33.5 96.5q0 59 -36 96t-91 37zM465 588q88 0 166 135q-75 135 -168 135q-58 0 -91.5 -39t-33.5 -98q0 -60 34.5 -96.5t92.5 -36.5zM1356 717q0 -142 -91 -240t-227 -98q-176 0 -299 176q-61 -80 -134 -125 t-150 -45q-142 0 -232 92t-90 246q0 144 90.5 240t231.5 96q177 0 290 -174q125 170 293 170q140 0 229 -92t89 -246z"/>
<glyph glyph-name="approxequal" d="M342 469q-51 0 -111.5 -30t-121.5 -91v232q102 108 256 108q59 0 109 -11.5t147 -51.5q73 -31 115.5 -43.5t90.5 -12.5q108 0 234 121v-231q-103 -109 -256 -109q-64 0 -117 14t-139 50q-78 33 -119 44t-88 11zM342 868q-51 0 -112 -30.5t-121 -89.5v231q100 108 256 108 q59 0 109 -11.5t147 -51.5q64 -27 111 -41t95 -14q51 0 112 30.5t122 90.5v-232q-102 -108 -256 -108q-59 0 -109 11.5t-147 51.5q-78 33 -119 44t-88 11z" unicode="≈"/>
<glyph glyph-name="notequal" d="M561 418l-127 -275l-201 84l89 191h-213v219h315l80 170h-395v217h495l131 281l201 -86l-92 -195h217v-217h-318l-79 -170h397v-219h-500z" unicode="≠"/>
<glyph glyph-name="lessequal" d="M1063 264l-952 438v144l952 495v-239l-643 -318l643 -280v-240zM109 0v219h952v-219h-952z" unicode="≤"/>
<glyph glyph-name="greaterequal" d="M109 504l643 280l-643 318v239l952 -495v-144l-952 -438v240zM109 0v219h952v-219h-952z" unicode="≥"/>
<glyph glyph-name="lozenge" horiz-adv-x="1194" unicode="◊" d="M864 735l-243 410l-244 -410l244 -409zM1128 735l-450 -735h-115l-450 735l450 738h115z"/>
</font>
</defs>
</svg>
